osu file format v5

[General]
AudioFilename: Michyeo.mp3
AudioLeadIn: 2000
PreviewTime: -1
Countdown: 1
SampleSet: Soft
StackLeniency: 0.7
Mode: 0
LetterboxInBreaks: 1
EditorBookmarks: 136121

[Metadata]
Title:Michyeo (Going Crazy)
Artist:Lee Jung Hyun
Creator:darrihuka
Version:Supergarlic Mix
Source:
Tags:

[Difficulty]
HPDrainRate:7
CircleSize:5
OverallDifficulty:6
SliderMultiplier:1.7
SliderTickRate:1

[Events]
//Background and Video events
0,0,"michyeo.jpg"
//Break Periods
2,76661,78140
2,116662,124503
//Storyboard Layer 0 (Background)
//Storyboard Layer 1 (Failing)
//Storyboard Layer 2 (Passing)
//Storyboard Layer 3 (Foreground)
//Storyboard Sound Samples
//Background Colour Transformations
3,100,163,162,255

[TimingPoints]
100,454.545454545455,4,2,0,60,1
7372,-200,4,2,0,100,0
27599,-100,4,1,0,40,0
27827,-100,4,1,0,40,0
28054,-100,4,1,0,50,0
28281,-100,4,1,0,60,0
28509,-100,4,1,0,70,0
28736,-100,4,1,0,80,0
28963,-100,4,1,0,90,0
29190,-100,4,1,0,100,0
83962,-100,4,2,0,100,0
85780,-100,4,1,0,100,0
120326,-200,4,2,0,100,0
125553,-100,4,1,0,100,0
138280,-100,4,1,0,100,0
165552,-100,4,2,0,100,0
167143,-100,4,1,0,100,0
168052,-50,4,1,0,100,0
181007,-200,4,1,0,100,0
182825,-50,4,1,0,100,0
198279,-100,4,2,0,100,0

[Colours]
Combo1 : 255,255,255
Combo2 : 191,0,219
Combo3 : 216,216,216
Combo4 : 255,0,249

[HitObjects]
256,192,100,1,0
256,256,554,1,4
192,256,1009,1,0
192,192,1463,1,4
128,192,1918,1,0
128,128,2372,1,4
128,64,2827,1,0
192,64,3281,1,4
192,128,3736,5,0
224,128,3963,1,0
256,128,4190,1,4
320,128,4645,1,0
320,160,4872,1,0
320,192,5100,1,4
256,192,5554,1,0
224,192,5781,1,0
192,192,6009,1,4
192,256,6463,1,0
224,256,6690,1,0
256,256,6918,1,4
320,256,7372,6,0,B|320:160,1,85,0|4
256,192,8281,2,0,B|256:64,1,85,0|4
192,128,9190,2,0,B|192:32,1,85,0|4
256,32,10100,2,0,B|256:128,1,85,0|4
320,64,11009,6,0,L|320:96|352:96,2,42.5,0|0|4
256,96,11918,2,0,L|256:128|224:128,2,42.5,0|0|4
320,128,12827,2,0,L|320:160|352:160,2,42.5,0|0|4
256,160,13736,2,0,L|256:192|224:192,2,42.5,0|0|4
288,224,14645,6,0,L|352:224,1,42.5
330,224,15100,1,4
352,160,15554,2,0,L|288:160,1,42.5
309,160,16009,1,4
320,96,16463,2,0,L|384:96,1,42.5
362,96,16918,1,4
384,32,17372,2,0,L|320:32,1,42.5
341,32,17827,1,4
288,64,18281,6,0,L|192:64,1,85,0|4
203,64,19190,2,0,L|203:160,1,85,0|4
203,149,20099,2,0,L|299:149,1,85,0|4
289,149,21009,2,0,L|289:245,1,85,0|4
192,264,21918,5,0
160,264,22145,1,0
128,264,22372,1,4
96,264,22599,1,4
96,232,22827,5,0
128,232,23054,1,0
160,232,23281,1,4
192,232,23509,1,4
192,200,23736,5,0
160,200,23963,1,0
128,200,24190,1,4
96,200,24418,1,4
96,168,24645,5,0
128,168,24872,1,0
160,168,25099,1,4
192,168,25327,1,4
192,136,25554,5,0
160,136,25781,1,0
128,136,26009,1,4
96,136,26236,1,4
96,104,26463,5,0
128,104,26690,1,0
160,104,26918,1,4
192,104,27145,1,4
224,104,27372,5,4
280,104,27599,1,0
336,104,27827,1,0
400,104,28054,1,0
400,184,28281,1,0
320,184,28509,1,0
232,184,28736,1,0
128,184,28963,1,0
128,64,29190,6,0,L|128:96|96:96,2,42.5,4|0|0
184,64,29645,2,0,L|280:64,1,85,0|0
320,64,30099,2,0,L|320:96|352:96,2,42.5
384,64,30554,6,0,L|416:128|352:224,1,170
320,256,31236,1,8
256,224,31463,1,0
192,256,31690,1,8
128,224,31918,1,8
128,192,32031,1,0
128,160,32145,1,8
128,128,32259,1,0
128,96,32372,1,8
192,96,32599,1,0
256,96,32827,6,0,L|320:160,1,85
384,160,33281,2,8,L|320:224,1,85
256,224,33736,2,0,L|320:288,1,85
256,320,34190,1,8
224,320,34304,1,8
192,320,34418,1,8
128,288,34645,6,0,L|128:224|160:224,1,85
192,224,35099,2,0,L|192:160,1,85,8|0
256,160,35554,2,8,L|256:96,1,42.5
320,128,35895,2,8,L|320:192,1,42.5
384,160,36236,2,8,L|384:96,2,42.5
416,224,36690,6,0,L|352:224|352:256,1,85,8|0
288,224,37145,2,0,L|224:224|224:256,1,85,8|0
160,224,37599,2,0,L|96:224|96:256,1,85,8|0
128,288,38054,1,8
192,288,38281,1,0
256,288,38509,1,8
288,288,38622,1,0
320,288,38736,1,8
320,256,38849,1,0
320,224,38963,1,8
320,160,39190,2,0,L|256:160|224:128,1,85
263,90,39645,2,8,L|295:122|359:122,1,85
320,64,40099,2,0,L|416:64|416:160,1,170
416,192,40781,6,0,L|352:192|352:224,3,85,8|0|8|8
384,256,41690,5,0
384,288,41804,1,0
352,288,41918,5,4
288,288,42145,5,8
224,288,42372,5,0
192,288,42486,1,0
192,256,42599,5,4
192,192,42827,5,8
192,128,43054,5,0
192,96,43168,1,0
224,96,43281,5,4
256,192,43509,5,8
288,96,43736,5,4
352,128,43963,1,0
352,192,44190,2,0,L|352:256|320:288,1,85
273,278,44645,2,8,L|273:214|305:182,1,85
224,192,45099,1,0
192,256,45327,1,8
160,192,45554,6,0,L|128:160|160:128|128:96|160:64,1,170
192,32,46236,1,8
224,32,46350,1,0
224,64,46463,1,8
224,128,46690,1,8
224,160,46804,1,0
256,160,46918,1,8
256,224,47145,1,0
320,224,47372,6,0,L|288:288|256:288,1,85
192,224,47827,2,0,L|224:288|256:288,1,85
256,352,48281,2,8,L|256:160,1,170
224,128,48963,1,0
256,128,49077,1,0
288,128,49190,1,8
352,128,49418,6,8,L|352:224,1,85,0|8
288,224,49872,2,8,L|288:288,2,42.5,0|0|8
224,211,50327,2,8,L|224:115,1,85,0|8
288,128,50781,2,0,L|288:64,2,42.5,0|0|8
224,96,51236,6,0,L|160:96|160:128,1,85
160,179,51690,2,8,L|160:211|224:211,1,85
256,211,52145,2,0,L|320:211|320:179,1,85
320,128,52600,2,8,L|320:96|256:96,1,85
256,32,53054,1,0
320,32,53281,1,0
384,64,53509,1,0
416,128,53736,2,2,L|384:128|384:160,2,42.5,2|2|8
416,192,54190,2,2,L|384:192|384:160,2,42.5,2|2|8
416,256,54645,6,0,L|352:256|320:288,1,85
288,224,55100,1,8
288,160,55327,2,0,L|224:160|192:128,1,85
160,192,55781,1,8
160,256,56009,2,0,L|96:256|64:288,1,85,0|8
32,224,56463,1,8
32,160,56690,6,0,L|96:96,1,85,0|4
128,160,57145,2,0,L|192:96,1,85,0|4
224,160,57600,2,0,L|288:96,1,85,0|4
320,160,58054,2,0,L|384:96,1,85,0|4
416,160,58509,5,8
416,192,58622,1,8
416,224,58736,1,8
384,288,58963,1,0
352,224,59190,1,8
352,160,59418,1,0
288,160,59645,2,8,L|288:224|256:224,2,85
288,96,60327,1,0
256,64,60440,1,0
224,96,60554,1,8
224,160,60781,6,0,L|192:160|192:128,2,42.5,8|8|2
224,224,61236,2,0,L|192:224|192:256,2,42.5,8|8|2
224,288,61690,6,0,L|416:288,1,170
448,288,62372,1,0
448,224,62600,2,0,L|256:224,1,170
320,288,63281,1,8
256,288,63509,5,0
224,288,63622,1,8
192,288,63736,1,0
224,224,63963,1,0
192,224,64077,1,8
160,224,64190,1,8
192,160,64418,1,8
160,160,64531,1,8
128,160,64645,1,0
160,96,64872,1,0
128,96,64986,1,8
96,96,65100,1,0
128,32,65327,1,8
96,32,65440,1,8
64,32,65554,5,0
32,96,65781,1,0
64,160,66009,1,8
32,224,66236,1,0
64,288,66463,1,8
128,288,66690,1,8
160,224,66918,1,0
128,160,67145,1,8
160,96,67372,1,0
128,32,67600,1,8
96,96,67827,1,8
96,128,67940,1,0
96,160,68054,1,8
96,224,68281,6,8,L|96:256|128:288,1,42.5
103,263,68509,1,4
160,224,68736,2,8,L|160:256|128:288,1,42.5
152,263,68963,1,4
128,320,69190,6,2,L|416:320,1,255
416,256,70100,2,2,L|160:256,1,255
192,192,71009,1,8
224,192,71122,1,8
256,192,71236,1,8
320,192,71463,1,8
448,192,71918,6,2,L|448:96,1,85
384,96,72372,1,2
320,96,72600,1,2
256,105,72827,2,4,L|256:201,1,85
302,242,73281,2,8,L|398:242,2,85
319,305,73963,1,0
383,305,74190,1,0
383,305,74418,1,8
448,288,74645,1,8
448,224,74872,2,0,L|448:192|416:160|384:192,1,85,8|0
373,224,75327,2,0,L|373:192|405:160|437:192,1,85,8|0
448,107,75781,2,0,L|448:139|416:171|384:139,1,85,8|0
373,107,76236,2,0,L|373:139|405:171|437:139,1,85,8|8
256,128,79190,5,8
224,192,79418,1,8
288,192,79645,1,8
256,256,79872,1,0
256,320,80099,1,2
128,320,80554,1,8
256,320,81009,1,2
384,320,81463,1,8
384,256,81690,1,0
384,192,81918,2,0,L|288:192,2,85,2|8|2
384,128,82599,6,0,L|288:128,1,85,0|8
299,128,83054,2,0,L|192:128,1,85,0|8
214,128,83509,2,0,L|128:128,1,85,8|0
128,192,83963,6,4,L|128:224|96:224|96:256,1,85
128,192,84418,2,4,L|160:192|160:224|192:224,1,85
128,192,84872,2,4,L|128:160|160:160|160:128,1,85
128,192,85327,2,4,L|96:192|96:160|64:160|64:160,1,85
128,96,85781,5,4
224,96,86009,5,4
320,96,86236,6,8,L|352:128|320:160,1,85
224,160,86690,2,8,L|192:192|224:224,1,85
320,224,87145,2,8,L|352:256|320:288,1,85,8|4
416,96,87827,5,8
352,160,88054,1,8
256,160,88281,1,0
192,96,88509,1,0
195,192,88736,2,8,L|291:288,1,85
316,192,89190,2,0,L|220:288,1,85
256,352,89645,1,8
352,320,89872,1,8
384,224,90099,1,0
352,128,90327,2,0,L|288:96|256:128,1,85
205,128,90781,2,8,L|269:96|301:128,1,85
96,288,91463,6,2,L|320:288,1,170
448,96,92372,6,2,L|256:96,1,170
192,96,93054,5,0
192,192,93281,1,8
288,224,93509,1,0
192,256,93736,1,8
192,352,93963,1,8
288,352,94190,2,0,L|352:320|352:288,1,85
448,288,94645,2,8,L|384:256|384:224,1,85
416,160,95099,6,0,L|384:96|352:160,1,85,0|8
352,192,95554,2,8,L|320:128|288:192,1,85
288,224,96009,2,0,L|256:160|224:224,1,85,0|8
224,256,96463,1,8
192,224,96577,1,8
160,192,96690,1,8
160,96,96918,2,0,L|224:96|224:128,2,85,0|0|8
160,192,97599,2,0,L|224:192|224:160,2,85,8|0|0
60,142,98281,5,4
352,96,99190,6,0,L|288:128|288:224|320:224,1,170,2|8
367,211,99872,1,8
448,192,100099,2,2,L|448:288|384:320|384:288,1,170
288,320,100781,5,0
256,288,100895,1,0
288,256,101009,1,4
192,256,101236,1,0
224,288,101349,1,0
192,320,101463,1,4
128,96,101918,5,8
384,96,102372,1,8
128,160,102827,1,8
384,160,103281,1,8
304,191,103509,2,0,L|208:223,1,85
192,288,103963,2,8,L|288:320,1,85
352,288,104418,2,0,L|288:256|288:224,1,85
384,224,104872,2,8,L|448:192|448:160,1,85
448,96,105327,5,0
416,64,105440,1,0
384,32,105554,1,8
352,128,105781,1,8
320,32,106009,2,0,L|256:96,1,85
256,192,106463,2,8,L|320:256,1,85
384,320,106918,1,0
384,320,107145,2,2,L|128:320,1,255
128,224,108054,5,0
224,192,108281,1,0
320,224,108509,1,0
416,192,108736,1,0
320,160,108963,1,0
224,192,109190,1,0
96,128,109645,6,8,L|128:224|160:160,1,170
416,128,110554,2,8,L|384:224|352:160,1,170
256,160,111236,2,8,L|256:256,1,85
256,352,111690,1,0
192,288,111918,1,8
288,288,112145,1,0
224,224,112372,1,8
320,224,112599,1,0
256,160,112827,1,8
352,160,113054,1,8
288,96,113281,1,2
384,96,113509,1,4
256,192,113622,12,0,114872
208,112,115099,5,10
304,112,115327,5,10
256,192,115554,5,10
208,272,115781,5,10
304,272,116009,5,10
64,192,116463,5,4
256,32,125554,5,4
256,96,125781,6,0,L|192:128|224:160,1,85
256,96,126236,2,0,L|320:128|288:160,1,85
256,160,126690,1,8
256,192,126804,1,0
256,224,126918,1,8
256,256,127031,1,0
256,288,127145,1,8
256,352,127372,6,0,L|352:352,1,85,0|8
352,288,127827,2,0,L|352:192,1,85,0|8
352,139,128281,2,0,L|448:139,1,85,0|8
438,167,128622,1,0
438,199,128736,1,8
480,256,128963,5,0
416,288,129190,1,8
352,320,129418,1,0
288,288,129645,1,8
160,288,130099,1,0
224,256,130327,1,8
288,224,130554,1,0
352,256,130781,1,8
352,192,131009,6,0,L|352:128|320:128,1,85
320,64,131463,1,0
256,64,131690,1,0
256,128,131918,1,8
256,160,132031,1,8
224,160,132145,1,0
224,192,132259,1,8
192,192,132372,1,8
160,256,132599,6,0,L|256:256,2,85
160,320,133281,2,0,L|64:320,2,85,0|0|8
192,320,133849,1,8
224,320,133963,2,0,L|320:320,2,85,8|0|0
224,288,134531,1,0
224,224,134759,1,8
256,224,134872,1,8
256,192,134986,1,8
256,160,135099,1,8
320,160,135327,1,0
384,160,135554,1,8
384,192,135668,1,0
384,224,135781,1,8
384,256,135895,1,0
384,288,136009,1,8
320,320,136236,6,0,L|256:320,2,42.5
320,256,136690,2,8,L|224:256,1,85
224,320,137145,2,0,L|288:320,2,42.5
160,288,137599,1,0
160,224,137827,1,0
160,192,137940,1,0
192,192,138054,1,0
256,192,138281,5,4
320,192,138509,6,0,L|352:160|384:192,1,85
352,256,138963,1,0
352,320,139190,1,0
288,320,139418,5,0
256,320,139531,1,0
224,320,139645,5,4
224,256,139872,5,8
224,192,140099,5,0
256,192,140213,1,0
288,192,140327,5,4
352,192,140554,1,0
384,128,140781,1,8
352,64,141009,1,0
320,128,141236,1,8
288,128,141349,1,0
256,128,141463,1,0
224,64,141690,1,8
192,128,141918,1,0
224,192,142145,1,8
288,224,142372,2,0,L|288:320,1,85
352,320,142827,6,8,L|416:320,2,42.5
192,256,143509,6,2,L|160:256|160:224|128:224,1,85
64,256,143963,2,0,L|96:256|96:224|128:224,1,85,2|8
192,160,144418,2,2,L|160:160|160:192|128:192,1,85
64,160,144872,2,0,L|96:160|96:192|128:192,1,85,2|8
128,96,145327,6,2,L|320:96,1,170,2|8
320,160,146009,1,8
320,160,146236,2,2,L|128:160,1,170,2|8
168,224,146918,1,8
168,224,147145,1,8
224,256,147372,6,0,L|256:288|288:256,1,85
352,256,147827,2,0,L|384:288|416:256,1,85,8|0
416,192,148281,1,0
352,192,148509,1,0
288,192,148736,1,8
224,192,148963,2,8,L|160:128|224:64,1,170
288,64,149645,1,8
352,96,149872,6,2,L|352:192,2,85
160,256,150781,6,0,L|192:256|192:224|224:224|224:192|256:192|256:160,1,170
288,128,151463,1,8
320,64,151690,1,0
352,128,151918,1,8
352,192,152145,1,0
320,256,152372,1,8
288,320,152599,2,2,L|192:320|192:288|128:288,1,170
96,288,153281,2,2,L|96:224|64:224|64:128,1,170
128,128,153963,5,2
192,160,154190,5,10
256,128,154418,5,2
320,160,154645,5,10
480,192,155099,5,8
256,256,155554,5,4
32,192,156009,5,8
96,192,156236,2,0,L|288:192,1,170
320,192,156918,1,8
384,192,157145,1,0
352,256,157372,1,0
288,256,157599,1,8
224,256,157827,1,0
96,256,158281,1,8
96,192,158509,6,2,L|192:192,1,85
181,192,158963,2,2,L|288:192,1,85,2|10
256,256,159418,2,2,L|352:256,1,85
341,256,159872,2,2,L|448:256,1,85,2|10
256,64,161009,6,2,L|192:128|256:192|192:256,1,255
160,288,161918,5,12
352,288,162372,5,8
256,96,162827,5,8
256,256,163281,5,8
256,192,163509,1,0
160,128,163963,1,8
352,128,164418,1,0
288,96,164645,1,8
256,32,164872,1,0
32,160,165327,5,4
96,160,165554,5,4
128,224,165781,1,4
168,160,166009,1,4
208,224,166236,1,4
256,160,166463,1,4
312,224,166690,1,4
368,160,166918,1,4
456,192,167145,5,8
456,192,167372,5,8
456,280,167599,5,4
456,104,167827,5,4
392,192,168054,6,2,L|200:192,1,170
192,128,168509,2,2,L|128:192|192:256,1,170
256,352,169190,5,4
256,160,169645,2,0,L|160:192|160:288,1,170
256,256,170099,1,8
256,256,170327,1,8
256,160,170554,2,0,L|352:192|352:288,1,170
192,64,171236,6,8,L|192:160|96:160,2,170
256,128,171918,2,0,L|256:320,2,170,0|8|0
320,64,172599,2,8,L|320:160|416:160,1,170
288,288,173281,6,2,L|256:192|160:192,1,170,2|10
192,288,173736,2,2,L|128:288|78:152,1,170,2|10
64,96,174190,1,0
160,96,174418,1,8
384,96,174872,5,8
416,192,175099,1,0
384,288,175327,1,8
288,288,175554,1,0
256,192,175781,1,8
288,96,176009,1,8
336,193,176236,1,8
96,192,176918,6,2,L|256:352|352:256,1,340,2|10
96,192,177827,2,2,L|256:32|352:128,1,340,2|10
384,192,178509,2,0,L|160:192,1,170
256,80,178963,1,8
320,144,179190,1,8
320,240,179418,1,8
256,304,179645,1,8
160,192,179872,6,0,B|336:192,1,170
256,192,181009,12,0,182599
256,96,182827,6,2,L|256:288,2,170
96,160,183736,6,0,L|96:224|160:224|160:160,1,170,0|8
160,96,184190,2,0,L|160:32|224:32|224:96,1,170,0|8
224,160,184645,2,0,L|224:224|288:224|288:160,1,170,0|8
288,96,185099,2,0,L|288:32|352:32|352:96,1,170,0|8
352,160,185554,1,0
352,256,185781,1,8
288,320,186009,1,0
192,320,186236,2,8,L|192:256|128:256|128:192,1,170
256,96,186918,1,8
256,96,187145,1,12
128,160,187827,6,10,L|352:160,1,170
384,224,188281,2,10,L|192:224,1,170
128,288,188736,2,10,L|352:288,1,170
128,128,189418,5,8
96,224,189645,1,0
192,224,189872,1,8
224,128,190099,1,0
320,128,190327,1,8
288,224,190554,1,0
384,224,190781,1,8
416,128,191009,1,0
96,32,191463,6,2,L|448:32,1,340
96,352,192372,6,2,L|480:352,1,340
448,256,193054,6,8,L|224:256,1,170
190,243,193509,2,0,L|190:51,1,170
279,64,193963,2,8,L|471:64,1,170
64,192,194645,5,8
320,160,195099,1,8
320,224,195327,1,8
160,96,195781,6,2,L|160:192|256:192,1,170,2|8
234,192,196236,2,0,L|320:192|320:288,1,170,2|8
448,320,196690,6,2,L|224:320,1,170
64,192,197145,2,2,L|288:192,1,170
448,64,197599,2,2,L|224:64,1,170
256,192,198281,12,2,200099
