osu file format v5

[General]
AudioFilename: Michyeo.mp3
AudioLeadIn: 2000
PreviewTime: -1
Countdown: 1
SampleSet: Soft
StackLeniency: 0.7
Mode: 0
LetterboxInBreaks: 1

[Metadata]
Title:Michyeo (Going Crazy)
Artist:Lee Jung Hyun
Creator:darrihuka
Version:Hard
Source:
Tags:

[Difficulty]
HPDrainRate:5
CircleSize:6
OverallDifficulty:7
SliderMultiplier:1.8
SliderTickRate:2

[Events]
//Background and Video events
0,0,"michyeo.jpg"
//Break Periods
2,116687,119451
2,200322,212404
//Storyboard Layer 0 (Background)
//Storyboard Layer 1 (Failing)
//Storyboard Layer 2 (Passing)
//Storyboard Layer 3 (Foreground)
//Storyboard Sound Samples
//Background Colour Transformations
3,100,163,162,255

[TimingPoints]
100,454.545454545455,4,2,0,100,1
25554,-200,4,2,0,100,0
27599,-100,4,1,0,40,0
27827,-100,4,1,0,40,0
28054,-100,4,1,0,50,0
28281,-100,4,1,0,60,0
28509,-100,4,1,0,70,0
28736,-100,4,1,0,80,0
28963,-100,4,1,0,90,0
29190,-100,4,1,0,100,0
99190,-200,4,1,0,100,0
101917,-100,4,1,0,100,0
120326,-200,4,2,0,100,0
125553,-100,4,2,0,100,0
138280,-100,4,1,0,100,0
165213,-100,4,2,0,100,0
167031,-100,4,1,0,100,0
181007,-200,4,1,0,100,0
182825,-100,4,1,0,100,0
198279,-100,4,2,0,100,0
213279,-100,4,1,0,100,0
225552,-100,4,1,0,20,0
226006,-100,4,1,0,30,0
226460,-100,4,1,0,40,0
226914,-100,4,1,0,50,0
227368,-100,4,1,0,60,0
227822,-100,4,1,0,70,0
228276,-100,4,1,0,80,0
228730,-100,4,1,0,90,0
229184,-100,4,1,0,100,0

[Colours]
Combo1 : 255,255,255
Combo2 : 191,0,219
Combo3 : 216,216,216
Combo4 : 255,0,249

[HitObjects]
64,80,99,1,2
64,80,554,1,2
192,80,1009,1,2
192,80,1463,1,2
320,80,1918,1,2
320,80,2372,1,2
448,80,2827,1,2
448,176,3281,1,2
432,208,3395,1,0
448,240,3509,1,0
464,272,3622,1,2
448,304,3736,5,0
448,304,4190,1,2
320,304,4645,1,0
320,304,5100,1,2
192,304,5554,1,0
192,304,6009,1,2
64,304,6463,1,2
64,208,6918,1,2
80,176,7031,1,0
64,144,7145,1,0
48,112,7259,1,2
64,80,7372,5,2
64,80,7827,1,2
160,128,8281,1,0
256,80,8736,1,2
352,80,9190,1,2
352,80,9645,1,2
448,128,10100,1,2
352,176,10554,1,0
256,176,11009,5,2
256,176,11463,1,2
368,240,11918,1,2
368,240,12372,1,2
368,112,12827,1,2
368,112,13281,1,2
256,176,13736,1,0
256,176,14190,1,0
448,304,14645,5,2
448,304,15100,1,2
448,304,15554,1,2
320,304,16009,1,2
192,304,16463,1,2
192,304,16918,1,2
64,304,17372,1,2
64,208,17827,1,2
80,176,17940,1,0
64,144,18054,1,0
48,112,18168,1,2
64,80,18281,5,0
64,80,18736,1,0
64,80,19190,1,2
192,80,19645,1,2
320,80,20099,1,0
320,80,20554,1,0
448,80,21009,1,2
448,176,21463,1,2
432,208,21577,1,0
448,240,21690,1,0
464,272,21804,1,2
448,304,21918,5,0
448,304,22372,1,0
352,256,22827,1,2
256,304,23281,1,2
240,272,23395,1,0
256,240,23509,1,0
272,208,23622,1,2
256,176,23736,5,2
256,176,24190,1,2
160,224,24645,1,0
64,176,25099,1,2
160,128,25554,6,0,B|256:128,1,90,0|2
272,184,26236,1,0
240,240,26463,2,0,B|208:288|112:288|80:240,1,180,0|0
81,242,27599,5,0
81,242,27827,1,0
81,242,28054,1,0
81,242,28281,1,0
81,242,28509,1,0
81,242,28736,1,0
81,242,28963,1,0
81,242,29190,6,0,B|176:192|256:240,1,180,4|8
304,304,29872,2,0,B|400:304,1,90,0|2
448,320,30327,2,0,B|448:224,1,90,0|8
384,224,30781,1,0
416,160,31009,6,0,B|321:110|241:158,1,180,0|8
192,192,31690,1,0
192,192,32145,2,0,B|192:96,1,90,0|8
192,102,32599,1,0
192,102,32827,6,0,B|287:152|367:104,1,180,0|8
416,64,33509,2,0,B|416:160,1,90,0|2
448,216,33963,2,0,B|344:248,1,90,0|8
304,208,34418,1,0
288,272,34645,6,0,B|193:222|113:270,1,180,0|8
64,304,35327,2,0,B|64:208,1,90,0|2
128,192,35781,2,0,B|88:96,1,90,0|8
128,48,36236,1,0
128,48,36463,6,0,B|223:-2|303:46,1,180,4|8
352,16,37145,2,0,B|448:32|480:112|368:176|404:223|464:240,1,270,0|8
496,256,38054,1,0
448,304,38281,6,0,B|256:304,1,180,0|8
268,304,38963,1,0
352,240,39418,2,0,B|256:240,1,90,0|8
262,240,39872,1,0
192,240,40099,6,0,B|152:144|280:112,1,180,0|8
336,112,40781,2,0,B|400:192,1,90,0|2
320,192,41236,2,0,B|304:288,1,90,0|8
240,240,41690,1,0
80,192,41918,5,2
432,192,42599,5,2
368,64,43054,5,8
368,128,43281,1,8
368,192,43509,1,0
368,256,43736,1,2
304,288,43963,5,0
304,288,44190,1,8
304,288,44418,1,0
304,288,44645,2,0,B|272:208|144:256,1,180,0|8
96,288,45327,2,0,B|96:192,1,90
32,176,45781,2,0,B|96:96,1,90,0|8
144,128,46236,1,0
200,48,46463,5,0
216,136,46690,1,2
144,240,47145,6,0,B|184:280|224:240,1,90,0|0
224,240,47600,2,0,B|264:280|304:240,1,90,0|8
352,280,48054,1,0
400,240,48281,1,0
448,280,48509,1,0
448,280,48736,1,8
448,280,48963,2,0,B|488:232|440:176,1,90
392,136,49418,6,0,B|304:112,1,90,2|8
305,112,49872,1,0
304,112,50100,2,0,B|216:88,1,90,2|0
217,88,50554,1,8
216,88,50781,2,0,B|128:64,1,90,2|0
144,152,51236,5,0
144,152,51463,1,8
144,152,51690,1,0
144,152,51918,2,0,B|80:248|192:304,1,180,0|8
248,304,52600,2,0,B|288:216,1,90
285,222,53054,2,0,B|392:224,1,90,0|8
440,224,53509,1,0
472,144,53736,5,0
392,168,53963,1,2
328,56,54418,6,0,B|256:120,1,90
224,64,54872,2,0,B|144:136,1,90,0|8
112,168,55327,1,0
40,144,55554,1,0
56,216,55781,1,0
112,168,56009,1,8
184,184,56236,2,0,B|264:240,1,90,0|4
424,272,56918,6,0,B|440:216|416:184,1,90,8|0
352,200,57372,2,0,B|360:144|304:112,1,90,8|0
264,152,57827,2,0,B|184:72|72:112,1,180,8|0
72,160,58509,5,0
72,160,58736,1,8
72,160,58963,1,0
72,160,59190,2,0,B|152:96|240:160,1,180,0|8
280,112,59872,2,0,B|376:112,1,90
304,168,60327,2,0,B|400:168,1,90,0|8
328,224,60781,1,0
176,224,61009,6,2,B|272:224,2,90,2|0|0
128,264,61690,6,0,B|72:224|72:144|128:112,2,180
176,224,62827,1,0
224,264,63054,1,0
288,264,63281,1,8
352,264,63509,2,0,B|448:264,1,90
424,56,64190,5,10
256,80,64645,1,2
88,104,65100,2,2,B|40:192|104:288,1,180,10|2
152,240,65781,5,0
152,240,66009,1,8
176,296,66236,1,0
232,272,66463,2,0,B|320:232|400:304,1,180,0|8
448,192,67145,5,0
352,192,67600,1,0
256,192,68054,1,0
192,192,68281,6,2,B|152:168|176:264|120:224,1,90,2|0
80,192,68736,1,8
112,128,68963,6,0,B|304:128,2,180
160,176,70100,1,0
128,232,70327,1,0
184,256,70554,1,8
240,232,70781,2,0,B|352:208|328:328|408:288,1,180
395,293,71463,1,8
144,272,71918,5,0
88,232,72145,1,0
144,192,72372,1,8
144,112,72600,1,0
32,192,72827,5,6
256,192,73281,1,10
480,192,73736,1,2
256,192,74190,5,8
112,192,74418,5,2
400,192,74872,1,2
112,192,75327,1,0
112,280,75554,5,2
112,104,76009,1,10
256,192,76463,1,0
256,192,76690,12,0,78281
256,192,78736,5,8
184,32,79190,5,0
240,72,79418,1,0
184,112,79645,1,8
184,192,79872,1,0
112,192,80099,6,2,B|16:240,1,90,2|0
184,224,80554,2,2,B|184:320,1,90,10|0
256,192,81009,2,2,B|352:240,1,90,2|0
328,152,81463,1,8
400,192,81690,6,2,B|496:240,1,90,2|0
328,224,82145,2,2,B|328:320,1,90,2|8
256,192,82599,1,0
200,216,82827,1,0
144,240,83054,1,2
136,152,83281,5,8
136,152,83509,1,0
256,192,83736,12,0,85327
320,80,85781,5,8
320,80,86009,2,0,B|424:80,1,90,8|0
500,80,86463,2,0,B|390:80,1,90,8|0
320,80,86918,2,0,B|420:80,1,90,8|0
440,136,87372,6,0,B|440:328,1,180,0|8
376,136,88281,2,0,B|376:320,1,180,0|8
312,320,88963,2,0,B|120:320,1,180,0|0
64,320,89645,1,8
64,256,89872,1,0
64,192,90099,2,0,B|64:48,1,135
64,57,90554,1,8
128,56,90781,6,0,B|224:56,1,90
448,192,91463,1,8
256,192,91918,1,0
64,192,92372,1,8
64,256,92599,2,0,L|264:256,1,180
304,256,93281,2,0,L|304:360,1,90,8|0
368,344,93736,2,0,L|368:248,1,90
432,256,94190,1,8
432,320,94418,6,0,L|328:320,1,90
64,192,95099,1,8
256,192,95554,1,0
448,192,96009,1,8
448,128,96236,2,0,L|248:128,1,180
200,128,96918,1,8
136,128,97145,1,0
72,128,97372,2,0,L|72:264,1,135
72,263,97827,1,8
136,264,98054,6,0,L|232:264,1,90,0|2
256,192,99190,2,2,L|392:192,1,135,2|0
456,192,100099,2,2,L|456:56,1,135,2|0
456,57,101009,5,10
56,57,101463,1,10
72,136,101918,6,0,B|72:328,1,180,0|8
136,136,102827,2,0,B|136:320,1,180,0|8
200,320,103509,2,0,B|392:320,1,180,0|0
448,320,104190,1,8
448,256,104418,1,0
448,192,104645,2,0,B|448:48,1,135
448,57,105099,1,8
384,56,105327,6,0,B|288:56,1,90
64,192,106009,1,8
256,192,106463,1,0
448,192,106918,1,8
448,256,107145,2,0,L|248:256,1,180
208,256,107827,2,0,L|208:360,1,90,8|0
144,344,108281,2,0,L|144:248,1,90
80,256,108736,1,8
80,320,108963,6,0,L|184:320,1,90
448,192,109645,1,8
256,192,110099,1,0
64,192,110554,1,8
64,128,110781,2,0,L|264:128,1,180
312,128,111463,1,8
376,128,111690,1,0
440,128,111918,2,0,L|440:240,1,90
440,280,112372,2,0,L|336:280,1,90,8|0
288,280,112827,1,0
88,192,113281,5,8
88,192,113509,2,0,L|376:192,1,270,0|8
424,192,114418,1,0
424,192,114645,1,4
424,128,114872,5,8
368,88,115099,1,8
304,88,115327,1,0
248,128,115554,1,8
304,240,116009,1,0
192,296,116463,1,4
256,192,120327,12,4,125554
288,272,125781,5,0
232,240,126009,1,10
176,272,126236,1,0
120,240,126463,1,2
176,208,126690,1,0
176,208,126804,1,2
176,208,126918,1,8
176,208,127031,1,0
176,208,127145,1,2
120,176,127372,5,0
176,144,127599,1,0
232,176,127827,1,10
288,208,128054,1,0
288,208,128168,1,0
288,208,128281,1,0
344,176,128509,1,0
344,176,128622,1,0
344,176,128736,1,10
288,144,128963,5,0
344,112,129190,1,2
400,144,129418,1,0
456,112,129645,1,10
344,112,130099,1,0
344,112,130213,1,0
344,112,130327,1,0
288,144,130554,1,10
232,112,130781,5,0
232,112,130895,1,0
232,112,131009,1,0
176,144,131236,1,0
176,144,131349,1,0
176,144,131463,1,10
176,144,131577,1,0
176,144,131690,1,2
232,176,131918,1,0
232,176,132031,1,0
232,176,132145,1,2
232,176,132259,1,0
232,176,132372,1,10
288,208,132599,1,0
232,240,132827,5,6
176,272,133054,1,0
120,240,133281,1,10
176,208,133509,1,0
120,176,133736,1,2
120,176,133849,1,0
120,176,133963,1,0
176,144,134190,1,10
232,112,134418,5,0
232,112,134531,1,0
232,112,134645,1,2
312,168,134872,1,0
312,168,134986,1,0
312,168,135099,1,10
312,168,135213,1,0
312,168,135327,1,0
312,168,135440,1,0
312,168,135554,1,2
312,168,135668,1,0
312,168,135781,1,0
312,168,135895,1,0
312,168,136009,1,10
368,200,136236,5,2
312,232,136463,1,0
256,200,136690,1,0
200,232,136918,1,10
256,264,137145,1,0
200,296,137372,1,2
256,328,137599,1,0
312,296,137827,1,8
312,296,137940,1,0
312,296,138054,1,0
312,296,138168,1,0
312,296,138281,5,6
32,232,139418,1,2
184,232,140099,1,2
208,288,140327,5,0
208,288,140554,1,8
208,288,140781,1,0
208,288,141009,2,0,B|240:208|368:256,1,180,0|8
416,288,141690,2,0,B|416:192,1,90
480,176,142145,2,0,B|416:96,1,90,0|8
368,128,142599,1,0
312,48,142827,6,0,B|288:152,1,90,0|2
368,240,143509,6,0,B|328:280|288:240,1,90,0|0
288,240,143963,2,0,B|248:280|208:240,1,90,0|8
160,280,144418,1,0
112,240,144645,1,0
64,280,144872,1,0
64,280,145099,1,8
64,280,145327,2,0,B|24:232|72:176,1,90
72,56,146009,5,2
192,88,146463,1,2
312,120,146918,1,2
432,152,147372,1,6
368,152,147599,5,0
368,152,147827,1,8
368,152,148054,1,0
368,152,148281,2,0,B|432:248|320:304,1,180,0|8
264,304,148963,2,0,B|224:216,1,90
227,222,149418,2,0,B|120:224,1,90,0|8
72,224,149872,1,0
40,144,150099,6,0,B|88:104|48:216|128:144,1,90,0|2
160,112,150554,1,8
192,56,150781,6,0,B|264:120,1,90
296,64,151236,2,0,B|376:136,1,90,0|8
328,176,151690,1,0
362,124,151918,1,0
328,176,152145,1,0
368,224,152372,1,8
288,224,152599,2,0,B|240:232|208:272,1,90,0|4
368,272,153736,5,8
424,232,153963,1,0
368,192,154190,1,8
368,112,154418,1,0
480,192,154645,5,6
256,192,155099,1,10
32,192,155554,1,2
256,192,156009,5,8
400,192,156236,5,2
112,192,156690,1,2
400,192,157145,1,0
400,280,157372,5,2
400,104,157827,1,10
256,192,158281,1,0
256,192,158509,12,0,160099
256,192,160554,5,8
192,32,161009,5,0
248,72,161236,1,8
192,112,161463,1,8
192,192,161690,1,0
120,192,161918,6,2,B|168:112,1,90,2|0
120,192,162372,2,2,B|232:192,1,90,10|0
120,192,162827,2,2,B|168:272,1,90,2|0
200,192,163281,1,8
280,192,163509,2,2,B|328:112,1,90,2|0
280,192,163963,2,2,B|328:272,1,90,2|8
360,192,164418,2,2,B|456:192,2,90
360,192,165099,1,8
360,192,165327,6,0,B|160:192,1,180,6|0
120,224,166009,2,0,B|24:224,2,90,2|0|0
184,256,166690,2,0,B|184:160,1,90,0|2
232,128,167145,5,0
232,128,167372,1,0
192,80,167599,1,8
192,80,167827,2,0,B|88:80,1,90,8|0
12,80,168281,2,0,B|108:80,1,90,8|0
192,80,168736,2,0,B|96:80,1,90,8|0
72,136,169190,6,0,B|72:328,1,180,0|8
136,136,170099,2,0,B|136:320,1,180,0|8
200,320,170781,2,0,B|392:320,1,180,0|0
448,320,171463,1,8
448,256,171690,1,0
448,192,171918,2,0,B|448:48,1,135
448,57,172372,1,8
384,56,172599,6,0,B|288:56,1,90
64,192,173281,1,8
256,192,173736,1,0
448,192,174190,1,8
448,256,174418,2,0,L|248:256,1,180
208,256,175099,2,0,L|208:360,1,90,8|0
144,344,175554,2,0,L|144:248,1,90
80,256,176009,1,8
80,320,176236,6,0,L|184:320,1,90
448,192,176918,1,8
256,192,177372,1,0
64,192,177827,1,8
64,128,178054,2,0,L|264:128,1,180
312,128,178736,1,8
376,128,178963,1,0
440,128,179190,2,0,L|440:264,1,135
440,263,179645,1,8
376,264,179872,6,0,L|280:264,1,90,0|2
256,192,181009,2,2,L|120:192,1,135,2|0
56,192,181918,2,2,L|56:56,1,135,2|0
56,57,182827,6,0,B|162:57,1,90,10|0
456,57,183281,2,0,B|350:57,1,90,10|0
448,240,183736,6,0,B|448:144,1,90
384,240,184190,2,0,B|384:144,1,90,8|0
320,240,184645,2,0,B|320:144,1,90
256,192,185099,1,8
192,240,185327,2,0,B|192:144,1,90
128,240,185781,2,0,B|128:144,2,90,0|8|0
64,240,186463,2,0,B|64:144,1,90
64,88,186918,1,8
128,88,187145,6,0,B|224:88,1,90,0|0
448,88,187827,2,0,B|344:88,1,90,8|0
408,152,188281,2,0,B|312:152,1,90
264,184,188736,1,8
320,216,188963,2,0,B|216:216,1,90,0|0
280,280,189418,2,0,B|184:280,2,90,0|8|0
344,280,190099,2,0,B|440:280,1,90
434,280,190554,1,8
434,280,190781,6,0,B|434:184,1,90
432,64,191463,1,8
256,64,191918,1,0
80,64,192372,1,8
80,128,192599,2,0,B|80:312,1,180
144,304,193281,2,0,B|144:200,1,90,8|0
208,216,193736,2,0,B|208:320,1,90
208,306,194190,1,8
208,306,194645,6,0,B|394:306,1,180,0|8
448,304,195327,2,0,B|448:112,1,180
408,72,196009,1,10
352,104,196236,1,0
296,72,196463,1,4
272,128,196690,5,8
272,128,196918,2,0,B|160:128,1,90,8|0
92,128,197372,2,0,B|188:128,1,90,8|0
272,128,197827,1,2
432,224,198509,5,2
432,224,198736,2,0,B|384:192|328:240,1,90,2|0
296,264,199190,2,0,B|216:320|104:248,1,180,0|2
96,136,200099,1,4
256,192,213281,12,0,214645
424,48,215099,5,8
256,48,215554,1,2
88,48,216009,1,8
112,104,216236,1,0
96,168,216463,2,0,B|280:144,1,180,0|8
328,176,217145,2,0,B|416:128,1,90,0|2
424,192,217599,2,0,B|336:240,1,90,0|8
280,200,218054,1,0
256,264,218281,1,4
424,328,218736,5,8
256,328,219190,1,2
88,328,219645,1,8
256,328,220099,1,0
136,240,220554,1,8
136,240,220781,2,0,B|136:136,1,90,0|2
184,104,221236,2,0,B|216:192,1,90,0|8
280,192,221690,1,0
376,192,221918,1,4
424,56,222372,5,8
256,56,222827,1,2
88,56,223281,1,8
88,56,223509,2,0,B|48:176|168:192,1,180
200,144,224190,1,8
216,200,224418,1,0
264,160,224645,2,0,B|304:184|296:248,1,90,10|0
320,296,225099,1,8
352,240,225327,2,0,B|352:136,1,90,0|2
352,80,225781,6,0,B|256:80,1,90,0|2
144,96,226236,6,0,B|240:96,1,90,0|2
384,112,226690,6,0,B|288:112,1,90,0|2
112,128,227145,6,0,B|208:128,1,90,0|2
416,144,227599,6,0,B|320:144,1,90,0|2
80,160,228054,6,0,B|176:160,1,90,0|2
448,176,228509,6,0,B|352:176,1,90,0|2
48,192,228963,6,0,B|144:192,1,90,0|6
