osu file format v5

[General]
AudioFilename: Michyeo.mp3
AudioLeadIn: 2000
PreviewTime: -1
Countdown: 1
SampleSet: Soft
StackLeniency: 0.7
Mode: 0
LetterboxInBreaks: 1

[Metadata]
Title:Michyeo (Going Crazy)
Artist:Lee Jung Hyun
Creator:darrihuka
Version:Easier
Source:
Tags:

[Difficulty]
HPDrainRate:3
CircleSize:4
OverallDifficulty:5
SliderMultiplier:1.6
SliderTickRate:2

[Events]
//Background and Video events
0,0,"michyeo.jpg"
//Break Periods
2,116687,119451
2,200322,212404
//Storyboard Layer 0 (Background)
//Storyboard Layer 1 (Failing)
//Storyboard Layer 2 (Passing)
//Storyboard Layer 3 (Foreground)
//Storyboard Sound Samples
//Background Colour Transformations
3,100,163,162,255

[TimingPoints]
100,454.545454545455,4,2,0,100,1
25554,-200,4,2,0,100,0
27599,-100,4,1,0,40,0
27827,-100,4,1,0,40,0
28054,-100,4,1,0,50,0
28281,-100,4,1,0,60,0
28509,-100,4,1,0,70,0
28736,-100,4,1,0,80,0
28963,-100,4,1,0,90,0
29190,-100,4,1,0,100,0
99190,-200,4,1,0,100,0
101917,-100,4,1,0,100,0
120326,-200,4,2,0,100,0
125553,-200,4,2,0,100,0
138168,-100,4,1,0,100,0
165325,-100,4,2,0,100,0
167143,-100,4,1,0,100,0
181007,-200,4,1,0,100,0
182825,-100,4,1,0,100,0
198279,-100,4,2,0,100,0
213279,-100,4,1,0,100,0
225552,-100,4,1,0,100,0
226006,-100,4,1,0,30,0
226460,-100,4,1,0,40,0
226914,-100,4,1,0,50,0
227368,-100,4,1,0,60,0
227822,-100,4,1,0,70,0
228276,-100,4,1,0,80,0
228730,-100,4,1,0,90,0
229184,-100,4,1,0,100,0

[Colours]
Combo1 : 255,255,255
Combo2 : 191,0,219
Combo3 : 216,216,216
Combo4 : 255,0,249

[HitObjects]
320,64,99,1,2
320,64,554,1,2
320,64,1009,1,2
320,64,1463,1,2
320,64,1918,1,2
320,64,2372,1,2
320,64,2827,1,2
320,64,3281,5,2
256,96,3509,1,0
192,128,3736,5,2
192,128,4190,1,2
192,128,4645,1,2
192,128,5100,1,2
192,128,5554,1,2
192,128,6009,1,2
192,128,6463,1,2
192,128,6918,5,2
256,160,7145,1,0
320,192,7372,5,2
320,192,7827,1,2
320,192,8281,1,2
320,192,8736,1,2
192,192,9190,1,2
192,192,9645,1,2
320,192,10100,1,2
192,192,10554,1,2
256,256,11009,5,0
256,256,11463,1,0
256,128,11918,1,2
256,128,12372,1,2
256,256,12827,1,2
256,256,13281,1,2
256,128,13736,1,0
256,128,14190,1,0
192,192,14645,5,2
192,192,15100,1,2
192,192,15554,1,2
32,192,16009,1,2
192,192,16463,1,2
192,192,16918,1,2
192,192,17372,1,2
192,192,17827,5,2
256,160,18054,1,0
320,192,18281,5,2
320,192,18736,1,2
320,192,19190,1,2
480,192,19645,1,2
320,192,20099,1,2
320,192,20554,1,2
480,192,21009,1,2
320,192,21463,5,2
256,224,21690,1,0
192,256,21918,5,2
192,256,22372,1,2
192,256,22827,1,2
192,256,23281,5,2
256,288,23509,1,0
320,320,23736,5,2
320,320,24190,1,2
192,256,24645,1,0
64,320,25099,1,2
48,192,25554,2,0,B|160:192,1,80,0|2
176,192,26236,1,0
224,192,26463,2,0,B|416:192,1,160
432,192,27599,5,0
432,192,27827,1,0
432,192,28054,1,0
432,192,28281,1,0
432,192,28509,1,0
432,192,28736,1,0
432,192,28963,1,0
432,192,29190,6,0,B|432:96|320:80,1,160,0|8
288,80,29872,2,0,B|288:128|240:144,1,80,0|2
192,144,30327,2,0,B|192:96|144:80,1,80,0|8
96,80,30781,1,0
96,80,31009,2,0,B|96:256,1,160,0|8
96,240,31690,1,0
96,240,32145,6,0,B|96:336,1,80,0|8
96,320,32599,1,0
96,320,32827,6,0,B|96:224|208:208,1,160,0|8
240,208,33509,2,0,B|240:256|288:272,1,80,0|2
336,272,33963,2,0,B|336:224|384:208,1,80,0|8
432,208,34418,1,0
432,272,34645,2,0,B|432:96,1,160,0|8
432,64,35327,2,0,B|336:64,1,80,0|2
352,64,35781,2,0,B|256:64,1,80,0|8
272,64,36236,1,0
272,64,36463,6,0,B|96:64,1,160,0|8
64,64,37145,2,0,B|48:192|240:64|240:192,1,240,0|8
240,224,38054,1,0
192,224,38281,6,0,B|96:224,2,80,0|0|8
240,224,38963,2,0,B|240:176|288:160,1,80,0|2
336,160,39418,2,0,B|336:208|384:224,1,80,0|8
432,224,39872,1,0
432,272,40099,6,0,B|256:272,1,160,0|8
224,272,40781,2,0,B|208:144|400:272|400:144,1,240,0|8
352,128,41690,1,0
256,64,41918,5,2
448,64,42599,5,2
352,128,43054,6,0,L|336:144|336:160|352:176|368:192|368:208|352:224|336:240|336:256|352:272|368:288|368:304|352:320,1,240,0|2
304,320,43963,6,0,L|304:240,2,80,0|8|0
256,320,44645,2,0,L|96:320,1,160,0|8
48,320,45327,2,0,B|48:272|96:256,1,80
144,256,45781,2,0,B|192:256|208:208,1,80,0|8
208,160,46236,2,0,L|304:160,2,80,0|0|2
48,160,47145,6,0,B|48:64|160:48,2,160
96,160,48281,2,0,B|192:160,1,80
224,160,48736,1,8
272,160,48963,2,0,B|368:160,1,80
352,96,49418,6,0,B|432:176,7,80,2|8|0|2|0|8|2|0
400,208,51236,6,0,B|496:208,2,80,0|8|0
352,208,51918,2,0,B|352:304|240:320,1,160,0|8
208,320,52600,2,0,B|208:272|160:256,1,80
112,256,53054,2,0,B|112:160,1,80,0|8
112,128,53509,2,0,B|112:80|64:64,2,80,0|0|2
112,256,54418,6,0,B|288:256,2,160
112,208,55554,1,0
144,160,55781,1,0
192,128,56009,1,8
240,128,56236,2,0,B|240:176|288:192,1,80
448,192,56918,5,10
320,192,57372,1,2
192,192,57827,1,10
64,192,58281,1,2
64,144,58509,6,0,B|64:48,2,80,0|8|0
64,192,59190,2,0,B|240:192,1,160,0|8
271,191,59872,2,0,B|313:205|313:253,1,80
368,255,60327,2,0,B|410:242|410:194,1,80,0|8
368,160,60781,1,0
416,112,61009,2,0,B|320:112,1,80,2|0
128,112,61690,6,0,B|304:112,2,160
79,112,62827,2,0,B|80:160|122:173,1,80
176,176,63281,1,8
224,176,63509,2,0,B|266:189|266:237,1,80
400,48,64190,5,10
400,144,64645,1,2
400,240,65100,1,10
400,336,65554,1,2
368,288,65781,6,0,B|272:288,2,80,0|8|0
416,288,66463,2,0,B|416:192|304:176,1,160,0|8
272,176,67145,2,0,B|272:0,2,160
224,176,68281,2,0,L|208:192|208:224|192:272,1,80,2|0
80,256,68963,6,0,B|16:224|32:144|80:128,2,160
112,192,70100,1,0
160,192,70327,1,0
208,192,70554,1,8
256,192,70781,2,0,B|432:192,1,160
416,192,71463,1,8
479,128,71918,6,0,B|479:81|437:68,1,80,0|0
384,64,72372,2,0,B|342:77|342:125,1,80,8|0
288,128,72827,5,2
176,128,73281,1,10
64,128,73736,1,2
176,128,74190,5,8
232,192,74418,5,2
120,192,74872,1,2
176,96,75327,1,0
176,40,75554,5,2
176,192,76009,1,10
176,344,76463,1,0
256,192,76690,12,0,78281
64,304,79190,5,0
112,304,79418,1,0
144,256,79645,1,8
176,304,79872,1,0
224,304,80099,6,2,B|224:208,1,80,2|0
272,256,80554,2,2,B|352:176,1,80,10|0
352,256,81009,2,2,B|448:256,1,80,2|0
464,208,81463,5,8
432,160,81690,6,2,B|432:64,1,80,2|0
384,128,82145,2,2,B|288:128,1,80,2|8
256,128,82599,6,0,B|192:64,2,80,0|0|2
256,192,83281,5,8
256,256,83509,1,0
256,192,83736,12,0,85327
296,192,85781,5,8
296,192,86009,2,0,B|200:192,4,80,8|0|8|0|8
464,304,87372,6,0,B|464:128,1,160,0|8
400,304,88281,2,0,B|400:128,1,160,0|8
464,80,88963,2,0,B|272:80,1,160
256,80,89645,1,8
208,80,89872,1,0
160,80,90099,2,0,B|64:80,2,80,0|0|8
160,128,90781,6,0,B|160:224,1,80
64,304,91463,1,8
160,304,91918,1,0
256,304,92372,1,8
256,304,92599,1,0
328,240,93054,1,0
280,224,93281,1,8
232,208,93509,1,0
184,192,93736,1,0
256,112,94190,1,8
256,112,94418,6,0,B|352:112,1,80
448,80,95099,5,8
400,192,95554,1,0
352,304,96009,1,8
352,304,96236,6,0,B|160:304,1,160
144,304,96918,2,0,B|144:208,1,80,8|0
96,224,97372,2,0,B|96:320,1,80
48,304,97827,1,8
48,304,98054,6,0,B|48:208,1,80,0|2
144,192,99190,2,2,B|272:192,1,120,2|0
320,192,100099,2,2,B|320:64,1,120,2|0
320,72,101009,5,10
144,72,101463,1,10
48,304,101918,6,0,B|48:128,1,160,0|8
112,304,102827,2,0,B|112:128,1,160,0|8
48,80,103509,2,0,B|240:80,1,160
256,80,104190,1,8
304,80,104418,1,0
352,80,104645,2,0,B|448:80,2,80,0|0|8
352,128,105327,6,0,B|352:224,1,80
448,304,106009,1,8
352,304,106463,1,0
256,304,106918,1,8
256,304,107145,1,0
184,240,107599,1,0
232,224,107827,1,8
280,208,108054,1,0
328,192,108281,1,0
256,112,108736,1,8
256,112,108963,6,0,B|160:112,1,80
64,80,109645,5,8
112,192,110099,1,0
160,304,110554,1,8
160,304,110781,6,0,B|352:304,1,160
368,304,111463,2,0,B|368:208,1,80,8|0
416,224,111918,2,0,B|416:320,1,80
464,304,112372,1,8
464,304,112827,6,0,B|464:128,1,160,0|8
464,144,113509,2,0,B|288:144,1,160
256,144,114190,1,8
208,144,114418,1,0
160,144,114645,1,4
256,192,114872,12,4,116463
256,192,120327,12,0,125099
96,64,125554,6,0,B|384:64,1,280,2|0
416,144,127372,6,0,B|112:144,1,280
96,224,129190,6,0,B|400:224,1,280,2|0
416,304,131009,6,0,B|112:304,1,280
48,304,132827,6,2,B|48:144|208:80,1,280
272,64,134645,6,2,B|400:48|464:128|448:192|416:240,1,280
368,288,136463,6,2,B|288:352|192:320|176:224|256:192,1,280
254,192,138281,5,2
256,192,138736,12,2,140099
208,320,140327,6,0,L|208:240,2,80,0|8|0
256,320,141009,2,0,L|416:320,1,160,0|8
464,320,141690,2,0,B|464:272|416:256,1,80
368,256,142145,2,0,B|320:256|304:208,1,80,0|8
304,160,142599,2,0,L|208:160,2,80,0|0|2
464,160,143509,6,0,B|464:64|352:48,2,160
416,160,144645,2,0,B|320:160,1,80
288,160,145099,1,8
240,160,145327,2,0,B|144:160,1,80
112,48,146009,5,10
112,144,146463,1,2
112,240,146918,1,10
112,336,147372,1,2
144,288,147599,6,0,B|240:288,2,80,0|8|0
96,288,148281,2,0,B|96:192|208:176,1,160,0|8
240,176,148963,2,0,B|240:0,2,160
288,176,150099,2,0,L|304:192|304:224|320:272,1,80,2|0
432,256,150781,6,0,B|496:224|480:144|432:128,2,160
400,192,151918,1,0
352,192,152145,1,0
304,192,152372,1,8
256,192,152599,2,0,B|80:192,1,160
96,192,153281,1,10
33,128,153736,6,0,B|33:81|75:68,1,80,0|0
128,64,154190,2,0,B|170:77|170:125,1,80,8|0
224,128,154645,5,2
336,128,155099,1,10
448,128,155554,1,2
336,128,156009,5,8
280,192,156236,5,2
392,192,156690,1,2
336,96,157145,1,0
336,40,157372,5,2
336,192,157827,1,10
336,344,158281,1,0
256,192,158509,12,0,160099
448,304,161009,5,0
400,304,161236,1,0
368,256,161463,1,8
336,304,161690,1,0
288,304,161918,6,2,B|192:304,1,80,2|0
208,304,162372,2,2,B|112:304,1,80,10|0
128,304,162827,2,2,B|32:304,1,80,2|0
48,240,163281,5,8
48,240,163509,6,2,B|144:240,1,80,2|0
128,240,163963,2,2,B|224:240,1,80,2|8
256,240,164418,1,0
304,240,164645,2,0,B|400:240,1,80,2|0
432,240,165099,5,8
432,240,165327,1,4
256,192,165554,12,0,167145
296,192,167599,5,8
296,192,167827,2,0,B|200:192,4,80,8|0|8|0|8
320,128,169190,6,0,B|432:128,2,80,0|0|8
192,192,170099,2,0,B|80:192,2,80,0|0|8
224,256,170781,2,0,B|400:256,1,160
432,256,171463,2,0,B|432:160,1,80,8|0
384,176,171918,2,0,B|288:176,1,80
256,176,172372,1,8
224,128,172599,6,0,B|128:128,1,80
256,48,173281,1,8
288,176,173736,2,0,B|384:176,2,80,0|0|8
288,224,174418,2,0,B|384:224,2,80
288,272,175099,2,0,B|384:272,1,80,8|0
416,272,175554,2,0,B|416:176,1,80
416,144,176009,1,8
416,144,176236,6,0,B|304:144,1,80
64,80,176918,5,8
112,192,177372,1,0
160,304,177827,1,8
160,304,178054,6,0,B|352:304,1,160
368,304,178736,2,0,B|368:208,1,80,8|0
416,224,179190,2,0,B|416:320,1,80
464,304,179645,1,8
464,304,179872,6,0,B|464:208,1,80,0|2
368,192,181009,2,2,B|240:192,1,120,2|0
192,192,181918,2,2,B|192:64,1,120,2|0
192,72,182827,6,0,B|274:72,1,80,10|0
368,72,183281,1,10
464,304,183736,6,0,B|464:128,1,160,0|8
400,304,184645,2,0,B|400:128,1,160,0|8
464,80,185327,2,0,B|272:80,1,160
256,80,186009,1,8
208,80,186236,1,0
160,80,186463,2,0,B|64:80,2,80,0|0|8
160,128,187145,6,0,B|160:224,1,80
64,304,187827,1,8
160,304,188281,1,0
256,304,188736,1,8
256,304,188963,1,0
328,240,189418,1,0
280,224,189645,1,8
232,208,189872,1,0
184,192,190099,1,0
256,112,190554,1,8
256,112,190781,6,0,B|352:112,1,80
448,80,191463,5,8
400,192,191918,1,0
352,304,192372,1,8
352,304,192599,6,0,B|160:304,1,160
144,304,193281,2,0,B|144:208,1,80,8|0
96,224,193736,2,0,B|96:320,1,80
48,304,194190,1,8
48,304,194645,6,0,B|48:128,1,160,0|8
48,144,195327,2,0,B|224:144,1,160
256,144,196009,1,8
304,144,196236,1,0
352,144,196463,1,4
256,192,196690,12,0,198281
256,192,198509,12,4,200099
256,192,213281,12,0,214645
368,48,215099,5,8
256,48,215554,1,2
144,48,216009,1,8
144,160,216463,2,0,B|256:160,1,80
272,160,216918,1,8
304,208,217145,2,0,B|208:208,1,80,0|2
192,256,217599,2,0,B|288:256,1,80,0|8
304,304,218054,2,0,B|208:304,1,80
48,304,218736,5,8
48,192,219190,1,2
48,80,219645,1,8
160,80,220099,1,0
240,160,220554,1,8
240,160,220781,1,0
160,240,221236,1,0
240,304,221690,2,0,B|336:304,1,80
464,304,222372,5,8
464,192,222827,1,0
464,80,223281,1,8
464,80,223509,2,0,B|272:80,1,160
304,80,224190,2,0,B|304:192,1,80,8|0
304,160,224645,2,0,B|192:160,1,80,2|0
184,208,225099,1,2
232,240,225327,2,0,B|304:312,1,80,8|0
256,192,225781,12,0,229190
