osu file format v5

[General]
AudioFilename: Lee Hyori - Hey Girl.mp3
AudioLeadIn: 0
PreviewTime: -1
Countdown: 1
SampleSet: Normal
EditorBookmarks: 23201,23819,24128,24437,24747,25056,25365,25674,25984,26293,26602,26912,27221

[Metadata]
Title:Hey Girl
Artist:Lee Hyori
Creator:EiJi
Version:Very Hard

[Difficulty]
HPDrainRate:6
CircleSize:6
OverallDifficulty:7
SliderMultiplier:1.6
SliderTickRate:1

[Events]
//Background and Video events
0,0,"lh.jpg"
//Break Periods
2,67164,86640
2,135668,145712
//Storyboard Layer 0 (Background)
//Storyboard Layer 1 (Failing)
//Storyboard Layer 2 (Passing)
//Storyboard Layer 3 (Foreground)
//Storyboard Sound Samples
//Background Colour Transformations
3,100,163,162,255

[TimingPoints]
23201,618.556701030928,4,2,0,100
23510,618.556701030928,4,1,0,100
23819,618.556701030928,4,2,0,100
24128,618.556701030928,4,1,0,100
24437,618.556701030928,4,2,0,100
24746,618.556701030928,4,1,0,100
25055,618.556701030928,4,2,0,100
25364,618.556701030928,4,1,0,100
25673,618.556701030928,4,2,0,100
25982,618.556701030928,4,1,0,100
26291,618.556701030928,4,2,0,100
26600,618.556701030928,4,1,0,100
26909,618.556701030928,4,2,0,100
27218,618.556701030928,4,2,0,100
28150,618.556701030928,4,1,0,70
87531,618.556701030928,4,2,0,100
147067,618.556701030928,4,2,0,0
147376,618.556701030928,4,2,0,100
147685,618.556701030928,4,2,0,0
147839,618.556701030928,4,2,0,100
152014,618.556701030928,4,2,0,0
152323,618.556701030928,4,2,0,100
152477,618.556701030928,4,2,0,0
152787,618.556701030928,4,2,0,100
157116,618.556701030928,4,2,0,0
157271,618.556701030928,4,2,0,100
157580,618.556701030928,4,2,0,0
157734,618.556701030928,4,2,0,100
158043,618.556701030928,4,2,0,0
158197,618.556701030928,4,2,0,100

[Colours]
Combo1 : 149,102,153
Combo2 : 174,236,83
Combo3 : 153,155,89
Combo4 : 169,75,78

[HitObjects]
256,96,23201,1,0
256,128,23356,1,0
256,160,23510,1,4
96,192,23819,5,0
128,192,23973,1,0
160,192,24128,1,4
384,192,24437,5,0
352,192,24591,1,0
320,192,24746,1,4
256,288,25055,5,0
256,256,25209,1,0
256,224,25364,1,4
128,64,25673,5,0
160,96,25827,1,0
192,128,25982,1,4
384,288,26291,5,0
352,256,26445,1,0
320,224,26600,1,4
256,96,26909,5,0
256,128,27063,1,4
256,288,27372,5,4
256,256,27527,1,4
256,192,27836,5,4
256,192,28145,1,4
352,192,28459,5,0
392,192,28613,1,0
432,192,28768,1,0
432,104,29077,5,0
384,104,29232,1,0
336,104,29387,1,0
288,104,29541,1,0
200,104,29851,5,0
200,104,30005,1,0
152,104,30160,2,0,B|16:104,1,120
32,192,30933,2,0,B|32:248,6,40
32,144,32015,1,0
32,96,32170,6,0,B|168:96,2,120
120,96,33407,1,0
216,96,33717,1,0
216,96,33871,1,0
216,96,34026,1,0
304,96,34335,1,0
304,96,34490,1,0
344,96,34644,2,0,B|448:96,1,80
424,96,35108,2,0,B|424:248,2,120
248,96,36655,5,0
248,96,36809,1,0
160,96,37119,1,0
160,96,37273,1,0
72,96,37582,1,0
72,96,37737,1,0
72,96,37892,1,0
72,96,38046,2,0,B|72:192,1,80
72,176,38510,1,0
72,264,38820,5,0
72,264,38974,2,0,B|168:264,3,80
152,264,40057,2,0,B|256:264,1,80
232,264,40521,1,0
320,264,40830,1,0
408,264,41139,2,0,B|464:264,1,40
448,216,41448,2,0,B|400:216,1,40
408,168,41758,2,0,B|464:168,1,40
424,80,42222,2,0,B|424:32,1,40
424,40,42531,2,0,B|272:40,1,120
256,40,43150,5,0
256,40,43304,1,0
168,40,43613,1,0
168,40,43768,1,0
168,40,43923,1,0
80,40,44232,1,0
80,40,44387,1,0
80,40,44541,1,0
80,128,44851,1,0
80,128,45005,2,0,B|80:224,2,80
256,192,46397,6,0,B|328:192,4,40
256,192,47325,1,0
64,256,48098,5,0
64,256,48253,2,0,B|176:256,2,80
64,256,49026,1,0
64,256,49180,1,0
64,256,49335,1,0
64,256,49490,2,0,B|64:152,3,80
64,88,50727,5,0
64,88,50881,1,0
152,88,51191,1,0
152,88,51345,1,0
192,88,51500,1,0
192,88,51655,1,0
232,88,51809,1,0
272,88,51964,2,0,B|360:88,1,80
144,168,53046,5,0
184,168,53201,1,0
224,168,53356,1,0
264,168,53510,1,0
304,168,53665,1,0
344,168,53820,1,0
344,256,54129,1,0
296,256,54284,1,0
248,256,54438,2,0,B|144:256,1,80
168,296,54902,2,0,B|264:296,1,80
248,336,55366,2,0,B|144:336,1,80
88,336,55985,5,0
88,336,56139,1,0
88,336,56294,1,0
88,248,56603,1,0
88,160,56912,2,0,B|88:24,2,120
88,288,58304,1,0
216,288,58768,6,0,B|216:344,4,40
216,288,59541,1,0
304,288,59851,2,0,B|304:232,3,40
304,248,60469,1,0
304,160,60778,2,0,B|192:160,1,80
224,160,61242,1,0
224,160,61397,1,0
224,160,61552,2,0,B|88:160,1,120
104,72,62325,2,0,B|240:72,1,120
312,72,63098,5,0
400,72,63407,1,0
400,72,63562,1,0
400,72,63717,1,0
400,160,64026,1,0
400,160,64180,1,0
312,160,64490,1,0
312,160,64644,1,0
312,160,64799,1,0
224,160,65108,1,0
88,160,65572,5,0
88,248,65881,2,0,B|40:248,4,40
88,248,66655,1,0
176,248,66964,1,0
168,80,87840,6,0,B|272:80,3,80
248,120,88922,2,0,B|248:224,1,80
240,328,89695,5,0
280,328,89850,1,0
320,328,90005,1,0
320,240,90314,5,0
280,240,90469,1,0
240,240,90623,1,0
304,176,90933,5,0
256,176,91087,1,0
304,104,91396,5,0
256,104,91551,1,0
304,32,91860,5,0
256,32,92015,1,0
168,32,92324,5,0
208,32,92479,1,0
112,32,92788,6,0,B|112:144,3,80
112,200,94025,5,0
112,240,94180,2,0,B|112:336|112:344|120:352|128:352|168:336,1,120
176,344,94799,1,0
216,344,94953,2,0,B|320:344,3,80
296,344,96036,1,0
424,344,96500,5,0
424,344,96654,1,0
424,256,96963,1,0
424,256,97118,1,0
424,168,97427,1,0
336,168,97737,6,0,B|152:168,1,160
88,168,98665,1,0
88,208,98819,1,0
88,296,99128,6,0,B|88:144,1,120
88,168,99747,5,0
128,168,99902,2,0,B|240:168,3,80
208,168,100984,1,0
392,256,102067,5,0
304,256,102376,2,0,B|160:256,2,120
256,192,103613,12,0,104541
208,192,104850,2,0,B|72:192,1,120
256,192,105778,12,0,107324
344,64,107634,1,0
344,152,107943,1,0
344,152,108098,1,0
344,152,108252,1,0
256,152,108561,1,0
256,280,109025,1,0
120,280,109489,1,0
120,280,109644,1,0
120,280,109799,1,0
120,192,110108,5,0
208,192,110417,1,0
208,192,110572,1,0
208,280,111036,1,0
208,368,111345,1,0
208,368,111500,1,0
296,368,111809,1,0
296,368,111963,1,0
296,368,112118,1,0
296,368,112273,1,0
296,280,112582,5,0
296,192,112891,1,0
208,192,113201,1,0
200,104,113510,1,0
200,104,113665,1,0
288,104,113974,1,0
376,104,114283,1,0
376,104,114438,1,0
464,104,114747,1,0
464,192,115056,5,0
376,192,115366,1,0
376,280,115675,1,0
464,280,115984,1,0
464,368,116293,1,0
464,368,116448,1,0
376,368,116757,1,0
376,368,116912,1,0
288,368,117221,1,0
288,280,117531,5,0
288,192,117840,2,0,B|352:192,2,40
368,192,118458,2,0,B|512:192,2,120
368,192,119541,1,0
368,192,119695,1,0
280,192,120005,6,0,B|160:192,3,80
200,192,121087,1,0
200,104,121396,1,0
200,104,121551,1,0
200,16,121860,2,0,B|144:16,2,40
112,16,122479,5,0
112,104,122788,2,0,B|112:56,2,40
112,192,123407,1,0
112,192,123561,1,0
112,280,123871,1,0
112,280,124025,1,0
112,368,124335,2,0,B|112:320,2,40
200,368,124953,2,0,B|384:368,2,160
224,336,126345,6,0,B|376:336,1,120
344,336,126963,1,0
344,336,127118,2,0,B|472:336,2,120
344,336,128201,1,0
344,336,128355,1,0
264,336,128665,1,0
128,336,129128,1,0
128,200,129592,2,0,B|128:48,2,120
216,200,130829,5,0
304,200,131139,2,0,B|304:56,2,120
304,288,132376,1,0
256,288,132531,1,0
280,160,132994,1,0
280,80,133304,1,0
280,24,133613,1,0
232,24,133768,1,0
96,24,134232,1,0
96,112,134541,2,0,B|96:256,2,120
120,144,146912,2,0,B|232:144,1,80
200,144,147376,2,0,B|200:264,1,80
200,224,147839,2,0,B|336:224,2,120
200,224,149076,1,0
256,192,149694,12,0,151550
184,64,151859,2,0,B|184:176,1,80
184,144,152323,2,0,B|184:240,1,80
184,224,152787,2,0,B|184:360,2,120
184,224,154024,1,0
256,192,154333,12,0,156498
72,104,156807,1,0
160,104,157116,1,0
160,104,157271,1,0
248,104,157580,1,0
248,104,157735,1,0
336,104,158044,1,0
336,104,158199,1,0
336,232,158660,1,0
248,232,158970,1,0
256,192,159279,12,0,161289
64,128,161753,5,0
64,128,161908,1,0
152,128,162217,1,0
152,128,162372,1,0
152,216,162681,1,0
152,216,162836,1,0
64,216,163145,1,0
64,216,163300,1,0
64,304,163609,1,0
152,304,163918,1,0
240,304,164227,5,0
328,304,164537,1,0
328,216,164846,1,0
264,152,165155,1,0
192,96,165465,1,0
88,240,166083,5,0
152,296,166392,1,0
216,360,166702,1,0
