osu file format v5

[General]
AudioFilename: Lee Hyori - Hey Girl.mp3
AudioLeadIn: 0
PreviewTime: -1
Countdown: 1
SampleSet: Normal
EditorBookmarks: 23201

[Metadata]
Title:Hey Girl
Artist:Lee Hyori
Creator:EiJi
Version:Normal

[Difficulty]
HPDrainRate:4
CircleSize:5
OverallDifficulty:4
SliderMultiplier:1.6
SliderTickRate:1

[Events]
//Background and Video events
0,0,"lh.jpg"
//Break Periods
2,67164,86640
2,135668,145712
//Storyboard Layer 0 (Background)
//Storyboard Layer 1 (Failing)
//Storyboard Layer 2 (Passing)
//Storyboard Layer 3 (Foreground)
//Storyboard Sound Samples
//Background Colour Transformations
3,100,163,162,255

[TimingPoints]
28150,618.556701030928,4,1,0,50
87531,618.556701030928,4,2,0,50

[Colours]
Combo1 : 149,102,153
Combo2 : 174,236,83
Combo3 : 153,155,89
Combo4 : 169,75,78

[HitObjects]
160,96,23510,1,0
352,96,24129,5,0
352,288,24747,5,0
160,288,25366,5,0
256,96,25985,5,0
256,288,26603,5,0
256,192,28150,5,0
144,136,28613,2,0,B|320:136|320:144|320:152|320:280,1,280
224,264,30160,6,0,B|96:264,1,120
8,264,31088,1,0
16,40,32170,5,0
112,40,32634,1,0
208,40,33098,1,0
304,40,33562,2,0,B|368:40|384:40|400:40|400:56|400:72|400:136|400:160|368:160|320:160|264:160,1,280
192,160,35108,5,0
96,160,35572,2,0,B|96:344,1,160
0,320,36809,6,0,B|0:144,1,160
0,32,38046,6,0,B|96:32,1,80
80,32,38510,1,0
144,32,38820,6,0,B|216:32,5,40
248,32,39902,1,0
256,224,40830,6,0,B|312:224,7,40
360,224,42222,2,0,B|416:224,1,40
360,64,43150,6,0,B|432:64,5,40
464,64,44232,2,0,B|464:248,1,160
464,224,45005,2,0,B|360:224,1,80
288,224,45778,1,0
160,224,46397,6,0,B|160:160,1,40
160,152,46706,2,0,B|160:80,1,40
160,80,47015,2,0,B|288:80,2,120
160,176,48407,5,0
160,272,48871,1,0
160,336,49180,1,0
224,336,49490,2,0,B|368:336,2,120
224,240,50881,5,0
224,144,51345,1,0
160,144,51655,1,0
96,144,51964,1,0
96,208,52273,1,0
96,208,52428,2,0,B|208:208,1,80
176,208,52892,2,0,B|312:208,1,120
176,16,54438,5,0
176,80,54747,1,0
176,80,54902,1,0
176,144,55211,1,0
176,144,55366,1,0
176,240,55830,2,0,B|176:320|176:328|184:336|192:344|400:328,1,280
472,328,57376,2,0,B|472:200,2,120
480,232,58768,6,0,B|424:232,5,40
440,168,59851,6,0,B|496:168,4,40
376,168,60778,5,0
312,168,61088,2,0,B|256:168,3,40
208,168,61861,5,0
208,168,62015,2,0,B|112:168,1,80
128,328,63098,5,0
192,328,63407,1,0
192,328,63562,1,0
192,328,63717,1,0
256,328,64026,2,0,B|384:328,1,120
376,328,64644,2,0,B|512:328,1,120
256,192,65572,12,0,66964
296,64,87840,6,0,B|184:64,1,80
216,128,88458,2,0,B|328:128,1,80
256,184,89077,1,0
256,184,89232,1,0
256,280,89695,5,0
256,280,89850,1,0
256,280,90005,1,0
256,344,90314,2,0,B|376:344,2,80
256,344,91087,1,0
40,64,92788,5,0
104,64,93098,1,0
72,120,93407,1,0
136,120,93716,1,0
168,176,94025,1,0
168,176,94180,1,0
224,256,94644,6,0,B|272:312,2,40
272,208,95262,1,0
320,160,95572,1,0
368,112,95881,1,0
368,112,96036,1,0
440,48,96500,6,0,B|304:48,2,120
440,112,97737,2,0,B|440:304,1,160
376,272,98665,1,0
376,272,98819,2,0,B|264:272,1,80
200,272,99592,5,0
200,272,99747,1,0
200,272,99902,2,0,B|8:272,2,160
392,280,102067,5,0
392,216,102376,2,0,B|392:64,2,120
328,216,103613,2,0,B|152:216,1,160
104,216,104541,5,0
104,216,104695,1,0
104,216,104850,2,0,B|104:56,2,120
400,64,107634,5,0
400,128,107943,1,0
400,128,108098,1,0
400,128,108252,1,0
400,192,108561,2,0,B|400:344,2,120
272,192,110108,6,0,B|152:192,2,80
336,192,111036,2,0,B|336:320,2,120
336,64,112582,5,0
272,64,112891,2,0,B|272:120,2,40
208,64,113510,1,0
208,160,113974,1,0
112,160,114438,1,0
112,288,115056,5,0
160,328,115366,1,0
208,288,115675,1,0
256,328,115984,1,0
344,296,116448,1,0
432,328,116912,1,0
432,200,117531,5,0
368,200,117840,2,0,B|368:248,2,40
304,200,118458,1,0
240,200,118768,1,0
240,200,118922,1,0
176,200,119232,1,0
176,200,119386,1,0
176,80,120005,6,0,B|176:-16,1,80
240,0,120623,2,0,B|240:88,1,80
240,144,121242,2,0,B|240:192,1,40
304,184,121706,2,0,B|304:240,1,40
368,232,122170,5,0
304,232,122479,5,0
240,232,122788,1,0
176,232,123098,1,0
112,232,123407,1,0
112,232,123561,1,0
112,168,123871,1,0
112,168,124025,1,0
176,168,124335,1,0
176,168,124489,1,0
176,168,124644,1,0
256,192,124953,12,0,125881
96,192,126345,2,0,B|96:88,1,80
96,112,126809,1,0
96,112,126963,1,0
96,112,127118,2,0,B|232:112,2,120
80,272,128819,6,0,B|80:368,1,80
80,352,129283,2,0,B|136:352,2,40
176,352,130056,1,0
272,352,130520,1,0
464,352,131448,6,0,B|464:240,3,80
464,272,132531,1,0
368,272,132994,6,0,B|248:272,2,80
368,272,133768,1,0
272,272,134232,5,0
208,272,134541,2,0,B|56:272,2,120
136,104,146912,6,0,B|288:104,1,120
352,104,147840,2,0,B|504:104,1,120
472,200,148768,2,0,B|384:200,2,80
472,136,149695,5,0
408,136,150005,1,0
344,136,150314,1,0
344,200,150623,1,0
408,200,150933,1,0
408,200,151087,1,0
344,344,151860,6,0,B|200:344,4,120
344,344,154025,1,0
344,216,154644,5,0
344,152,154953,1,0
216,216,155572,5,0
216,152,155881,1,0
32,216,156809,5,0
32,312,157273,1,0
128,312,157737,2,0,B|128:168,1,120
216,216,158665,1,0
216,280,158974,1,0
256,192,159592,12,0,161757
256,192,162221,1,0
352,192,162685,1,0
448,192,163149,1,0
448,288,163613,1,0
384,288,163922,1,0
256,192,164232,12,0,166706
