osu file format v14

[General]
AudioFilename: wizdomiot.mp3
AudioLeadIn: 0
PreviewTime: 23907
Countdown: 0
SampleSet: Normal
StackLeniency: 0.7
Mode: 1
LetterboxInBreaks: 0
WidescreenStoryboard: 0

[Editor]
DistanceSpacing: 0.8
BeatDivisor: 2
GridSize: 32
TimelineZoom: 1.399999

[Metadata]
Title:Wizdomiot
TitleUnicode:Wizdomiot
Artist:LeaF
ArtistUnicode:LeaF
Creator:SKSalt
Version:Kantan
Source:BMS
Tags:東方project touhou zun remix 東方地霊殿 ~ subterranean animism 東方音弾遊戯7 緑眼のジェラシー 水橋 パルスィ green eyed jealousy mizuhashi parsee koyomi_222 JUDYDANNY
BeatmapID:777195
BeatmapSetID:352682

[Difficulty]
HPDrainRate:7
CircleSize:5
OverallDifficulty:4
ApproachRate:5
SliderMultiplier:1.2
SliderTickRate:1

[Events]
//Background and Video events
0,0,"BG.jpg",0,75
//Break Periods
//Storyboard Layer 0 (Background)
//Storyboard Layer 1 (Fail)
//Storyboard Layer 2 (Pass)
//Storyboard Layer 3 (Foreground)
//Storyboard Sound Samples

[TimingPoints]
1783,300,3,1,0,60,1,0
9809,-100,3,1,0,80,0,0
17233,-100,3,1,0,60,0,0
18883,-100,3,1,0,70,0,0
20308,-100,3,1,0,80,0,0
21133,-100,3,1,0,85,0,0
21583,-100,3,1,0,90,0,0
22483,-100,3,1,0,60,0,0
24283,-100,3,1,0,80,0,1
38983,-100,3,1,0,80,0,0
39208,-100,3,1,0,60,0,0
46033,-100,3,1,0,80,0,0
60283,-100,3,1,0,60,0,0
81808,-100,3,1,0,30,0,0
84583,-100,3,1,0,40,0,0
85483,-100,3,1,0,50,0,0
86383,-100,3,1,0,60,0,0
87283,-100,3,1,0,70,0,0
89083,-100,3,1,0,50,0,0
90883,-100,3,1,0,80,0,1
105283,-100,3,1,0,80,0,0
108733,-100,3,1,0,60,0,0
115933,-100,3,1,0,80,0,0
123283,-100,3,1,0,85,0,1
137683,-100,3,1,0,60,0,0

[HitObjects]
224,160,2683,5,4,0:0:0:0:
288,128,4483,1,4,0:0:0:0:
160,224,6283,1,0,0:0:0:0:
160,224,7183,1,2,0:0:0:0:
160,224,8083,1,4,0:0:0:0:
32,192,9883,1,4,0:0:0:0:
32,160,10783,1,0,0:0:0:0:
128,160,11683,1,0,0:0:0:0:
128,224,12283,1,0,0:0:0:0:
128,192,12583,1,2,0:0:0:0:
128,192,13483,1,4,0:0:0:0:
32,160,14383,1,2,0:0:0:0:
96,192,15283,1,4,0:0:0:0:
320,192,15883,1,0,0:0:0:0:
224,192,16183,1,2,0:0:0:0:
288,192,17383,1,6,0:0:0:0:
160,160,17983,1,0,0:0:0:0:
160,160,18883,1,2,0:0:0:0:
192,160,19783,1,0,0:0:0:0:
192,160,20383,1,0,0:0:0:0:
96,192,20683,1,6,0:0:0:0:
128,224,21133,1,6,0:0:0:0:
224,160,21583,1,6,0:0:0:0:
192,160,22483,1,2,0:0:0:0:
192,192,24283,5,4,0:0:0:0:
64,160,25183,1,2,0:0:0:0:
224,192,25483,1,0,0:0:0:0:
128,160,26083,1,2,0:0:0:0:
320,256,26683,1,0,0:0:0:0:
128,192,26983,1,2,0:0:0:0:
288,192,27883,1,0,0:0:0:0:
128,160,28783,1,2,0:0:0:0:
64,192,29083,1,0,0:0:0:0:
64,160,29683,1,0,0:0:0:0:
224,96,30283,1,0,0:0:0:0:
128,160,30583,1,2,0:0:0:0:
320,224,31183,1,2,0:0:0:0:
128,160,31483,1,6,0:0:0:0:
64,160,32383,1,2,0:0:0:0:
64,160,32683,1,0,0:0:0:0:
128,192,33283,1,2,0:0:0:0:
352,96,33883,1,0,0:0:0:0:
160,160,34183,1,0,0:0:0:0:
288,192,34783,1,0,0:0:0:0:
160,256,35083,1,6,0:0:0:0:
256,192,35983,1,2,0:0:0:0:
256,160,36583,1,0,0:0:0:0:
96,160,36883,2,0,L|256:160,5,120
320,192,38983,1,4,0:0:0:0:
256,160,42283,1,0,0:0:0:0:
128,160,43183,1,0,0:0:0:0:
160,192,44083,1,2,0:0:0:0:
320,224,44683,1,0,0:0:0:0:
256,256,44983,1,0,0:0:0:0:
256,192,46183,1,4,0:0:0:0:
224,160,46783,1,2,0:0:0:0:
320,224,47683,1,0,0:0:0:0:
256,160,48283,1,0,0:0:0:0:
128,160,48583,1,2,0:0:0:0:
192,192,49483,1,0,0:0:0:0:
160,192,50383,1,2,0:0:0:0:
160,128,50983,1,0,0:0:0:0:
192,224,51283,1,2,0:0:0:0:
256,160,51883,1,0,0:0:0:0:
128,192,52183,1,2,0:0:0:0:
160,160,53083,1,2,0:0:0:0:
256,160,53683,1,0,0:0:0:0:
224,192,53983,1,2,0:0:0:0:
128,192,54883,1,0,0:0:0:0:
256,224,55483,1,0,0:0:0:0:
64,160,55783,1,2,0:0:0:0:
352,224,56683,1,4,0:0:0:0:
384,256,57583,1,6,0:0:0:0:
160,160,58183,1,4,0:0:0:0:
192,192,58483,1,6,0:0:0:0:
192,192,59083,1,6,0:0:0:0:
320,160,59383,1,6,0:0:0:0:
96,160,60283,5,6,0:0:0:0:
224,192,62083,1,0,0:0:0:0:
224,192,63883,1,2,0:0:0:0:
256,224,64783,1,2,0:0:0:0:
192,192,65683,1,2,0:0:0:0:
192,192,67483,5,4,0:0:0:0:
224,192,69283,1,0,0:0:0:0:
160,32,70183,1,0,0:0:0:0:
224,192,71083,1,2,0:0:0:0:
320,192,71983,1,2,0:0:0:0:
320,192,72283,1,2,0:0:0:0:
320,192,72583,1,2,0:0:0:0:
320,192,72883,1,2,0:0:0:0:
224,160,74683,1,4,0:0:0:0:
256,192,75583,1,2,0:0:0:0:
224,192,76483,1,0,0:0:0:0:
320,224,77083,1,0,0:0:0:0:
160,32,77383,1,2,0:0:0:0:
224,192,78283,1,2,0:0:0:0:
192,192,79183,1,0,0:0:0:0:
224,192,79483,1,2,0:0:0:0:
160,192,79783,1,2,0:0:0:0:
192,192,80083,1,2,0:0:0:0:
288,192,81883,1,0,0:0:0:0:
288,224,83683,1,0,0:0:0:0:
192,224,84583,1,0,0:0:0:0:
256,160,84883,1,2,0:0:0:0:
96,160,85483,2,0,L|160:160,10,60
160,160,87283,2,0,L|224:160,10,60
256,192,89083,12,0,90283,0:0:0:0:
192,192,90883,5,4,0:0:0:0:
128,160,91783,1,2,0:0:0:0:
192,192,92383,1,2,0:0:0:0:
64,160,92683,1,0,0:0:0:0:
160,224,93283,1,0,0:0:0:0:
224,224,93583,1,0,0:0:0:0:
256,128,93883,1,2,0:0:0:0:
256,192,94483,1,0,0:0:0:0:
192,256,95083,1,0,0:0:0:0:
128,192,95383,1,2,0:0:0:0:
96,160,95983,1,2,0:0:0:0:
64,192,96283,1,0,0:0:0:0:
160,224,96583,1,2,0:0:0:0:
192,224,97183,1,0,0:0:0:0:
288,128,97483,1,2,0:0:0:0:
224,192,97783,1,2,0:0:0:0:
128,128,98083,1,4,0:0:0:0:
128,192,98683,1,0,0:0:0:0:
224,128,98983,1,2,0:0:0:0:
160,224,99283,1,0,0:0:0:0:
64,160,99883,1,0,0:0:0:0:
128,160,100183,1,2,0:0:0:0:
256,160,100783,1,2,0:0:0:0:
192,192,101083,1,0,0:0:0:0:
256,192,101683,1,4,0:0:0:0:
128,192,102283,1,0,0:0:0:0:
128,160,102583,1,2,0:0:0:0:
192,192,102883,1,0,0:0:0:0:
64,192,103483,1,4,0:0:0:0:
160,224,104083,1,2,0:0:0:0:
288,160,104383,1,2,0:0:0:0:
224,160,105283,1,4,0:0:0:0:
288,224,105733,1,4,0:0:0:0:
192,160,106183,1,4,0:0:0:0:
96,192,107083,1,6,0:0:0:0:
256,64,108883,1,4,0:0:0:0:
224,192,110683,1,2,0:0:0:0:
224,192,111583,1,2,0:0:0:0:
192,192,112483,1,0,0:0:0:0:
256,192,113383,1,2,0:0:0:0:
256,192,114283,1,0,0:0:0:0:
288,192,116083,1,4,0:0:0:0:
256,160,116983,1,6,0:0:0:0:
256,160,117433,1,6,0:0:0:0:
128,160,117883,1,6,0:0:0:0:
160,192,118783,1,4,0:0:0:0:
192,160,119233,1,6,0:0:0:0:
192,160,119683,1,6,0:0:0:0:
384,160,120583,1,6,0:0:0:0:
256,192,121483,12,0,122683,0:0:0:0:
86,161,123283,5,6,0:0:0:0:
288,192,124183,1,2,0:0:0:0:
224,224,124483,1,2,0:0:0:0:
96,192,124783,1,0,0:0:0:0:
64,160,125083,1,0,0:0:0:0:
224,160,125683,1,0,0:0:0:0:
352,224,125983,1,2,0:0:0:0:
224,160,126883,1,0,0:0:0:0:
96,192,127183,1,0,0:0:0:0:
256,192,127783,1,0,0:0:0:0:
128,192,128083,1,2,0:0:0:0:
128,224,128383,1,0,0:0:0:0:
256,224,128683,1,2,0:0:0:0:
160,96,129283,1,2,0:0:0:0:
192,192,129583,1,2,0:0:0:0:
192,128,130483,1,4,0:0:0:0:
96,192,131083,1,2,0:0:0:0:
128,160,131383,1,0,0:0:0:0:
160,256,131683,1,0,0:0:0:0:
160,192,132283,1,2,0:0:0:0:
96,192,132883,1,0,0:0:0:0:
224,192,133183,1,2,0:0:0:0:
128,192,133783,1,0,0:0:0:0:
192,160,134083,1,6,0:0:0:0:
224,288,134683,1,0,0:0:0:0:
32,192,134983,1,0,0:0:0:0:
320,224,135283,1,0,0:0:0:0:
320,192,135583,1,2,0:0:0:0:
160,128,135883,2,0,L|288:128,5,120
96,160,137683,5,4,0:0:0:0:
224,192,139483,1,0,0:0:0:0:
160,32,140383,1,0,0:0:0:0:
224,192,141283,1,2,0:0:0:0:
192,192,142183,1,0,0:0:0:0:
96,192,142483,1,2,0:0:0:0:
192,192,143083,1,2,0:0:0:0:
96,160,144883,1,2,0:0:0:0:
224,192,146683,1,0,0:0:0:0:
160,32,147583,1,0,0:0:0:0:
224,192,148483,1,2,0:0:0:0:
192,192,149383,1,0,0:0:0:0:
224,288,149683,1,2,0:0:0:0:
192,192,150283,1,0,0:0:0:0:
