osu file format v14

[General]
AudioFilename: wizdomiot.mp3
AudioLeadIn: 0
PreviewTime: 23907
Countdown: 0
SampleSet: Normal
StackLeniency: 0.7
Mode: 1
LetterboxInBreaks: 0
WidescreenStoryboard: 0

[Editor]
DistanceSpacing: 0.8
BeatDivisor: 2
GridSize: 32
TimelineZoom: 1.2

[Metadata]
Title:Wizdomiot
TitleUnicode:Wizdomiot
Artist:LeaF
ArtistUnicode:LeaF
Creator:SKSalt
Version:Futsuu
Source:BMS
Tags:東方project touhou zun remix 東方地霊殿 ~ subterranean animism 東方音弾遊戯7 緑眼のジェラシー 水橋 パルスィ green eyed jealousy mizuhashi parsee koyomi_222 JUDYDANNY
BeatmapID:777193
BeatmapSetID:352682

[Difficulty]
HPDrainRate:6
CircleSize:5
OverallDifficulty:4.5
ApproachRate:5
SliderMultiplier:1.4
SliderTickRate:1

[Events]
//Background and Video events
0,0,"BG.jpg",0,75
//Break Periods
//Storyboard Layer 0 (Background)
//Storyboard Layer 1 (Fail)
//Storyboard Layer 2 (Pass)
//Storyboard Layer 3 (Foreground)
//Storyboard Sound Samples

[TimingPoints]
1783,300,3,1,0,60,1,0
9809,-100,3,1,0,80,0,0
17233,-100,3,1,0,60,0,0
18883,-100,3,1,0,70,0,0
20308,-100,3,1,0,80,0,0
21133,-100,3,1,0,85,0,0
21583,-100,3,1,0,90,0,0
22033,-100,3,1,0,95,0,0
22483,-100,3,1,0,60,0,0
23533,-100,3,1,0,60,0,0
24283,-100,3,1,0,80,0,1
38983,-100,3,1,0,80,0,0
39208,-100,3,1,0,60,0,0
46033,-100,3,1,0,80,0,0
60283,-100,3,1,0,60,0,0
81808,-100,3,1,0,30,0,0
84583,-100,3,1,0,40,0,0
85483,-100,3,1,0,50,0,0
86383,-100,3,1,0,60,0,0
87283,-100,3,1,0,70,0,0
89083,-100,3,1,0,50,0,0
90883,-100,3,1,0,80,0,1
105283,-100,3,1,0,80,0,0
108733,-100,3,1,0,60,0,0
115933,-100,3,1,0,80,0,0
123283,-100,3,1,0,85,0,1
137683,-100,3,1,0,60,0,0

[HitObjects]
224,160,2683,5,4,0:0:0:0:
96,160,3583,1,2,0:0:0:0:
288,128,4483,1,4,0:0:0:0:
224,192,4633,1,4,0:0:0:0:
160,224,6283,1,0,0:0:0:0:
32,192,6583,1,2,0:0:0:0:
96,160,7183,1,0,0:0:0:0:
160,224,7483,1,2,0:0:0:0:
160,224,8083,1,4,0:0:0:0:
128,192,8233,1,4,0:0:0:0:
288,192,8983,1,0,0:0:0:0:
224,192,9283,1,2,0:0:0:0:
160,160,9433,1,2,0:0:0:0:
192,160,9583,1,2,0:0:0:0:
32,192,9883,1,4,0:0:0:0:
224,128,10183,1,2,0:0:0:0:
96,192,10783,1,0,0:0:0:0:
32,160,11083,1,2,0:0:0:0:
128,160,11683,1,0,0:0:0:0:
128,224,12283,1,0,0:0:0:0:
160,128,12583,1,2,0:0:0:0:
64,192,12883,1,2,0:0:0:0:
128,192,13483,1,4,0:0:0:0:
128,128,13783,1,2,0:0:0:0:
32,160,14383,1,0,0:0:0:0:
128,160,14683,1,2,0:0:0:0:
96,192,15283,1,4,0:0:0:0:
320,192,15883,1,2,0:0:0:0:
224,192,16183,1,0,0:0:0:0:
64,192,16483,1,0,0:0:0:0:
64,160,16783,1,2,0:0:0:0:
288,192,17383,1,6,0:0:0:0:
160,160,17983,1,2,0:0:0:0:
320,256,18583,1,0,0:0:0:0:
160,160,18883,1,2,0:0:0:0:
192,192,19483,1,0,0:0:0:0:
192,160,19783,1,2,0:0:0:0:
192,192,20083,1,0,0:0:0:0:
192,160,20383,1,2,0:0:0:0:
96,192,20683,1,6,0:0:0:0:
192,224,21133,1,6,0:0:0:0:
224,160,21583,1,6,0:0:0:0:
256,192,22033,1,6,0:0:0:0:
256,192,22483,12,0,23983,0:0:0:0:
192,192,24283,5,4,0:0:0:0:
96,160,24583,1,2,0:0:0:0:
160,192,24883,1,0,0:0:0:0:
256,192,25033,1,0,0:0:0:0:
64,160,25183,1,2,0:0:0:0:
160,160,25483,1,0,0:0:0:0:
320,256,25783,1,0,0:0:0:0:
128,160,26083,1,2,0:0:0:0:
96,160,26683,1,0,0:0:0:0:
128,192,26983,1,2,0:0:0:0:
224,128,27283,1,0,0:0:0:0:
160,160,27583,1,2,0:0:0:0:
224,192,27733,1,2,0:0:0:0:
288,192,27883,1,0,0:0:0:0:
128,192,28483,1,0,0:0:0:0:
128,160,28783,1,2,0:0:0:0:
160,192,29083,1,0,0:0:0:0:
128,224,29383,1,0,0:0:0:0:
64,160,29683,1,2,0:0:0:0:
224,160,30283,1,0,0:0:0:0:
128,160,30583,1,0,0:0:0:0:
128,160,30883,1,2,0:0:0:0:
352,256,31033,1,0,0:0:0:0:
192,192,31183,1,2,0:0:0:0:
128,160,31483,1,6,0:0:0:0:
192,224,31933,1,0,0:0:0:0:
320,128,32083,1,0,0:0:0:0:
64,160,32383,1,2,0:0:0:0:
64,160,32683,1,2,0:0:0:0:
96,192,32833,1,0,0:0:0:0:
64,160,32983,1,0,0:0:0:0:
128,192,33283,1,2,0:0:0:0:
192,160,33883,1,0,0:0:0:0:
192,192,34183,1,2,0:0:0:0:
160,160,34483,1,0,0:0:0:0:
160,256,35083,1,6,0:0:0:0:
320,224,35383,1,0,0:0:0:0:
320,192,35683,1,2,0:0:0:0:
160,192,35833,1,0,0:0:0:0:
256,192,35983,1,2,0:0:0:0:
256,160,36583,1,2,0:0:0:0:
64,128,36883,2,0,L|160:128,10,70
352,224,38683,1,2,0:0:0:0:
320,192,38983,1,4,0:0:0:0:
256,160,42283,1,0,0:0:0:0:
128,160,42583,1,2,0:0:0:0:
128,160,43183,1,2,0:0:0:0:
160,192,43783,1,2,0:0:0:0:
256,160,44083,1,0,0:0:0:0:
320,224,44683,1,0,0:0:0:0:
256,256,44983,1,2,0:0:0:0:
128,128,45883,1,2,0:0:0:0:
256,192,46183,1,4,0:0:0:0:
224,160,46783,1,2,0:0:0:0:
320,224,47383,1,2,0:0:0:0:
320,224,47683,1,0,0:0:0:0:
256,192,47983,1,2,0:0:0:0:
224,224,48283,1,0,0:0:0:0:
128,160,48583,1,2,0:0:0:0:
192,192,49483,1,2,0:0:0:0:
192,192,49783,1,0,0:0:0:0:
160,192,50383,1,2,0:0:0:0:
160,128,50983,1,0,0:0:0:0:
192,224,51283,1,2,0:0:0:0:
160,256,51583,1,0,0:0:0:0:
64,224,51883,1,0,0:0:0:0:
128,192,52183,1,2,0:0:0:0:
160,160,53083,1,2,0:0:0:0:
128,160,53383,1,0,0:0:0:0:
224,192,53983,1,2,0:0:0:0:
160,192,54283,1,0,0:0:0:0:
128,192,54883,1,0,0:0:0:0:
128,192,55183,1,2,0:0:0:0:
256,288,55483,1,0,0:0:0:0:
64,160,55783,1,2,0:0:0:0:
96,128,56083,1,2,0:0:0:0:
352,224,56683,1,4,0:0:0:0:
96,192,57133,1,4,0:0:0:0:
384,256,57583,1,6,0:0:0:0:
160,160,57883,1,4,0:0:0:0:
352,256,58183,1,4,0:0:0:0:
192,192,58483,1,6,0:0:0:0:
192,160,59083,1,6,0:0:0:0:
160,160,59383,1,6,0:0:0:0:
96,160,60283,5,6,0:0:0:0:
256,160,61183,1,0,0:0:0:0:
224,192,62083,1,0,0:0:0:0:
128,192,62683,1,2,0:0:0:0:
160,32,62983,1,0,0:0:0:0:
256,192,63583,1,2,0:0:0:0:
224,192,63883,1,2,0:0:0:0:
192,192,64783,1,0,0:0:0:0:
192,192,65083,1,2,0:0:0:0:
192,224,65383,1,2,0:0:0:0:
192,192,65683,1,0,0:0:0:0:
256,192,66583,12,0,67183,0:0:0:0:
192,192,67483,5,4,0:0:0:0:
256,160,68383,1,0,0:0:0:0:
224,192,69283,1,0,0:0:0:0:
128,192,69883,1,2,0:0:0:0:
160,32,70183,1,0,0:0:0:0:
256,192,70783,1,2,0:0:0:0:
224,192,71083,1,2,0:0:0:0:
192,192,71983,1,0,0:0:0:0:
192,192,72283,1,2,0:0:0:0:
128,160,72583,1,2,0:0:0:0:
192,192,72883,1,2,0:0:0:0:
192,160,73483,1,0,0:0:0:0:
192,160,73783,1,2,0:0:0:0:
224,160,74683,1,4,0:0:0:0:
256,160,75583,1,0,0:0:0:0:
224,192,75883,1,2,0:0:0:0:
224,192,76483,1,0,0:0:0:0:
128,192,77083,1,2,0:0:0:0:
160,32,77383,1,0,0:0:0:0:
256,192,77983,1,2,0:0:0:0:
224,192,78283,1,2,0:0:0:0:
192,192,79183,1,0,0:0:0:0:
192,192,79483,1,2,0:0:0:0:
96,128,79783,1,2,0:0:0:0:
192,192,80083,1,2,0:0:0:0:
160,192,81883,1,0,0:0:0:0:
288,224,83683,1,0,0:0:0:0:
288,224,84583,1,0,0:0:0:0:
256,224,84733,1,2,0:0:0:0:
256,224,84883,1,2,0:0:0:0:
256,224,85183,1,2,0:0:0:0:
160,192,85333,1,2,0:0:0:0:
64,192,85483,2,0,L|160:192,10,70
96,160,87283,2,0,L|192:160,10,70
256,192,89083,12,0,90583,0:0:0:0:
192,192,90883,5,4,0:0:0:0:
192,192,91183,1,2,0:0:0:0:
192,192,91333,1,0,0:0:0:0:
192,192,91633,1,2,0:0:0:0:
288,224,91783,1,0,0:0:0:0:
192,160,91933,1,2,0:0:0:0:
128,160,92233,1,0,0:0:0:0:
160,192,92383,1,2,0:0:0:0:
64,160,92683,1,0,0:0:0:0:
128,160,92983,1,2,0:0:0:0:
96,192,93133,1,0,0:0:0:0:
256,192,93583,1,0,0:0:0:0:
288,256,93733,1,0,0:0:0:0:
256,128,93883,1,2,0:0:0:0:
224,192,94183,1,2,0:0:0:0:
256,192,94483,1,0,0:0:0:0:
128,192,94783,1,2,0:0:0:0:
128,160,94933,1,0,0:0:0:0:
320,128,95083,1,0,0:0:0:0:
128,160,95383,1,2,0:0:0:0:
64,160,95683,1,2,0:0:0:0:
192,160,95833,1,0,0:0:0:0:
96,160,95983,1,2,0:0:0:0:
64,192,96283,1,0,0:0:0:0:
64,192,96583,1,2,0:0:0:0:
160,224,97183,1,2,0:0:0:0:
96,192,97483,1,0,0:0:0:0:
224,64,97633,1,0,0:0:0:0:
224,64,97783,1,2,0:0:0:0:
128,128,98083,1,4,0:0:0:0:
192,192,98383,1,2,0:0:0:0:
96,128,98533,1,0,0:0:0:0:
160,160,98833,1,2,0:0:0:0:
192,128,98983,1,0,0:0:0:0:
224,128,99133,1,0,0:0:0:0:
224,128,99283,1,2,0:0:0:0:
192,224,99583,1,2,0:0:0:0:
320,128,99733,1,2,0:0:0:0:
64,160,99883,1,0,0:0:0:0:
128,160,100183,1,2,0:0:0:0:
96,192,100333,1,0,0:0:0:0:
160,256,100783,1,0,0:0:0:0:
288,256,100933,1,0,0:0:0:0:
256,160,101083,1,2,0:0:0:0:
224,192,101383,1,2,0:0:0:0:
256,192,101683,1,4,0:0:0:0:
128,192,101983,1,2,0:0:0:0:
128,160,102133,1,0,0:0:0:0:
128,160,102433,1,2,0:0:0:0:
192,128,102583,1,0,0:0:0:0:
192,160,102733,1,0,0:0:0:0:
128,160,102883,1,2,0:0:0:0:
128,192,103183,1,2,0:0:0:0:
64,192,103483,1,4,0:0:0:0:
160,224,104083,1,2,0:0:0:0:
288,160,104383,1,2,0:0:0:0:
224,128,104533,1,0,0:0:0:0:
256,160,104683,1,2,0:0:0:0:
96,224,104983,1,0,0:0:0:0:
224,160,105283,1,4,0:0:0:0:
224,160,105733,1,4,0:0:0:0:
192,160,106183,1,4,0:0:0:0:
192,192,106633,1,4,0:0:0:0:
96,192,107083,1,6,0:0:0:0:
256,128,107983,1,0,0:0:0:0:
256,64,108883,1,4,0:0:0:0:
256,160,109783,1,0,0:0:0:0:
224,192,110383,1,2,0:0:0:0:
224,192,110683,1,2,0:0:0:0:
224,192,111583,1,2,0:0:0:0:
192,192,112483,1,0,0:0:0:0:
256,192,113383,1,2,0:0:0:0:
128,160,113983,1,0,0:0:0:0:
256,192,114283,1,0,0:0:0:0:
192,192,115183,1,2,0:0:0:0:
320,160,115783,1,2,0:0:0:0:
288,192,116083,1,4,0:0:0:0:
256,160,116683,1,4,0:0:0:0:
256,160,116983,1,6,0:0:0:0:
288,160,117433,1,6,0:0:0:0:
128,160,117883,1,4,0:0:0:0:
128,160,118183,1,6,0:0:0:0:
160,192,118783,1,4,0:0:0:0:
192,160,119233,1,6,0:0:0:0:
192,160,119683,1,6,0:0:0:0:
160,192,120133,1,4,0:0:0:0:
384,160,120583,1,6,0:0:0:0:
265,191,121483,1,4,0:0:0:0:
259,193,122083,1,6,0:0:0:0:
267,201,122383,1,4,0:0:0:0:
86,161,123283,1,6,0:0:0:0:
352,160,123583,1,2,0:0:0:0:
160,192,123733,1,0,0:0:0:0:
96,224,123883,1,0,0:0:0:0:
288,192,124183,1,2,0:0:0:0:
256,192,124483,1,0,0:0:0:0:
256,160,124783,1,2,0:0:0:0:
64,160,125083,1,0,0:0:0:0:
224,160,125683,1,0,0:0:0:0:
352,224,125983,1,2,0:0:0:0:
288,224,126283,1,0,0:0:0:0:
192,192,126433,1,0,0:0:0:0:
224,160,126583,1,2,0:0:0:0:
224,160,126883,1,0,0:0:0:0:
384,256,127183,1,2,0:0:0:0:
288,192,127333,1,0,0:0:0:0:
224,224,127483,1,0,0:0:0:0:
256,192,127783,1,0,0:0:0:0:
192,192,128383,1,0,0:0:0:0:
256,224,128683,1,2,0:0:0:0:
256,192,128983,1,2,0:0:0:0:
192,224,129133,1,0,0:0:0:0:
128,192,129283,1,0,0:0:0:0:
192,192,129583,1,2,0:0:0:0:
32,160,129883,1,2,0:0:0:0:
224,192,130033,1,2,0:0:0:0:
128,192,130183,1,0,0:0:0:0:
192,128,130483,1,4,0:0:0:0:
96,192,130783,1,2,0:0:0:0:
128,160,131383,1,0,0:0:0:0:
192,160,131683,1,2,0:0:0:0:
288,224,131983,1,0,0:0:0:0:
160,192,132283,1,2,0:0:0:0:
224,160,132883,1,0,0:0:0:0:
224,192,133183,1,2,0:0:0:0:
160,192,133483,1,0,0:0:0:0:
160,192,133633,1,2,0:0:0:0:
96,224,133783,1,0,0:0:0:0:
192,160,134083,1,6,0:0:0:0:
160,192,134383,1,2,0:0:0:0:
160,160,134533,1,2,0:0:0:0:
96,224,134683,1,0,0:0:0:0:
32,192,134983,1,0,0:0:0:0:
320,192,135583,1,2,0:0:0:0:
128,160,135883,2,0,L|256:160,10,70
96,160,137683,5,4,0:0:0:0:
256,160,138583,1,0,0:0:0:0:
224,192,138883,1,2,0:0:0:0:
224,192,139483,1,0,0:0:0:0:
128,192,140083,1,2,0:0:0:0:
160,32,140383,1,0,0:0:0:0:
256,192,140983,1,2,0:0:0:0:
224,192,141283,1,2,0:0:0:0:
192,192,142183,1,0,0:0:0:0:
192,192,142483,1,2,0:0:0:0:
224,160,142783,1,2,0:0:0:0:
192,192,143083,1,2,0:0:0:0:
96,160,144883,1,2,0:0:0:0:
256,160,145783,1,0,0:0:0:0:
224,192,146083,1,2,0:0:0:0:
224,192,146683,1,0,0:0:0:0:
128,192,147283,1,2,0:0:0:0:
160,32,147583,1,0,0:0:0:0:
256,192,148183,1,2,0:0:0:0:
224,192,148483,1,2,0:0:0:0:
192,192,149383,1,0,0:0:0:0:
192,192,149683,1,2,0:0:0:0:
352,192,149983,1,2,0:0:0:0:
192,192,150283,1,0,0:0:0:0:
