osu file format v14

[General]
AudioFilename: wizdomiot.mp3
AudioLeadIn: 0
PreviewTime: 23907
Countdown: 0
SampleSet: Normal
StackLeniency: 0.7
Mode: 1
LetterboxInBreaks: 0
WidescreenStoryboard: 0

[Editor]
DistanceSpacing: 0.8
BeatDivisor: 4
GridSize: 4
TimelineZoom: 3.399998

[Metadata]
Title:Wizdomiot
TitleUnicode:Wizdomiot
Artist:LeaF
ArtistUnicode:LeaF
Creator:SKSalt
Version:Oni
Source:BMS
Tags:東方project touhou zun remix 東方地霊殿 ~ subterranean animism 東方音弾遊戯7 緑眼のジェラシー 水橋 パルスィ green eyed jealousy mizuhashi parsee koyomi_222 JUDYDANNY
BeatmapID:794960
BeatmapSetID:352682

[Difficulty]
HPDrainRate:5.5
CircleSize:5
OverallDifficulty:5.5
ApproachRate:5
SliderMultiplier:1.4
SliderTickRate:1

[Events]
//Background and Video events
0,0,"BG.jpg",0,75
//Break Periods
//Storyboard Layer 0 (Background)
//Storyboard Layer 1 (Fail)
//Storyboard Layer 2 (Pass)
//Storyboard Layer 3 (Foreground)
//Storyboard Sound Samples

[TimingPoints]
1783,300,3,1,0,60,1,0
9809,-100,3,1,0,80,0,0
17233,-100,3,1,0,60,0,0
18883,-100,3,1,0,70,0,0
20308,-100,3,1,0,80,0,0
21133,-100,3,1,0,85,0,0
21583,-100,3,1,0,90,0,0
22033,-100,3,1,0,95,0,0
22483,-100,3,1,0,60,0,0
24283,-100,3,1,0,80,0,1
38983,-100,3,1,0,80,0,0
39208,-100,3,1,0,60,0,0
46033,-100,3,1,0,80,0,0
60283,-100,3,1,0,60,0,0
81808,-100,3,1,0,30,0,0
84583,-100,3,1,0,40,0,0
85483,-100,3,1,0,50,0,0
86383,-100,3,1,0,60,0,0
87283,-100,3,1,0,70,0,0
89083,-100,3,1,0,50,0,0
90883,-100,3,1,0,80,0,1
105283,-100,3,1,0,80,0,0
108733,-100,3,1,0,60,0,0
115933,-100,3,1,0,80,0,0
123283,-100,3,1,0,85,0,1
137683,-100,3,1,0,60,0,0

[HitObjects]
224,160,2683,5,4,0:0:0:0:
96,160,2983,1,2,0:0:0:0:
128,160,3133,1,0,0:0:0:0:
160,224,3433,1,0,0:0:0:0:
288,224,3583,1,2,0:0:0:0:
256,192,3883,1,2,0:0:0:0:
256,192,4033,1,0,0:0:0:0:
288,224,4333,1,2,0:0:0:0:
288,128,4483,1,4,0:0:0:0:
192,192,4633,1,4,0:0:0:0:
64,160,4933,1,0,0:0:0:0:
224,128,5083,1,2,0:0:0:0:
256,224,5233,1,0,0:0:0:0:
96,160,5383,1,2,0:0:0:0:
96,160,5683,1,0,0:0:0:0:
96,160,5833,1,2,0:0:0:0:
256,224,6133,1,0,0:0:0:0:
160,224,6283,1,0,0:0:0:0:
160,224,6583,1,2,0:0:0:0:
32,192,6733,1,0,0:0:0:0:
256,224,7033,1,0,0:0:0:0:
160,224,7183,1,2,0:0:0:0:
160,224,7483,1,2,0:0:0:0:
96,160,7633,1,0,0:0:0:0:
96,160,7933,1,2,0:0:0:0:
160,224,8083,1,4,0:0:0:0:
32,192,8233,1,4,0:0:0:0:
96,160,8533,1,0,0:0:0:0:
96,160,8683,1,2,0:0:0:0:
160,192,8833,1,0,0:0:0:0:
160,224,8983,1,2,0:0:0:0:
352,192,9283,1,0,0:0:0:0:
160,160,9433,1,0,0:0:0:0:
160,160,9583,1,2,0:0:0:0:
32,192,9883,1,4,0:0:0:0:
224,128,10183,1,2,0:0:0:0:
224,128,10333,1,0,0:0:0:0:
128,192,10483,1,0,0:0:0:0:
96,192,10633,1,2,0:0:0:0:
32,160,10783,1,2,0:0:0:0:
96,192,11083,1,2,0:0:0:0:
96,192,11233,1,0,0:0:0:0:
96,160,11533,1,2,0:0:0:0:
128,160,11683,1,0,0:0:0:0:
128,160,11983,1,2,0:0:0:0:
128,224,12133,1,0,0:0:0:0:
128,224,12283,1,2,0:0:0:0:
128,192,12583,1,2,0:0:0:0:
64,192,12733,1,2,0:0:0:0:
256,224,12883,1,0,0:0:0:0:
160,160,13033,1,2,0:0:0:0:
256,224,13333,1,0,0:0:0:0:
128,192,13483,1,4,0:0:0:0:
128,192,13783,1,2,0:0:0:0:
128,128,13933,1,0,0:0:0:0:
128,128,14083,1,0,0:0:0:0:
128,128,14233,1,2,0:0:0:0:
32,160,14383,1,2,0:0:0:0:
32,160,14533,1,0,0:0:0:0:
128,160,14833,1,0,0:0:0:0:
96,192,14983,1,0,0:0:0:0:
32,192,15133,1,2,0:0:0:0:
96,192,15283,1,4,0:0:0:0:
192,192,15583,1,2,0:0:0:0:
192,192,15733,1,0,0:0:0:0:
320,192,15883,1,2,0:0:0:0:
224,192,16183,1,2,0:0:0:0:
224,192,16333,1,0,0:0:0:0:
256,224,16483,1,0,0:0:0:0:
64,192,16633,1,0,0:0:0:0:
64,160,16783,1,2,0:0:0:0:
64,160,16933,1,0,0:0:0:0:
64,160,17083,1,2,0:0:0:0:
288,192,17383,1,6,0:0:0:0:
96,192,17533,1,0,0:0:0:0:
96,192,17833,1,0,0:0:0:0:
160,160,17983,1,2,0:0:0:0:
448,160,18133,1,0,0:0:0:0:
320,256,18433,1,0,0:0:0:0:
256,256,18583,1,0,0:0:0:0:
160,160,18733,1,2,0:0:0:0:
160,160,18883,1,2,0:0:0:0:
192,256,19033,1,0,0:0:0:0:
192,192,19333,1,0,0:0:0:0:
192,192,19483,1,2,0:0:0:0:
256,192,19633,1,0,0:0:0:0:
192,160,19783,1,2,0:0:0:0:
224,160,19933,1,0,0:0:0:0:
256,192,20233,1,0,0:0:0:0:
192,160,20383,1,2,0:0:0:0:
96,192,20533,1,0,0:0:0:0:
96,192,20683,1,2,0:0:0:0:
192,224,20983,1,0,0:0:0:0:
192,224,21133,1,6,0:0:0:0:
256,128,21433,1,0,0:0:0:0:
224,160,21583,1,6,0:0:0:0:
256,192,21883,1,0,0:0:0:0:
256,192,22033,1,6,0:0:0:0:
192,96,22333,1,0,0:0:0:0:
160,192,22483,1,2,0:0:0:0:
192,160,22633,1,0,0:0:0:0:
256,192,22783,1,0,0:0:0:0:
256,192,22933,1,2,0:0:0:0:
416,224,23083,1,2,0:0:0:0:
256,160,23233,1,0,0:0:0:0:
224,224,23383,1,0,0:0:0:0:
192,224,23983,1,2,0:0:0:0:
192,192,24133,1,2,0:0:0:0:
192,192,24283,1,4,0:0:0:0:
96,160,24583,1,2,0:0:0:0:
256,192,24733,1,0,0:0:0:0:
128,192,25033,1,0,0:0:0:0:
320,128,25108,1,0,0:0:0:0:
64,160,25183,1,2,0:0:0:0:
224,160,25333,1,0,0:0:0:0:
320,192,25483,1,0,0:0:0:0:
224,224,25633,1,2,0:0:0:0:
320,256,25783,1,0,0:0:0:0:
96,160,25933,1,2,0:0:0:0:
384,224,26008,1,0,0:0:0:0:
128,160,26083,1,2,0:0:0:0:
96,160,26233,1,0,0:0:0:0:
96,160,26533,1,0,0:0:0:0:
96,160,26683,1,2,0:0:0:0:
288,160,26833,1,0,0:0:0:0:
128,192,26983,1,2,0:0:0:0:
352,256,27058,1,2,0:0:0:0:
160,128,27133,1,0,0:0:0:0:
160,224,27283,1,0,0:0:0:0:
160,160,27433,1,2,0:0:0:0:
160,128,27583,1,0,0:0:0:0:
224,192,27733,1,2,0:0:0:0:
288,192,27883,1,0,0:0:0:0:
96,160,28183,1,0,0:0:0:0:
192,224,28258,1,0,0:0:0:0:
160,192,28333,1,2,0:0:0:0:
32,160,28483,1,0,0:0:0:0:
160,192,28633,1,0,0:0:0:0:
128,160,28783,1,2,0:0:0:0:
256,192,28858,1,2,0:0:0:0:
192,192,28933,1,0,0:0:0:0:
160,160,29083,1,2,0:0:0:0:
160,192,29233,1,0,0:0:0:0:
256,128,29383,1,2,0:0:0:0:
256,160,29533,1,0,0:0:0:0:
64,160,29683,1,2,0:0:0:0:
256,192,29983,1,2,0:0:0:0:
224,160,30133,1,0,0:0:0:0:
352,224,30283,1,0,0:0:0:0:
224,192,30433,1,2,0:0:0:0:
128,160,30583,1,0,0:0:0:0:
128,192,30883,1,2,0:0:0:0:
224,192,31033,1,0,0:0:0:0:
32,160,31108,1,0,0:0:0:0:
192,192,31183,1,2,0:0:0:0:
256,224,31333,1,0,0:0:0:0:
128,160,31483,1,6,0:0:0:0:
160,224,31783,1,0,0:0:0:0:
192,160,31933,1,2,0:0:0:0:
224,192,32008,1,2,0:0:0:0:
320,128,32083,1,0,0:0:0:0:
64,160,32383,1,2,0:0:0:0:
192,192,32533,1,0,0:0:0:0:
192,192,32608,1,0,0:0:0:0:
64,160,32683,1,2,0:0:0:0:
96,192,32833,1,0,0:0:0:0:
160,192,32983,1,0,0:0:0:0:
128,192,33133,1,2,0:0:0:0:
288,224,33208,1,0,0:0:0:0:
128,192,33283,1,2,0:0:0:0:
160,192,33433,1,0,0:0:0:0:
128,160,33583,1,0,0:0:0:0:
192,160,33733,1,2,0:0:0:0:
224,224,33883,1,0,0:0:0:0:
160,160,34033,1,0,0:0:0:0:
224,32,34108,1,0,0:0:0:0:
192,192,34183,1,2,0:0:0:0:
256,160,34483,1,0,0:0:0:0:
256,160,34633,1,2,0:0:0:0:
256,224,34783,1,2,0:0:0:0:
128,192,34933,1,0,0:0:0:0:
160,256,35083,1,6,0:0:0:0:
160,160,35233,1,0,0:0:0:0:
320,192,35533,1,2,0:0:0:0:
160,128,35683,1,0,0:0:0:0:
288,192,35833,1,0,0:0:0:0:
288,288,35908,1,0,0:0:0:0:
256,192,35983,1,2,0:0:0:0:
288,288,36133,1,0,0:0:0:0:
192,160,36283,1,2,0:0:0:0:
128,160,36433,1,0,0:0:0:0:
256,160,36583,1,2,0:0:0:0:
160,160,36733,1,0,0:0:0:0:
112,144,36883,2,0,L|112:128,89,8.75
352,224,38683,1,2,0:0:0:0:
320,192,38983,1,4,0:0:0:0:
228,216,41983,1,0,0:0:0:0:
256,160,42283,1,0,0:0:0:0:
128,160,42583,1,2,0:0:0:0:
128,160,42733,1,0,0:0:0:0:
128,160,42883,1,2,0:0:0:0:
128,160,43183,1,2,0:0:0:0:
448,224,43333,1,0,0:0:0:0:
288,128,43408,1,0,0:0:0:0:
256,224,43483,1,2,0:0:0:0:
256,224,43633,1,0,0:0:0:0:
256,224,43783,1,2,0:0:0:0:
160,192,44083,1,2,0:0:0:0:
256,160,44233,1,0,0:0:0:0:
192,224,44383,1,2,0:0:0:0:
320,224,44533,1,0,0:0:0:0:
288,160,44608,1,0,0:0:0:0:
224,160,44683,1,2,0:0:0:0:
224,160,44833,1,0,0:0:0:0:
256,256,44983,1,2,0:0:0:0:
128,128,45283,1,2,0:0:0:0:
128,128,45583,1,2,0:0:0:0:
128,128,45733,1,0,0:0:0:0:
128,128,45883,1,2,0:0:0:0:
256,192,46183,1,4,0:0:0:0:
160,160,46333,1,2,0:0:0:0:
20,348,46633,1,0,0:0:0:0:
224,160,46783,1,2,0:0:0:0:
224,192,46933,1,0,0:0:0:0:
192,192,47008,1,0,0:0:0:0:
224,192,47083,1,2,0:0:0:0:
192,192,47233,1,0,0:0:0:0:
320,224,47383,1,2,0:0:0:0:
320,224,47533,1,0,0:0:0:0:
448,224,47683,1,2,0:0:0:0:
256,192,47983,1,2,0:0:0:0:
128,192,48133,1,0,0:0:0:0:
300,160,48283,1,2,0:0:0:0:
128,128,48433,1,0,0:0:0:0:
320,224,48508,1,0,0:0:0:0:
128,160,48583,1,2,0:0:0:0:
320,224,48733,1,0,0:0:0:0:
192,192,48883,1,2,0:0:0:0:
160,192,49183,1,2,0:0:0:0:
320,224,49333,1,0,0:0:0:0:
416,224,49408,1,0,0:0:0:0:
192,192,49483,1,2,0:0:0:0:
32,192,49708,1,0,0:0:0:0:
192,192,49933,1,0,0:0:0:0:
192,224,50008,1,0,0:0:0:0:
192,192,50083,1,2,0:0:0:0:
64,192,50233,1,0,0:0:0:0:
160,192,50383,1,2,0:0:0:0:
160,160,50683,1,0,0:0:0:0:
160,160,50833,1,2,0:0:0:0:
256,224,50908,1,2,0:0:0:0:
160,128,50983,1,0,0:0:0:0:
224,192,51133,1,0,0:0:0:0:
192,224,51283,1,2,0:0:0:0:
128,160,51583,1,2,0:0:0:0:
64,224,51733,1,0,0:0:0:0:
224,160,51883,1,2,0:0:0:0:
128,192,52033,1,0,0:0:0:0:
352,256,52108,1,0,0:0:0:0:
128,192,52183,1,2,0:0:0:0:
192,192,52333,1,0,0:0:0:0:
224,192,52483,1,2,0:0:0:0:
192,192,52783,1,0,0:0:0:0:
160,160,53083,1,2,0:0:0:0:
0,160,53308,1,0,0:0:0:0:
128,160,53533,1,0,0:0:0:0:
96,160,53683,1,2,0:0:0:0:
224,128,53833,1,0,0:0:0:0:
224,192,53983,1,2,0:0:0:0:
224,160,54133,1,0,0:0:0:0:
224,128,54208,1,0,0:0:0:0:
256,160,54283,1,2,0:0:0:0:
160,192,54433,1,0,0:0:0:0:
160,192,54583,1,2,0:0:0:0:
128,192,54883,1,0,0:0:0:0:
128,192,55183,1,2,0:0:0:0:
128,192,55333,1,0,0:0:0:0:
64,160,55633,1,0,0:0:0:0:
160,160,55708,1,0,0:0:0:0:
64,160,55783,1,2,0:0:0:0:
128,192,55933,1,0,0:0:0:0:
96,160,56083,1,2,0:0:0:0:
192,224,56383,1,0,0:0:0:0:
352,224,56683,1,6,0:0:0:0:
96,192,56908,1,0,0:0:0:0:
0,192,56983,1,0,0:0:0:0:
96,192,57133,1,6,0:0:0:0:
64,160,57433,1,4,0:0:0:0:
384,256,57583,1,6,0:0:0:0:
352,256,57733,1,4,0:0:0:0:
352,256,57883,1,6,0:0:0:0:
160,160,58183,1,4,0:0:0:0:
192,192,58483,1,6,0:0:0:0:
192,160,58633,1,6,0:0:0:0:
192,160,58783,1,6,0:0:0:0:
192,160,59083,1,6,0:0:0:0:
256,192,59383,12,0,60133,0:0:0:0:
96,160,60283,5,6,0:0:0:0:
256,160,61183,1,0,0:0:0:0:
224,192,61483,1,2,0:0:0:0:
224,192,61783,1,2,0:0:0:0:
224,192,62083,1,0,0:0:0:0:
128,192,62383,1,0,0:0:0:0:
128,192,62683,1,2,0:0:0:0:
160,32,62983,1,0,0:0:0:0:
256,192,63583,1,2,0:0:0:0:
224,192,63883,1,2,0:0:0:0:
192,192,64783,1,0,0:0:0:0:
192,192,65083,1,2,0:0:0:0:
192,192,65383,1,2,0:0:0:0:
192,192,65683,1,0,0:0:0:0:
256,192,66583,12,0,67333,0:0:0:0:
192,192,67483,5,4,0:0:0:0:
256,160,68383,1,0,0:0:0:0:
224,192,68683,1,2,0:0:0:0:
224,192,68983,1,2,0:0:0:0:
224,192,69283,1,0,0:0:0:0:
128,192,69583,1,0,0:0:0:0:
128,192,69883,1,2,0:0:0:0:
160,32,70183,1,0,0:0:0:0:
256,192,70783,1,2,0:0:0:0:
320,224,70933,1,0,0:0:0:0:
224,192,71083,1,2,0:0:0:0:
192,192,71983,1,0,0:0:0:0:
192,192,72283,1,2,0:0:0:0:
192,192,72583,1,2,0:0:0:0:
192,192,72883,1,2,0:0:0:0:
192,160,73333,1,0,0:0:0:0:
256,192,73408,1,0,0:0:0:0:
256,192,73483,1,0,0:0:0:0:
192,160,73633,1,0,0:0:0:0:
192,160,73783,1,2,0:0:0:0:
320,256,74083,1,2,0:0:0:0:
320,256,74383,1,0,0:0:0:0:
224,160,74683,1,4,0:0:0:0:
224,96,75133,1,0,0:0:0:0:
256,224,75283,1,2,0:0:0:0:
256,160,75583,1,0,0:0:0:0:
224,192,75883,1,2,0:0:0:0:
224,192,76183,1,2,0:0:0:0:
224,192,76483,1,0,0:0:0:0:
128,192,76783,1,0,0:0:0:0:
256,160,76933,1,0,0:0:0:0:
128,192,77083,1,2,0:0:0:0:
160,32,77383,1,0,0:0:0:0:
256,192,77983,1,2,0:0:0:0:
320,224,78133,1,0,0:0:0:0:
224,192,78283,1,2,0:0:0:0:
96,160,78733,1,2,0:0:0:0:
96,160,78883,1,0,0:0:0:0:
192,192,79183,1,0,0:0:0:0:
192,192,79483,1,2,0:0:0:0:
192,192,79783,1,2,0:0:0:0:
192,160,80083,1,2,0:0:0:0:
192,192,80158,1,0,0:0:0:0:
160,160,80233,1,2,0:0:0:0:
192,192,81883,1,0,0:0:0:0:
288,224,83683,1,0,0:0:0:0:
288,160,83833,1,0,0:0:0:0:
288,160,83908,1,0,0:0:0:0:
256,224,83983,1,2,0:0:0:0:
288,224,84133,1,0,0:0:0:0:
160,160,84283,1,0,0:0:0:0:
256,224,84433,1,2,0:0:0:0:
288,224,84583,1,0,0:0:0:0:
256,224,84883,1,2,0:0:0:0:
256,224,85033,1,0,0:0:0:0:
192,160,85183,1,0,0:0:0:0:
288,192,85333,1,2,0:0:0:0:
288,224,85483,1,0,0:0:0:0:
256,224,85633,1,0,0:0:0:0:
256,224,85708,1,0,0:0:0:0:
256,224,85783,1,2,0:0:0:0:
288,224,85933,1,0,0:0:0:0:
256,224,86083,1,0,0:0:0:0:
256,224,86233,1,2,0:0:0:0:
288,224,86383,1,0,0:0:0:0:
256,224,86683,1,2,0:0:0:0:
256,224,86833,1,0,0:0:0:0:
352,224,86983,1,0,0:0:0:0:
288,192,87133,1,2,0:0:0:0:
288,224,87283,1,0,0:0:0:0:
320,224,87433,1,0,0:0:0:0:
320,224,87508,1,0,0:0:0:0:
256,224,87583,1,2,0:0:0:0:
288,224,87733,1,0,0:0:0:0:
256,224,87883,1,0,0:0:0:0:
256,224,88033,1,2,0:0:0:0:
288,224,88183,1,0,0:0:0:0:
192,224,88333,1,0,0:0:0:0:
160,192,88408,1,0,0:0:0:0:
256,224,88483,1,2,0:0:0:0:
256,224,88633,1,0,0:0:0:0:
320,256,88783,1,0,0:0:0:0:
288,192,88933,1,2,0:0:0:0:
256,192,89083,12,0,89833,0:0:0:0:
416,224,89983,5,0,0:0:0:0:
192,192,90133,1,0,0:0:0:0:
192,192,90283,1,2,0:0:0:0:
192,192,90583,1,2,0:0:0:0:
192,192,90883,1,4,0:0:0:0:
192,192,91033,1,0,0:0:0:0:
192,192,91108,1,0,0:0:0:0:
192,192,91183,1,2,0:0:0:0:
192,192,91333,1,0,0:0:0:0:
192,192,91633,1,2,0:0:0:0:
64,160,91783,1,0,0:0:0:0:
192,160,91933,1,2,0:0:0:0:
384,192,92008,1,2,0:0:0:0:
256,128,92083,1,2,0:0:0:0:
128,160,92233,1,0,0:0:0:0:
160,192,92383,1,2,0:0:0:0:
64,160,92683,1,0,0:0:0:0:
128,160,92833,1,2,0:0:0:0:
224,160,92908,1,2,0:0:0:0:
128,160,92983,1,2,0:0:0:0:
96,192,93133,1,0,0:0:0:0:
160,160,93433,1,2,0:0:0:0:
192,128,93583,1,0,0:0:0:0:
288,256,93733,1,2,0:0:0:0:
192,128,93808,1,2,0:0:0:0:
256,160,93883,1,2,0:0:0:0:
32,160,94033,1,0,0:0:0:0:
224,192,94183,1,2,0:0:0:0:
256,192,94483,1,0,0:0:0:0:
160,192,94633,1,0,0:0:0:0:
192,160,94708,1,0,0:0:0:0:
128,192,94783,1,2,0:0:0:0:
128,160,94933,1,0,0:0:0:0:
128,160,95233,1,2,0:0:0:0:
224,160,95308,1,2,0:0:0:0:
192,160,95383,1,0,0:0:0:0:
320,160,95533,1,0,0:0:0:0:
64,160,95683,1,2,0:0:0:0:
128,160,95833,1,0,0:0:0:0:
320,256,95908,1,0,0:0:0:0:
96,160,95983,1,0,0:0:0:0:
128,192,96133,1,2,0:0:0:0:
64,192,96283,1,0,0:0:0:0:
64,192,96433,1,2,0:0:0:0:
352,288,96508,1,2,0:0:0:0:
64,192,96583,1,2,0:0:0:0:
160,224,96733,1,0,0:0:0:0:
160,224,97033,1,2,0:0:0:0:
96,192,97183,1,0,0:0:0:0:
64,160,97333,1,2,0:0:0:0:
128,160,97408,1,2,0:0:0:0:
128,192,97483,1,2,0:0:0:0:
192,192,97633,1,0,0:0:0:0:
160,192,97783,1,2,0:0:0:0:
192,160,97933,1,0,0:0:0:0:
128,128,98083,1,4,0:0:0:0:
288,192,98233,1,0,0:0:0:0:
192,224,98308,1,0,0:0:0:0:
192,192,98383,1,2,0:0:0:0:
96,128,98533,1,0,0:0:0:0:
160,160,98833,1,2,0:0:0:0:
256,160,98983,1,0,0:0:0:0:
224,128,99133,1,2,0:0:0:0:
64,160,99208,1,2,0:0:0:0:
224,128,99283,1,2,0:0:0:0:
224,160,99433,1,0,0:0:0:0:
192,224,99583,1,2,0:0:0:0:
160,192,99658,1,0,0:0:0:0:
160,160,99733,1,2,0:0:0:0:
64,160,99883,1,0,0:0:0:0:
128,160,100033,1,0,0:0:0:0:
128,192,100108,1,0,0:0:0:0:
128,160,100183,1,2,0:0:0:0:
96,192,100333,1,0,0:0:0:0:
192,128,100633,1,2,0:0:0:0:
160,160,100783,1,0,0:0:0:0:
288,256,100933,1,2,0:0:0:0:
256,160,101008,1,2,0:0:0:0:
256,160,101083,1,2,0:0:0:0:
32,160,101233,1,0,0:0:0:0:
224,192,101383,1,2,0:0:0:0:
64,96,101533,1,0,0:0:0:0:
256,192,101683,1,4,0:0:0:0:
128,160,101833,1,0,0:0:0:0:
160,192,101908,1,0,0:0:0:0:
128,192,101983,1,2,0:0:0:0:
128,160,102133,1,0,0:0:0:0:
128,160,102433,1,2,0:0:0:0:
224,192,102508,1,2,0:0:0:0:
224,192,102583,1,0,0:0:0:0:
192,160,102733,1,0,0:0:0:0:
128,160,102883,1,2,0:0:0:0:
256,192,103033,1,0,0:0:0:0:
320,256,103108,1,0,0:0:0:0:
352,192,103183,1,0,0:0:0:0:
128,192,103333,1,2,0:0:0:0:
64,192,103483,1,4,0:0:0:0:
192,192,103633,1,0,0:0:0:0:
192,192,103708,1,0,0:0:0:0:
64,192,103783,1,2,0:0:0:0:
160,224,103933,1,0,0:0:0:0:
160,224,104083,1,2,0:0:0:0:
288,160,104383,1,2,0:0:0:0:
320,256,104533,1,2,0:0:0:0:
96,160,104608,1,2,0:0:0:0:
256,160,104683,1,0,0:0:0:0:
224,128,104833,1,0,0:0:0:0:
224,128,104983,1,2,0:0:0:0:
224,128,105133,1,0,0:0:0:0:
224,160,105283,1,4,0:0:0:0:
224,160,105733,1,4,0:0:0:0:
192,160,106183,1,4,0:0:0:0:
192,192,106633,1,4,0:0:0:0:
96,192,107083,1,6,0:0:0:0:
256,128,107983,1,0,0:0:0:0:
256,64,108883,1,4,0:0:0:0:
256,160,109783,1,0,0:0:0:0:
224,192,110083,1,0,0:0:0:0:
224,192,110383,1,2,0:0:0:0:
224,192,110683,1,2,0:0:0:0:
224,192,111583,1,2,0:0:0:0:
192,160,112183,1,0,0:0:0:0:
192,192,112483,1,0,0:0:0:0:
256,192,113383,1,2,0:0:0:0:
384,192,113983,1,0,0:0:0:0:
256,192,114283,1,0,0:0:0:0:
192,192,115183,1,2,0:0:0:0:
320,160,115783,1,2,0:0:0:0:
288,192,116083,1,4,0:0:0:0:
256,192,116383,1,2,0:0:0:0:
256,160,116683,1,4,0:0:0:0:
256,160,116833,1,4,0:0:0:0:
256,160,116983,1,6,0:0:0:0:
352,224,117283,1,0,0:0:0:0:
288,160,117433,1,6,0:0:0:0:
320,256,117733,1,0,0:0:0:0:
128,160,117883,1,6,0:0:0:0:
128,160,118183,1,6,0:0:0:0:
288,192,118333,1,0,0:0:0:0:
160,192,118408,1,0,0:0:0:0:
288,192,118483,1,0,0:0:0:0:
160,256,118633,1,4,0:0:0:0:
160,192,118783,1,6,0:0:0:0:
192,192,119083,1,0,0:0:0:0:
192,160,119233,1,6,0:0:0:0:
160,192,119533,1,0,0:0:0:0:
192,160,119683,1,6,0:0:0:0:
256,160,119833,1,0,0:0:0:0:
256,160,119908,1,0,0:0:0:0:
192,224,119983,1,0,0:0:0:0:
160,192,120133,1,6,0:0:0:0:
160,192,120433,1,0,0:0:0:0:
384,160,120583,1,6,0:0:0:0:
224,192,120733,1,0,0:0:0:0:
160,160,120883,1,0,0:0:0:0:
160,160,120958,1,0,0:0:0:0:
288,224,121033,1,0,0:0:0:0:
192,192,121183,1,2,0:0:0:0:
265,191,121483,1,4,0:0:0:0:
259,193,121783,1,4,0:0:0:0:
259,193,122083,1,6,0:0:0:0:
267,201,122383,1,4,0:0:0:0:
197,170,122683,1,0,0:0:0:0:
223,150,122833,1,2,0:0:0:0:
264,248,122908,1,2,0:0:0:0:
264,248,122983,1,2,0:0:0:0:
176,197,123133,1,2,0:0:0:0:
86,161,123283,1,6,0:0:0:0:
160,160,123433,1,2,0:0:0:0:
160,160,123508,1,2,0:0:0:0:
352,160,123583,1,0,0:0:0:0:
160,192,123733,1,0,0:0:0:0:
128,128,123883,1,2,0:0:0:0:
288,192,124183,1,2,0:0:0:0:
256,192,124333,1,2,0:0:0:0:
320,192,124483,1,0,0:0:0:0:
256,160,124633,1,0,0:0:0:0:
256,160,124783,1,2,0:0:0:0:
256,160,124933,1,2,0:0:0:0:
64,160,125083,1,0,0:0:0:0:
128,192,125383,1,2,0:0:0:0:
96,192,125533,1,0,0:0:0:0:
224,96,125608,1,0,0:0:0:0:
224,160,125683,1,2,0:0:0:0:
256,224,125833,1,0,0:0:0:0:
352,224,125983,1,2,0:0:0:0:
288,192,126133,1,2,0:0:0:0:
192,256,126283,1,0,0:0:0:0:
256,192,126433,1,0,0:0:0:0:
96,192,126583,1,2,0:0:0:0:
224,160,126733,1,2,0:0:0:0:
224,160,126883,1,0,0:0:0:0:
320,192,127183,1,0,0:0:0:0:
224,224,127333,1,2,0:0:0:0:
352,224,127408,1,2,0:0:0:0:
256,288,127483,1,0,0:0:0:0:
256,192,127633,1,2,0:0:0:0:
256,192,127783,1,0,0:0:0:0:
96,192,127933,1,0,0:0:0:0:
128,192,128008,1,0,0:0:0:0:
160,160,128083,1,2,0:0:0:0:
192,192,128233,1,2,0:0:0:0:
160,160,128383,1,0,0:0:0:0:
224,224,128533,1,0,0:0:0:0:
256,224,128683,1,2,0:0:0:0:
256,288,128983,1,0,0:0:0:0:
256,192,129133,1,2,0:0:0:0:
192,160,129208,1,2,0:0:0:0:
192,160,129283,1,0,0:0:0:0:
64,224,129433,1,0,0:0:0:0:
192,192,129583,1,2,0:0:0:0:
256,192,129733,1,2,0:0:0:0:
256,192,129808,1,2,0:0:0:0:
32,160,129883,1,2,0:0:0:0:
224,192,130033,1,2,0:0:0:0:
128,192,130183,1,0,0:0:0:0:
160,192,130333,1,2,0:0:0:0:
192,128,130483,1,4,0:0:0:0:
96,192,130783,1,2,0:0:0:0:
128,160,130858,1,2,0:0:0:0:
96,192,130933,1,0,0:0:0:0:
224,160,131083,1,2,0:0:0:0:
288,288,131233,1,0,0:0:0:0:
128,160,131383,1,0,0:0:0:0:
256,192,131533,1,0,0:0:0:0:
192,192,131608,1,0,0:0:0:0:
192,160,131683,1,2,0:0:0:0:
128,224,131833,1,0,0:0:0:0:
288,224,131983,1,2,0:0:0:0:
320,192,132133,1,0,0:0:0:0:
160,192,132283,1,2,0:0:0:0:
192,192,132583,1,0,0:0:0:0:
96,192,132733,1,2,0:0:0:0:
256,128,132883,1,0,0:0:0:0:
224,160,133033,1,0,0:0:0:0:
160,192,133108,1,0,0:0:0:0:
224,192,133183,1,2,0:0:0:0:
320,288,133333,1,0,0:0:0:0:
160,192,133483,1,2,0:0:0:0:
256,192,133633,1,0,0:0:0:0:
320,192,133783,1,2,0:0:0:0:
320,192,133858,1,2,0:0:0:0:
352,192,133933,1,0,0:0:0:0:
192,160,134083,1,6,0:0:0:0:
160,192,134383,1,2,0:0:0:0:
160,160,134533,1,2,0:0:0:0:
160,224,134683,1,0,0:0:0:0:
224,224,134833,1,2,0:0:0:0:
256,224,134908,1,2,0:0:0:0:
32,192,134983,1,0,0:0:0:0:
160,192,135133,1,2,0:0:0:0:
160,224,135283,1,0,0:0:0:0:
128,160,135433,1,0,0:0:0:0:
320,192,135583,1,2,0:0:0:0:
64,160,135733,1,0,0:0:0:0:
104,148,135883,2,0,L|116:144,80,8.75
96,160,137683,5,4,0:0:0:0:
256,160,138583,1,0,0:0:0:0:
224,192,138883,1,2,0:0:0:0:
224,192,139183,1,2,0:0:0:0:
224,192,139483,1,0,0:0:0:0:
128,192,139783,1,0,0:0:0:0:
128,192,140083,1,2,0:0:0:0:
160,32,140383,1,0,0:0:0:0:
256,192,140983,1,2,0:0:0:0:
224,192,141283,1,2,0:0:0:0:
192,192,142183,1,0,0:0:0:0:
192,192,142483,1,2,0:0:0:0:
192,192,142783,1,2,0:0:0:0:
192,192,143083,1,2,0:0:0:0:
96,160,144883,1,2,0:0:0:0:
256,160,145783,1,0,0:0:0:0:
224,192,146083,1,2,0:0:0:0:
224,192,146383,1,2,0:0:0:0:
224,192,146683,1,0,0:0:0:0:
128,192,146983,1,0,0:0:0:0:
128,192,147283,1,2,0:0:0:0:
160,32,147583,1,0,0:0:0:0:
256,192,148183,1,2,0:0:0:0:
224,192,148483,1,2,0:0:0:0:
192,192,149383,1,0,0:0:0:0:
192,192,149683,1,2,0:0:0:0:
192,192,149983,1,2,0:0:0:0:
192,192,150283,1,0,0:0:0:0:
