osu file format v13

[General]
AudioFilename: LeaF Compilation.mp3
AudioLeadIn: 0
PreviewTime: 237924
Countdown: 0
SampleSet: Normal
StackLeniency: 0.3
Mode: 0
LetterboxInBreaks: 1
WidescreenStoryboard: 0

[Editor]
Bookmarks: 1742,57742,67005,113671,121916,162653,173647,229075,237993,303447,311337,355645,364611,425558,436875,497446,511030,582589,591587,680640,694326,759070,768505,805211,812972,884972,893280,953655,961662,1024062,1031860,1113742
DistanceSpacing: 2
BeatDivisor: 4
GridSize: 4
TimelineZoom: 3.999999

[Metadata]
Title:Songs Compilation
TitleUnicode:Songs Compilation
Artist:LeaF
ArtistUnicode:LeaF
Creator:Nya Nya Neko
Version:Marathon
Source:
Tags:DJVinyl baraatje123 Arcanum Guardian Arianrhod Calamity Fortune Doppelganger Evanescent Exclusive Utopia I LeaF式 すーぱー☆しゅれっだー MEPHISTO Musical Movement NANO DEATH!!!!! Death style super shredder not Paraclete 失望Choco Choco 0次元恋愛感情 0 Jigen renai ren ai kanjo Shitsubo
BeatmapID:569167
BeatmapSetID:247202

[Difficulty]
HPDrainRate:4
CircleSize:4
OverallDifficulty:7
ApproachRate:9.5
SliderMultiplier:1.8
SliderTickRate:2

[Events]
//Background and Video events
0,0,"BG.jpg",0,0
//Break Periods
2,17692,21217
2,57942,66480
2,83205,89480
2,113871,121391
2,162853,173122
2,232132,237740
2,303647,310812
2,318690,361560
2,427969,438638
2,497553,507232
2,584949,693801
2,759270,766569
2,806823,812447
2,885170,960837
2,1024262,1031335
2,1066765,1069923
//Storyboard Layer 0 (Background)
//Storyboard Layer 1 (Fail)
//Storyboard Layer 2 (Pass)
//Storyboard Layer 3 (Foreground)
//Storyboard Sound Samples
Sample,213647,0,"soft-hitfinish.wav",70
Sample,214218,0,"soft-hitfinish.wav",70
Sample,214789,0,"soft-hitfinish.wav",70
Sample,215361,0,"soft-hitfinish.wav",70
Sample,215932,0,"soft-hitfinish.wav",70
Sample,216504,0,"soft-hitfinish.wav",70
Sample,217075,0,"soft-hitfinish.wav",70
Sample,217647,0,"soft-hitfinish.wav",70
Sample,218218,0,"soft-hitfinish.wav",70
Sample,218789,0,"soft-hitfinish.wav",70
Sample,219361,0,"soft-hitfinish.wav",70
Sample,219932,0,"soft-hitfinish.wav",70
Sample,220504,0,"soft-hitfinish.wav",70
Sample,221075,0,"soft-hitfinish.wav",70
Sample,368506,0,"normal-hitclap.wav",70
Sample,368611,0,"normal-hitclap.wav",70
Sample,368821,0,"normal-hitclap.wav",70
Sample,368927,0,"normal-hitclap.wav",70
Sample,370137,0,"normal-hitclap.wav",70
Sample,1046918,0,"normal-hitclap.wav",70
Sample,1053507,0,"normal-hitclap.wav",70

[TimingPoints]
1742,250,4,1,1,60,1,0
15242,-90.9090909090909,4,1,1,60,0,0
15742,-100,4,1,1,60,0,0
21742,-83.3333333333333,4,2,1,60,0,0
33742,-100,4,2,1,80,0,0
37242,-200,4,2,1,80,0,0
37742,-100,4,2,1,80,0,0
40742,-66.6666666666667,4,2,1,80,0,0
41742,-100,4,2,1,80,0,0
54492,-200,4,2,1,80,0,0
54742,-100,4,2,1,80,0,0
55242,-200,4,2,1,80,0,0
55742,-100,4,1,1,60,0,0
65672,333.333333333333,4,1,0,60,1,0
72005,-100,4,1,0,50,0,0
72338,-100,4,1,0,60,0,0
73338,-100,4,1,0,50,0,0
73671,-100,4,1,0,60,0,0
74671,-100,4,1,0,50,0,0
75005,-100,4,1,0,70,0,0
76005,-100,4,1,0,60,0,0
76338,-100,4,1,0,70,0,0
77338,-100,4,1,0,60,0,0
77671,-100,4,1,0,80,0,0
78671,-100,4,1,0,70,0,0
79005,-100,4,1,0,80,0,0
80005,-100,4,1,0,70,0,0
80338,-100,4,1,0,60,0,0
81671,-100,4,1,0,50,0,0
90338,-100,4,1,0,55,0,0
90671,-100,4,1,0,60,0,0
91005,-100,4,1,0,50,0,0
91338,-100,4,1,0,40,0,0
91671,-100,4,1,0,30,0,0
92005,-100,4,1,0,20,0,0
92338,-100,4,1,0,60,0,0
108338,-133.333333333333,4,1,0,60,0,0
120653,315.789473684211,4,1,1,60,1,0
121916,-133.333333333333,4,2,1,60,0,0
126653,-200,4,2,1,60,0,0
126968,-133.333333333333,4,2,1,60,0,0
131705,-200,4,2,1,60,0,0
131942,-133.333333333333,4,2,1,60,0,0
137074,-133.333333333333,4,2,1,50,0,0
137153,-133.333333333333,4,2,1,40,0,0
139284,-133.333333333333,4,2,1,80,0,0
140074,-133.333333333333,4,2,1,60,0,0
140389,-133.333333333333,4,2,1,70,0,0
140547,-133.333333333333,4,2,1,80,0,0
140705,-133.333333333333,4,2,1,90,0,0
140863,-200,4,2,1,30,0,0
143389,-133.333333333333,4,2,1,30,0,0
145758,-133.333333333333,4,2,1,50,0,0
146389,-133.333333333333,4,2,1,80,0,0
157600,-200,4,2,1,20,0,0
158389,-166.666666666667,4,2,1,30,0,0
159337,-142.857142857143,4,2,1,40,0,0
159810,-125,4,2,1,50,0,0
160126,-125,4,2,1,60,0,0
160600,-111.111111111111,4,2,1,65,0,0
160916,-100,4,2,1,70,0,0
161231,-90.9090909090909,4,2,1,75,0,0
161863,-83.3333333333333,4,2,1,80,0,0
162179,-76.9230769230769,4,2,1,85,0,0
162495,-71.4285714285714,4,2,1,90,0,0
162653,-133.333333333333,4,2,1,80,0,0
173647,285.714285714286,4,1,1,60,1,0
182789,-66.6666666666667,4,2,1,60,0,0
191932,-66.6666666666667,4,1,1,60,0,0
193075,-66.6666666666667,4,2,1,60,0,0
194218,-66.6666666666667,4,1,1,60,0,0
195361,-66.6666666666667,4,2,1,60,0,0
196504,-66.6666666666667,4,1,1,60,0,0
197647,-66.6666666666667,4,2,1,60,0,0
198789,-66.6666666666667,4,1,1,60,0,0
199932,-66.6666666666667,4,2,0,60,0,0
204504,-100,4,1,1,60,0,0
225075,-100,4,2,1,60,0,1
229075,-100,4,2,1,10,0,0
237993,272.727272727273,4,1,1,60,1,0
239561,-100,4,2,5,60,0,0
240174,-100,4,1,1,60,0,1
240174,-100,4,2,5,60,0,1
248561,-100,4,2,2,60,0,1
248902,-100,4,1,1,60,0,0
248902,-100,4,2,5,60,0,0
252924,-100,4,2,2,60,0,0
253061,-100,4,2,5,60,0,0
257083,-50,4,2,2,60,0,0
257493,-100,4,2,5,60,0,0
285993,-100,4,1,1,60,0,1
285993,-100,4,2,5,60,0,1
303447,-100,4,1,1,60,0,0
303447,-100,4,1,1,60,0,0
307645,461.538461538462,4,1,1,60,1,0
311337,-200,4,1,1,60,0,0
362085,315.789473684211,4,1,1,60,1,0
364611,-200,4,1,1,60,0,0
369032,-100,4,2,1,60,0,0
369663,-100,4,1,1,60,0,1
410400,-200,4,1,1,60,0,1
416242,-90.9090909090909,4,1,1,60,0,1
427769,-100,4,1,1,5,0,0
433449,285.714285714286,4,1,1,60,1,0
436877,-133.333333333333,4,2,1,30,0,0
441377,-66.6666666666667,4,2,1,30,0,0
441591,-133.333333333333,4,2,1,30,0,0
443163,-66.6666666666667,4,2,1,30,0,0
443449,-55.5555555555556,4,2,1,30,0,0
443734,-133.333333333333,4,2,1,30,0,0
444687,-66.6666666666667,4,2,1,30,0,0
444877,-133.333333333333,4,2,1,30,0,0
451829,-66.6666666666667,4,2,1,30,0,0
452663,-50,4,2,1,30,0,0
452877,-66.6666666666667,4,2,1,30,0,0
454877,-133.333333333333,4,2,1,30,0,0
459449,-66.6666666666667,4,2,1,30,0,0
464306,-133.333333333333,4,2,1,30,0,0
468877,-66.6666666666667,4,2,1,30,0,0
478091,-133.333333333333,4,2,1,30,0,0
497163,-55.5555555555556,4,2,1,30,0,0
497449,-100,4,2,1,30,0,0
505576,1090.90909090909,4,2,1,50,1,0
511030,250,4,1,1,50,1,0
512030,-100,4,1,1,50,0,0
513780,1090.90909090909,4,1,1,50,1,0
514052,250,4,1,1,50,1,0
514802,1090.90909090909,4,1,1,50,1,0
515211,250,4,1,1,50,1,0
515586,1090.90909090909,4,1,1,50,1,0
516131,250,4,1,1,50,1,0
518131,1090.90909090909,4,1,1,50,1,0
518403,250,4,1,1,50,1,0
519153,250,4,1,1,50,1,0
525153,-100,4,1,2,50,0,0
525215,-100,4,1,1,50,0,0
527653,260.869565217391,4,1,1,45,1,0
527913,272.727272727273,4,1,1,45,1,0
528185,285.714285714286,4,1,1,45,1,0
528470,300,4,1,1,45,1,0
528770,315.789473684211,4,1,1,45,1,0
529085,333.333333333333,4,1,1,45,1,0
529418,272.727272727273,4,1,1,50,1,0
529963,272.727272727273,4,1,3,50,1,0
529963,-133.333333333333,4,1,3,50,0,0
547418,266.666666666667,7,1,1,50,1,0
554884,260.869565217391,7,1,1,50,1,0
562188,300,4,1,1,50,1,0
563388,285.714285714286,4,1,1,50,1,0
564245,272.727272727273,4,1,1,50,1,0
565335,260.869565217391,4,1,1,50,1,0
566117,250,4,1,1,50,1,0
567117,240,4,1,1,50,1,0
567837,230.769230769231,4,1,1,50,1,0
567837,-200,4,1,1,50,0,0
568760,222.222222222222,4,1,1,50,1,0
568760,-200,4,1,1,50,0,0
569204,-200,4,1,1,80,0,0
569648,214.285714285714,4,1,1,50,1,0
569648,-100,4,1,1,50,0,1
572433,923.076923076923,4,1,1,50,1,0
572894,214.285714285714,4,1,1,50,1,0
572894,-100,4,1,1,50,0,1
575679,923.076923076923,4,1,1,50,1,0
576140,214.285714285714,4,1,1,50,1,0
576140,-100,4,1,1,50,0,1
579354,214.285714285714,4,1,1,50,1,1
582568,1090.90909090909,4,1,1,50,1,0
590956,315.789473684211,4,1,1,60,1,0
644008,-100,4,1,1,60,0,1
664219,-100,4,1,1,60,0,0
666745,-100,4,1,1,60,0,1
674324,-100,4,1,1,60,0,0
687629,279.06976744186,4,1,1,60,1,0
694256,-100,4,2,3,60,0,0
694396,-100,4,1,1,60,0,0
696559,-100,4,2,3,60,0,0
696629,-100,4,1,1,60,0,0
698722,-100,4,2,3,60,0,0
698791,-100,4,1,1,60,0,0
699838,-100,4,2,3,60,0,0
699977,-100,4,1,1,60,0,0
700815,-100,4,2,3,60,0,0
702489,-100,4,1,1,60,0,0
707722,-100,4,1,1,60,0,1
743442,-100,4,1,1,60,0,0
767094,352.941176470588,4,1,1,60,1,0
767094,352.941176470588,4,2,2,60,1,0
768505,-100,4,2,2,60,0,1
768505,-100,4,1,1,60,0,1
772741,-66.6666666666667,4,2,2,60,0,1
774152,-83.3333333333333,4,2,2,60,0,1
778035,-166.666666666667,4,1,4,60,0,1
778388,-83.3333333333333,4,2,2,60,0,1
778741,-166.666666666667,4,1,4,60,0,1
779094,-83.3333333333333,4,2,2,60,0,1
779799,-66.6666666666667,4,2,2,60,0,1
785094,-66.6666666666667,4,2,3,60,0,1
785446,-133.333333333333,4,2,3,60,0,0
793917,-100,4,2,2,60,0,0
795329,-100,4,2,3,60,0,0
796741,-100,4,2,2,60,0,0
797446,-200,4,2,2,60,0,0
797469,-200,4,1,4,60,0,0
798152,-100,4,2,2,60,0,0
798858,-200,4,2,2,60,0,0
798880,-200,4,1,4,60,0,0
799564,-100,4,2,2,60,0,0
800976,-300,4,2,2,60,0,0
801241,-300,4,2,3,60,0,0
801329,-300,4,2,2,60,0,0
801594,-300,4,2,3,60,0,0
801682,-300,4,2,2,60,0,0
802035,-200,4,2,2,60,0,0
803799,-200,4,2,3,60,0,0
812115,214.285714285714,4,1,1,60,1,0
812972,-200,4,1,6,50,0,1
813293,-100,4,1,6,50,0,1
813829,-133.333333333333,4,1,6,50,0,1
814150,-100,4,1,6,50,0,1
814686,-200,4,1,6,50,0,1
815222,-100,4,1,6,50,0,1
815972,857.142857142857,4,1,6,50,1,1
816400,214.285714285714,4,1,6,50,1,1
816507,-100,4,1,6,50,0,1
817685,-200,4,1,6,50,0,1
818114,-100,4,1,6,50,0,1
819078,-200,4,1,6,50,0,1
820364,-100,4,1,6,50,0,1
822828,-200,4,1,6,50,0,1
823042,-133.333333333333,4,1,6,50,0,1
823257,-100,4,1,6,50,0,1
823471,-80,4,1,6,50,0,1
823792,-100,4,1,6,50,0,1
824114,-200,4,1,6,50,0,1
824971,-100,4,1,6,50,0,1
825828,-200,4,1,6,50,0,1
826953,-100,4,2,1,70,0,1
829364,-100,4,1,6,50,0,1
830114,-133.333333333333,4,1,1,30,0,0
830971,-100,4,1,1,30,0,0
831828,-133.333333333333,4,1,1,30,0,0
832257,-100,4,1,1,30,0,0
832685,-133.333333333333,4,1,1,30,0,0
833114,-100,4,1,1,30,0,0
836114,-66.6666666666667,4,1,1,30,0,0
836971,-200,4,2,3,30,0,0
838685,-100,4,1,1,30,0,0
842971,-200,4,1,1,30,0,0
843400,-100,4,1,1,30,0,0
843828,-100,4,1,1,50,0,0
847257,-200,4,1,1,50,0,0
848114,-100,4,1,1,50,0,0
850900,-133.333333333333,4,2,0,80,0,0
856685,-100,4,1,1,50,0,0
859257,-100,4,2,1,80,0,0
859685,-200,4,2,1,80,0,0
860114,-100,4,1,1,50,0,0
861828,-200,4,1,1,50,0,0
862042,-100,4,1,1,50,0,0
862257,-200,4,1,1,50,0,0
863328,-100,4,1,1,50,0,0
863542,-200,4,1,1,50,0,0
863971,-100,4,1,1,50,0,0
864399,-133.333333333333,4,1,1,50,0,0
864828,-200,4,1,1,50,0,0
866114,-100,4,1,1,50,0,0
866971,-200,4,1,1,50,0,0
868257,857.142857142857,4,2,0,70,1,0
868685,214.285714285714,4,2,0,70,1,0
869113,-200,4,1,1,70,0,0
869970,-100,4,1,1,70,0,0
871470,-200,4,1,1,70,0,0
872863,-200,4,1,1,60,0,0
873827,-100,4,1,1,60,0,0
874577,-133.333333333333,4,1,1,50,0,0
874899,-200,4,1,1,50,0,0
875220,-133.333333333333,4,1,1,50,0,0
875542,-100,4,1,1,50,0,0
876399,-200,4,1,1,50,0,0
877577,-100,4,1,1,50,0,0
878006,-200,4,1,1,50,0,0
878970,-100,4,1,1,50,0,0
881756,-200,4,1,1,50,0,0
883042,-100,4,1,1,50,0,0
883256,-200,4,1,1,50,0,0
884327,-200,4,1,1,70,0,0
884381,-200,4,1,1,65,0,0
884435,-200,4,1,1,60,0,0
884488,-200,4,1,1,55,0,0
884542,-200,4,1,1,50,0,0
884595,-200,4,1,1,45,0,0
884649,-200,4,1,1,40,0,0
884702,-200,4,1,1,35,0,0
884756,-200,4,1,1,30,0,0
884810,-200,4,1,1,25,0,0
884863,-200,4,1,1,20,0,0
884917,-200,4,1,1,10,0,0
884970,-200,4,1,1,50,0,0
890280,375,4,1,1,60,1,0
890280,375,4,1,1,60,1,0
893280,-100,4,1,1,60,0,0
927780,-100,4,1,1,60,0,1
939780,-100,4,1,1,60,0,0
959262,300,4,1,1,60,1,0
961362,-200,4,2,2,60,0,0
961662,-100,4,1,5,60,0,0
962862,-100,4,1,5,60,0,1
971862,-200,4,1,5,60,0,1
972462,-100,4,1,5,60,0,0
978762,-120.481927710843,4,1,5,60,0,0
979062,-149.253731343284,4,1,5,60,0,0
979362,-200,4,1,5,60,0,0
979662,-100,4,1,5,60,0,0
986862,-100,4,1,6,60,0,0
1012062,-83.3333333333333,4,1,5,60,0,1
1014162,-166.666666666667,4,1,5,60,0,1
1014462,-83.3333333333333,4,1,5,60,0,1
1016862,-100,4,1,5,60,0,0
1031860,235.294117647059,4,1,1,60,1,0
1073271,-83.3333333333333,4,1,1,60,0,0
1073448,-71.4285714285714,4,1,1,60,0,0
1073683,-62.5,4,1,1,60,0,0
1073918,-55.5555555555556,4,1,1,60,0,0
1074154,-100,4,1,1,60,0,0
1082683,-83.3333333333333,4,1,1,60,0,1
1098683,-100,4,1,1,60,0,0

[Colours]
Combo1 : 0,128,128
Combo2 : 192,192,192
Combo3 : 128,128,128
Combo4 : 0,103,206

[HitObjects]
192,55,1742,6,0,P|174:95|188:137,1,90
320,55,1992,2,0,P|337:95|323:137,1,90,8|0,0:0|0:0,0:0:0:0:
256,97,2242,2,0,B|256:193|256:193|235:233|253:274,1,180,0|8,0:0|0:0,0:0:0:0:
323,235,2617,1,0,0:0:0:0:
334,138,2742,6,0,B|334:66|334:66|319:55,1,90
192,55,2992,2,0,B|178:66|178:66|178:138,1,90,8|0,0:0|0:0,0:0:0:0:
171,218,3242,2,0,B|200:219|234:209|257:159|257:159|271:204|308:215|335:222,1,180,0|8,0:0|0:0,0:0:0:0:
419,273,3617,1,0,0:0:0:0:
300,210,3742,6,0,P|344:217|387:195,1,90
488,107,3992,1,8,0:0:0:0:
384,198,4117,1,0,0:0:0:0:
488,108,4242,2,0,B|460:117|434:113|414:92|414:92|400:113|400:113|366:83|326:84|316:95,2,180,0|8|0,0:0|0:0|0:0,0:0:0:0:
384,198,4867,5,0,0:0:0:0:
419,273,4992,1,8,0:0:0:0:
301,210,5117,1,0,0:0:0:0:
269,134,5242,2,0,P|222:207|263:283,1,180,0|8,0:0|0:0,0:0:0:0:
301,210,5617,1,0,0:0:0:0:
332,89,5742,5,0,0:0:0:0:
384,198,5867,1,0,0:0:0:0:
269,134,5992,2,0,P|256:92|266:49,2,90,8|0|0,0:0|0:0|0:0,0:0:0:0:
101,154,6492,2,0,B|136:138|175:156|175:156|227:177|272:132,2,180,8|0|8,0:0|0:0|0:0,0:0:0:0:
208,87,7117,5,0,0:0:0:0:
139,218,7242,2,0,P|54:213|28:132,1,180,0|8,0:0|0:0,0:0:0:0:
208,87,7742,5,0,0:0:0:0:
208,87,7804,1,0,0:0:0:0:
208,87,7867,1,0,0:0:0:0:
28,133,7992,1,8,0:0:0:0:
28,133,8054,1,0,0:0:0:0:
28,133,8117,1,0,0:0:0:0:
169,152,8242,2,0,P|253:146|279:65,1,180,0|8,0:0|0:0,0:0:0:0:
254,384,8742,5,0,0:0:0:0:
267,341,8867,1,0,0:0:0:0:
260,297,8992,1,8,0:0:0:0:
248,254,9117,1,0,0:0:0:0:
255,210,9242,1,4,0:0:0:0:
341,94,9492,1,8,0:0:0:0:
255,210,9617,2,0,L|285:172,1,45
347,251,9742,6,0,P|381:171|341:94,1,180,8|0,0:3|0:0,0:0:0:0:
170,94,10242,2,0,P|130:171|164:251,1,180,0|0,0:0|0:0,0:0:0:0:
255,182,10617,1,0,0:0:0:0:
255,196,10679,1,0,0:0:0:0:
254,210,10742,6,0,P|265:297|336:350,1,180,8|0,0:3|0:0,0:0:0:0:
348,251,11117,1,0,0:0:0:0:
359,153,11242,2,0,P|429:205|440:292,1,180,0|0,0:0|0:0,0:0:0:0:
359,153,11617,1,0,0:0:0:0:
359,153,11679,1,0,0:0:0:0:
359,153,11742,6,0,P|340:112|304:85,1,90,8|0,0:3|0:0,0:0:0:0:
281,160,12242,1,0,0:0:0:0:
236,262,12367,1,0,0:0:0:0:
348,251,12492,1,0,0:0:0:0:
428,205,12617,2,0,B|430:205|420:174|359:153|359:153|357:132|337:97|305:86,1,180
207,86,12992,2,0,B|175:97|155:132|153:153|153:153|92:174|83:205,2,180,0|0|0,0:0|0:0|0:0,0:0:0:0:
11,198,13742,6,0,P|18:241|52:270,1,90
47,360,13992,2,0,P|90:352|125:324,1,90,8|0,0:0|0:0,0:0:0:0:
52,269,14242,2,0,P|132:236|210:275,1,180,0|8,0:0|0:0,0:0:0:0:
364,92,14617,2,0,P|295:144|290:232,1,180
365,181,14992,5,8,0:0:0:0:
131,316,15117,1,0,0:0:0:0:
290,231,15242,2,0,P|194:243|131:316,2,198.000006042481,0|8|0,0:0|0:0|0:0,0:0:0:0:
241,327,15867,5,0,0:0:0:0:
365,180,15992,2,0,P|282:146|193:155,1,180,8|0,0:0|0:0,0:0:0:0:
241,327,16367,1,0,0:0:0:0:
290,231,16492,1,8,0:0:0:0:
194,155,16617,2,0,P|108:150|78:71,1,180
152,89,16992,5,8,0:0:0:0:
195,79,17054,1,0,0:0:0:0:
237,93,17117,1,0,0:0:0:0:
264,128,17179,1,0,0:0:0:0:
265,173,17242,1,0,0:0:0:0:
243,212,17304,1,0,0:0:0:0:
217,248,17367,1,0,0:0:0:0:
214,292,17429,1,0,0:0:0:0:
241,327,17492,1,8,0:0:0:0:
109,119,21742,6,0,B|154:119|154:119|143:171|161:210|219:227,1,161.999995056153,0|0,1:0|0:0,0:0:0:0:
276,216,21992,2,0,P|243:286|166:296,1,161.999995056153,0|0,1:0|0:0,0:0:0:0:
154,120,22242,2,0,B|109:120|109:120|120:68|102:29|44:12,1,161.999995056153,0|0,1:0|0:0,0:0:0:0:
31,94,22492,2,0,L|8:145,3,53.9999983520508,2|2|2|2,0:0|0:0|0:0|0:0,0:0:0:0:
88,268,22742,6,0,L|154:120,1,161.999995056153,0|0,1:0|0:0,0:0:0:0:
276,216,22992,2,0,L|209:363,1,161.999995056153,0|0,1:0|0:0,0:0:0:0:
247,76,23242,2,0,B|231:114|200:128|154:119|154:119|132:169,1,161.999995056153,0|0,1:0|0:0,0:0:0:0:
88,268,23492,2,0,L|62:326,3,53.9999983520508,2|2|2|2,0:0|0:0|0:0|0:0,0:0:0:0:
154,120,23742,6,0,B|200:124|228:118|247:75|247:75|298:75,1,161.999995056153,0|0,1:0|0:0,0:0:0:0:
418,171,23992,2,0,B|372:167|344:173|325:216|325:216|274:216,1,161.999995056153,0|0,1:0|0:0,0:0:0:0:
296,74,24242,2,0,P|253:140|275:216,1,161.999995056153,0|0,1:0|0:0,0:0:0:0:
327,279,24492,2,0,L|364:317,3,53.9999983520508,2|2|2|2,0:0|0:0|0:0|0:0,0:0:0:0:
154,120,24742,6,0,P|233:122|296:74,1,161.999995056153,0|0,1:0|0:0,0:0:0:0:
418,171,24992,2,0,P|338:173|275:125,1,161.999995056153,0|0,1:0|0:0,0:0:0:0:
236,195,25242,2,0,P|182:201|130:188,1,107.999996704102,0|0,1:0|0:0,0:0:0:0:
296,74,25492,2,0,L|330:32,3,53.9999983520508,2|2|2|2,0:0|0:0|0:0|0:0,0:0:0:0:
179,199,25742,6,0,P|104:174|53:112,1,161.999995056153,0|0,1:0|0:0,0:0:0:0:
123,30,25992,2,0,P|198:55|249:117,1,161.999995056153,0|0,1:0|0:0,0:0:0:0:
120,185,26242,2,0,B|146:195|164:200|180:199|180:199|230:242|219:298|168:317,1,161.999995056153,0|0,1:0|0:0,0:0:0:0:
148,346,26492,2,0,L|101:374,3,53.9999983520508,2|2|2|2,0:0|0:0|0:0|0:0,0:0:0:0:
205,287,26742,6,0,B|238:239|238:239|276:223|276:223|309:169,1,161.999995056153,0|0,1:0|0:0,0:0:0:0:
390,169,26992,2,0,B|362:225|362:225|369:265|369:265|345:319,1,161.999995056153,0|0,1:0|0:0,0:0:0:0:
281,214,27242,2,0,B|309:170|309:170|301:101|301:101|328:57,1,161.999995056153,0|0,1:0|0:0,0:0:0:0:
390,169,27492,2,0,L|364:224,3,53.9999983520508,2|2|2|2,0:0|0:0|0:0|0:0,0:0:0:0:
281,214,27742,5,0,1:0:0:0:
178,74,27992,1,2,0:0:0:0:
178,182,28242,1,0,1:0:0:0:
281,41,28492,1,2,0:0:0:0:
344,128,28617,1,0,0:0:0:0:
408,214,28742,5,0,1:0:0:0:
322,278,28992,1,2,1:2:0:0:
258,192,29242,1,2,0:0:0:0:
279,176,29304,1,2,0:0:0:0:
301,160,29367,1,2,0:0:0:0:
323,144,29429,1,2,0:0:0:0:
344,128,29492,1,2,0:0:0:0:
329,106,29554,1,2,0:0:0:0:
313,84,29617,1,2,0:0:0:0:
297,62,29679,1,2,0:0:0:0:
256,192,29742,12,2,33742,0:0:0:0:
100,88,33867,5,0,0:0:0:0:
412,88,34117,1,2,0:0:0:0:
425,176,34242,2,0,P|345:142|328:57,2,180,0|2|2,0:0|0:0|0:0,0:0:0:0:
254,238,34867,5,2,0:0:0:0:
100,88,35117,1,2,0:0:0:0:
86,176,35242,2,0,P|166:142|183:57,2,180,0|2|2,0:0|0:0|0:0,0:0:0:0:
254,238,35867,5,2,0:0:0:0:
254,238,36117,1,2,0:0:0:0:
179,287,36242,2,0,P|256:325|331:283,2,180,0|2|2,0:0|0:0|0:0,0:0:0:0:
179,287,36992,5,0,0:0:0:0:
179,287,37242,2,0,B|99:210|99:303|11:230,1,180,2|2,0:0|0:0,0:0:0:0:
82,173,37867,5,2,0:0:0:0:
82,173,38117,1,2,0:0:0:0:
54,87,38242,2,0,P|-3:151|17:235,2,180,2|0|2,0:0|0:0|0:0,0:0:0:0:
82,173,38867,5,2,0:0:0:0:
442,173,39117,1,2,0:0:0:0:
413,87,39242,2,0,P|354:150|375:234,2,180,2|0|2,0:0|0:0|0:0,0:0:0:0:
333,44,39867,5,2,0:0:0:0:
179,340,40117,1,2,0:0:0:0:
291,266,40242,2,0,P|265:181|284:94,1,180,2|0,0:0|0:0,0:0:0:0:
149,95,40742,6,0,L|103:144,6,67.5000025749208,2|0|0|0|2|0|0,0:0|0:0|0:0|0:0|0:0|0:0|0:0,0:0:0:0:
363,95,41242,2,0,L|409:144,6,67.5000025749208,2|0|0|0|2|0|0,0:0|0:0|0:0|0:0|0:0|0:0|0:0,0:0:0:0:
451,83,41742,6,0,P|482:141|456:201,1,135,2|0,0:0|0:0,0:0:0:0:
363,95,41992,1,0,0:0:0:0:
285,86,42117,2,0,P|341:21|422:46,1,180,2|0,0:0|0:0,0:0:0:0:
457,202,42492,1,2,0:0:0:0:
226,86,42742,6,0,P|191:30|126:22,1,135,2|0,0:0|0:0,0:0:0:0:
149,95,42992,1,0,0:0:0:0:
60,83,43117,2,0,P|31:164|94:221,1,180,2|0,0:0|0:0,0:0:0:0:
94,221,43492,1,2,0:0:0:0:
457,202,43742,6,0,B|411:202|411:202|375:178|375:178|329:178,1,135,2|0,0:0|0:0,0:0:0:0:
238,178,43992,1,0,0:0:0:0:
355,76,44117,2,0,B|299:147|299:147|329:178|329:178|375:178,1,180,2|0,0:0|0:0,0:0:0:0:
457,202,44492,1,2,0:0:0:0:
238,178,44742,6,0,B|192:178|192:178|156:202|156:202|110:202,1,135,2|0,0:0|0:0,0:0:0:0:
90,113,44992,2,0,B|135:113|135:113|171:89|171:89|217:89,1,135,2|0,0:0|0:0,0:0:0:0:
308,89,45242,2,0,L|352:89,4,45,2|0|0|0|0,0:0|0:0|0:0|0:0|0:0,0:0:0:0:
380,184,45742,6,0,B|374:222|389:244|401:259|401:259|361:266|347:303|340:321,1,135,2|0,0:0|0:0,0:0:0:0:
356,287,45992,1,0,0:0:0:0:
417,337,46117,2,0,B|374:379|320:369|294:332|294:332|251:332,1,180,2|0,0:0|0:0,0:0:0:0:
255,332,46492,1,2,0:0:0:0:
255,332,46742,6,0,P|192:314|167:254,1,135,2|0,0:0|0:0,0:0:0:0:
248,251,46992,1,0,0:0:0:0:
239,171,47117,2,0,P|301:188|327:249,1,135,2|0,0:0|0:0,0:0:0:0:
248,251,47367,1,0,0:0:0:0:
248,251,47492,1,2,0:0:0:0:
239,171,47742,6,0,P|176:153|151:93,1,135,2|0,0:0|0:0,0:0:0:0:
114,160,47992,1,0,0:0:0:0:
68,237,48117,2,0,P|30:160|69:82,1,180,2|0,0:0|0:0,0:0:0:0:
151,93,48492,1,2,0:0:0:0:
151,93,48742,5,2,0:0:0:0:
150,93,48992,1,2,0:0:0:0:
172,87,49054,1,0,0:0:0:0:
194,91,49117,1,0,0:0:0:0:
211,105,49179,1,0,0:0:0:0:
221,125,49242,1,2,0:0:0:0:
221,215,49367,1,0,0:0:0:0:
221,304,49492,1,2,0:0:0:0:
231,324,49555,1,0,0:0:0:0:
248,338,49617,1,0,0:0:0:0:
270,343,49680,1,0,0:0:0:0:
292,337,49742,6,0,L|418:289,1,135,2|0,0:0|0:0,0:0:0:0:
422,198,49992,2,0,L|295:245,1,135,2|0,0:0|0:0,0:0:0:0:
307,155,50242,1,2,0:0:0:0:
307,155,50492,2,0,L|306:90,3,45,2|0|0|0,0:0|0:0|0:0|0:0,0:0:0:0:
307,155,50742,6,0,P|284:214|220:215,1,135,2|0,0:0|0:0,0:0:0:0:
139,172,50992,2,0,P|129:215|140:258,1,90,2|0,0:0|0:0,0:0:0:0:
190,334,51179,1,2,0:0:0:0:
190,334,51492,2,0,L|246:334,3,45,2|0|0|0,0:0|0:0|0:0|0:0,0:0:0:0:
325,329,51742,6,0,P|298:268|237:243,1,135,2|0,0:0|0:0,0:0:0:0:
230,166,51992,2,0,P|185:185|164:220,2,90,2|0|2,0:0|0:0|0:0,0:0:0:0:
238,243,52367,1,0,0:0:0:0:
230,166,52492,2,0,P|275:147|296:112,1,90,2|2,0:0|0:0,0:0:0:0:
225,90,52867,5,2,0:0:0:0:
238,243,52992,1,2,0:0:0:0:
238,243,53242,1,2,0:0:0:0:
238,243,53492,2,0,L|240:272,4,22.5,2|0|0|0|0,0:0|0:0|0:0|0:0|0:0,0:0:0:0:
225,90,53742,5,2,0:0:0:0:
377,105,53867,1,0,0:0:0:0:
197,112,53992,1,2,0:0:0:0:
197,112,54242,1,2,0:0:0:0:
197,112,54492,2,0,L|150:117,1,45
81,174,54742,6,0,P|61:111|89:51,1,135,2|0,0:0|0:0,0:0:0:0:
152,117,54992,2,0,P|171:179|143:239,1,135,2|0,0:0|0:0,0:0:0:0:
83,287,55242,2,0,L|46:312,2,45,0|0|0,0:0|0:0|0:0,0:0:0:0:
152,117,55742,6,0,B|243:101|243:101|317:118,1,135,12|0,0:0|0:0,0:0:0:0:
400,180,56117,1,8,0:0:0:0:
454,251,56242,2,0,P|487:194|469:131,1,135,8|0,0:0|0:0,0:0:0:0:
400,180,56492,1,0,0:0:0:0:
284,110,56679,6,0,B|243:101|243:101|152:117,1,135,8|0,0:0|0:0,0:0:0:0:
107,127,56929,1,0,0:0:0:0:
107,127,56992,1,8,0:0:0:0:
107,127,57117,1,0,0:0:0:0:
285,110,57242,2,0,L|303:123,4,22.5,2|0|0|0|0,0:0|0:0|0:0|0:0|0:0,0:0:0:0:
234,184,57492,2,0,L|215:197,4,22.5,2|0|0|0|0,0:0|0:0|0:0|0:0|0:0,0:0:0:0:
285,110,57742,5,4,0:0:0:0:
83,119,67005,6,0,L|106:157,1,45
197,154,67172,2,0,L|173:115,1,45
228,44,67338,2,0,L|251:82,1,45
340,63,67505,2,0,L|341:107,1,45
427,135,67672,2,0,L|405:174,1,45
459,245,67838,2,0,L|420:268,1,45
402,270,68005,5,2,2:0:0:0:
384,268,68088,1,2,2:0:0:0:
367,263,68171,1,2,2:0:0:0:
351,254,68255,1,2,2:0:0:0:
337,243,68338,6,0,L|292:201,1,45
197,154,68505,2,0,L|138:171,1,45
228,44,68672,2,0,L|260:74,1,45
340,63,68838,2,0,L|398:45,1,45
187,133,69005,2,0,L|126:136,1,45
349,83,69172,2,0,L|410:80,1,45
412,82,69338,5,2,2:0:0:0:
429,87,69421,1,2,2:0:0:0:
444,96,69504,1,2,2:0:0:0:
457,109,69588,1,2,2:0:0:0:
466,124,69672,6,0,L|492:160,1,45
369,261,69838,2,0,L|343:298,1,45
245,160,70005,2,0,L|219:124,1,45
122,261,70171,2,0,L|96:298,1,45
48,220,70338,2,0,L|3:215,1,45
51,138,70505,2,0,L|32:96,1,45
25,80,70671,5,2,2:0:0:0:
24,62,70754,1,2,2:0:0:0:
30,45,70837,1,2,2:0:0:0:
41,31,70921,1,2,2:0:0:0:
57,22,71005,6,0,L|101:13,1,45
307,22,71172,2,0,L|263:14,1,45
51,138,71338,2,0,L|95:129,1,45
300,138,71505,2,0,L|255:129,1,45
51,247,71672,2,0,L|85:218,1,45
280,247,71838,2,0,L|247:218,1,45
222,207,72005,5,2,0:2:0:0:
195,208,72088,1,2,0:2:0:0:
172,221,72171,1,2,0:2:0:0:
156,242,72255,1,2,0:2:0:0:
151,268,72338,6,0,L|139:311,1,45
198,93,72505,2,0,L|209:49,1,45
129,258,72672,2,0,L|106:297,1,45
219,102,72839,2,0,L|242:63,1,45
110,244,73005,2,0,L|78:276,1,45,0|0,0:0|0:0,3:0:0:0:
238,116,73172,2,0,L|270:84,1,45,0|0,0:0|0:0,3:0:0:0:
291,75,73338,5,2,0:2:0:0:
317,78,73421,1,2,0:2:0:0:
341,91,73504,1,2,0:2:0:0:
358,112,73588,1,2,0:2:0:0:
366,137,73671,6,0,L|379:180,1,45
385,324,73838,2,0,L|371:280,1,45
289,162,74005,2,0,L|302:205,1,45
308,349,74172,2,0,L|294:305,1,45
210,190,74338,2,0,L|223:233,1,45
229,377,74505,2,0,L|215:333,1,45
199,302,74671,5,2,0:2:0:0:
171,279,74754,1,2,0:2:0:0:
137,268,74837,1,2,0:2:0:0:
101,271,74921,1,2,0:2:0:0:
70,288,75005,6,0,L|49:248,1,45
11,167,75171,2,0,L|35:129,1,45,0|0,0:0|0:0,0:0:0:0:
103,69,75338,2,0,L|147:71,1,45,0|0,0:0|0:0,0:0:0:0:
238,60,75505,2,0,L|262:22,1,45,0|0,0:0|0:0,0:0:0:0:
331,79,75671,2,0,L|306:116,1,45,0|0,0:0|0:0,0:0:0:0:
328,205,75838,2,0,L|348:244,1,45
375,268,76004,5,2,0:2:0:0:
410,274,76087,1,2,0:2:0:0:
443,260,76170,1,2,0:2:0:0:
464,232,76254,1,2,0:2:0:0:
467,194,76338,6,0,L|441:158,1,45
376,269,76504,2,0,L|350:306,1,45
328,205,76671,2,0,L|302:169,1,45
210,169,76838,2,0,L|184:205,1,45,0|0,0:0|0:0,0:0:0:0:
162,306,77005,2,0,L|136:269,1,45
71,158,77171,2,0,L|45:194,1,45
31,227,77338,5,2,0:2:0:0:
25,263,77421,1,2,0:2:0:0:
29,298,77504,1,2,0:2:0:0:
41,332,77588,1,2,0:2:0:0:
61,362,77671,6,0,L|87:326,1,45
210,169,77838,2,0,L|184:205,1,45,0|0,0:0|0:0,0:0:0:0:
332,325,78005,2,0,L|306:289,1,45
183,132,78172,2,0,L|209:168,1,45,0|0,0:0|0:0,0:0:0:0:
332,325,78338,2,0,L|358:289,1,45,0|0,0:0|0:0,0:0:0:0:
481,132,78505,2,0,L|455:168,1,45,0|0,0:0|0:0,0:0:0:0:
419,194,78671,5,2,0:2:0:0:
375,187,78754,1,2,0:2:0:0:
350,151,78837,1,2,0:2:0:0:
358,108,78921,1,2,0:2:0:0:
394,83,79005,6,0,L|420:47,1,45,0|0,0:0|0:0,0:0:0:0:
351,151,79171,2,0,L|325:187,1,45,0|0,0:0|0:0,0:0:0:0:
252,235,79338,2,0,L|226:199,1,45,0|0,0:0|0:0,0:0:0:0:
157,95,79504,2,0,L|183:131,1,45,0|0,0:0|0:0,0:0:0:0:
279,272,79671,2,0,L|253:236,1,45,0|0,0:0|0:0,0:0:0:0:
348,376,79837,2,0,L|322:340,1,45,0|0,0:0|0:0,0:0:0:0:
278,351,80004,5,2,0:2:0:0:
236,338,80087,1,2,0:2:0:0:
207,304,80170,1,2,0:2:0:0:
201,260,80254,1,2,0:2:0:0:
220,220,80338,6,0,L|246:245,1,22.5
230,209,80421,2,0,L|256:234,1,22.5,0|0,0:0|0:0,0:0:0:0:
239,197,80505,2,0,L|265:222,1,22.5
250,185,80588,2,0,L|276:210,1,22.5,0|0,0:0|0:0,0:0:0:0:
258,175,80671,2,0,L|284:200,1,22.5
269,162,80754,2,0,L|295:187,1,22.5,0|0,0:0|0:0,0:0:0:0:
280,150,80838,2,0,L|306:175,1,22.5
291,137,80921,2,0,L|317:162,1,22.5,0|0,0:0|0:0,0:0:0:0:
299,126,81005,2,0,L|325:151,1,22.5
310,114,81088,2,0,L|336:139,1,22.5,0|0,0:0|0:0,0:0:0:0:
318,104,81171,2,0,L|344:129,1,22.5
329,92,81254,2,0,L|355:117,1,22.5,0|0,0:0|0:0,0:0:0:0:
338,80,81338,2,0,L|364:105,1,22.5
349,68,81421,2,0,L|375:93,1,22.5,0|0,0:0|0:0,0:0:0:0:
353,57,81505,2,0,L|379:82,1,22.5
365,45,81588,2,0,L|391:70,1,22.5,0|0,0:0|0:0,0:0:0:0:
374,34,81671,6,0,L|389:45,61,11.25,0|0|0|0|0|0|0|0|0|0|0|0|0|0|0|0|0|0|0|0|0|0|0|0|0|0|0|0|0|0|0|0|0|0|0|0|0|0|0|0|0|0|0|0|0|0|0|0|0|0|0|0|0|0|0|0|0|0|0|0|0|0,0:0|0:0|0:0|0:0|0:0|0:0|0:0|0:0|0:0|0:0|0:0|0:0|0:0|0:0|0:0|0:0|0:0|0:0|0:0|0:0|0:0|0:0|0:0|0:0|0:0|0:0|0:0|0:0|0:0|0:0|0:0|0:0|0:0|0:0|0:0|0:0|0:0|0:0|0:0|0:0|0:0|0:0|0:0|0:0|0:0|0:0|0:0|0:0|0:0|0:0|0:0|0:0|0:0|0:0|0:0|0:0|0:0|0:0|0:0|0:0|0:0|0:0,0:0:0:0:
374,34,83005,5,4,0:0:0:0:
184,128,90005,6,0,L|224:176,27,45,0|0|0|0|0|0|0|0|0|0|0|0|0|0|0|0|0|0|0|0|0|0|0|0|0|0|0|0,0:0|0:0|0:0|0:0|0:0|0:0|0:0|0:0|0:0|0:0|0:0|0:0|0:0|0:0|0:0|0:0|0:0|0:0|0:0|0:0|0:0|0:0|0:0|0:0|0:0|0:0|0:0|0:0,0:0:0:0:
226,179,92338,5,0,0:0:0:0:
242,193,92421,1,0,0:0:0:0:
261,206,92504,1,0,0:0:0:0:
282,215,92587,1,0,0:0:0:0:
303,221,92671,1,0,0:0:0:0:
326,224,92754,1,0,0:0:0:0:
348,223,92837,1,0,0:0:0:0:
370,219,92921,1,0,0:0:0:0:
391,212,93004,1,0,0:0:0:0:
411,202,93087,1,0,0:0:0:0:
430,189,93171,1,0,0:0:0:0:
446,173,93254,1,0,0:0:0:0:
459,155,93337,1,0,0:0:0:0:
470,135,93421,1,0,0:0:0:0:
477,114,93504,1,0,0:0:0:0:
396,122,93671,5,0,0:0:0:0:
381,139,93754,1,0,0:0:0:0:
362,151,93837,1,0,0:0:0:0:
340,156,93920,1,0,0:0:0:0:
318,155,94004,1,0,0:0:0:0:
297,147,94087,1,0,0:0:0:0:
279,133,94170,1,0,0:0:0:0:
267,115,94254,1,0,0:0:0:0:
260,94,94337,1,0,0:0:0:0:
261,71,94420,1,0,0:0:0:0:
268,50,94504,1,0,0:0:0:0:
281,32,94587,1,0,0:0:0:0:
299,18,94670,1,0,0:0:0:0:
320,11,94754,1,0,0:0:0:0:
342,11,94837,1,0,0:0:0:0:
335,85,95005,5,0,0:0:0:0:
322,103,95088,1,0,0:0:0:0:
305,118,95171,1,0,0:0:0:0:
285,128,95254,1,0,0:0:0:0:
263,133,95338,1,0,0:0:0:0:
241,132,95421,1,0,0:0:0:0:
220,125,95504,1,0,0:0:0:0:
201,112,95588,1,0,0:0:0:0:
189,94,95671,1,0,0:0:0:0:
177,74,95754,1,0,0:0:0:0:
163,57,95838,1,0,0:0:0:0:
144,44,95921,1,0,0:0:0:0:
123,38,96004,1,0,0:0:0:0:
100,38,96088,1,0,0:0:0:0:
78,43,96171,1,0,0:0:0:0:
111,116,96338,5,0,0:0:0:0:
122,135,96421,1,0,0:0:0:0:
136,152,96504,1,0,0:0:0:0:
152,168,96587,1,0,0:0:0:0:
170,181,96671,1,0,0:0:0:0:
190,192,96754,1,0,0:0:0:0:
211,200,96837,1,0,0:0:0:0:
233,205,96921,1,0,0:0:0:0:
255,206,97004,1,0,0:0:0:0:
278,204,97087,1,0,0:0:0:0:
300,199,97171,1,0,0:0:0:0:
320,190,97254,1,0,0:0:0:0:
340,178,97337,1,0,0:0:0:0:
357,164,97421,1,0,0:0:0:0:
373,149,97504,1,0,0:0:0:0:
407,219,97671,5,0,0:0:0:0:
391,233,97754,1,0,0:0:0:0:
372,246,97837,1,0,0:0:0:0:
353,257,97920,1,0,0:0:0:0:
332,266,98004,1,0,0:0:0:0:
310,273,98087,1,0,0:0:0:0:
288,278,98170,1,0,0:0:0:0:
266,280,98254,1,0,0:0:0:0:
244,280,98337,1,0,0:0:0:0:
221,278,98420,1,0,0:0:0:0:
199,274,98504,1,0,0:0:0:0:
178,267,98587,1,0,0:0:0:0:
157,258,98670,1,0,0:0:0:0:
137,248,98754,1,0,0:0:0:0:
119,235,98837,1,0,0:0:0:0:
184,192,99005,5,0,0:0:0:0:
204,200,99088,1,0,0:0:0:0:
226,206,99171,1,0,0:0:0:0:
248,209,99254,1,0,0:0:0:0:
271,208,99338,1,0,0:0:0:0:
293,204,99421,1,0,0:0:0:0:
314,196,99504,1,0,0:0:0:0:
333,185,99588,1,0,0:0:0:0:
350,170,99671,1,0,0:0:0:0:
363,152,99754,1,0,0:0:0:0:
373,131,99838,1,0,0:0:0:0:
379,110,99921,1,0,0:0:0:0:
384,88,100004,1,0,0:0:0:0:
388,66,100088,1,0,0:0:0:0:
393,44,100171,1,0,0:0:0:0:
315,58,100338,5,0,0:0:0:0:
311,80,100421,1,0,0:0:0:0:
304,101,100504,1,0,0:0:0:0:
292,120,100587,1,0,0:0:0:0:
274,133,100671,1,0,0:0:0:0:
252,137,100754,1,0,0:0:0:0:
229,136,100837,1,0,0:0:0:0:
207,136,100921,1,0,0:0:0:0:
187,146,101004,1,0,0:0:0:0:
170,161,101087,1,0,0:0:0:0:
159,180,101171,1,0,0:0:0:0:
154,202,101254,1,0,0:0:0:0:
156,224,101337,1,0,0:0:0:0:
167,244,101421,1,0,0:0:0:0:
183,260,101504,1,0,0:0:0:0:
113,292,101671,5,0,0:0:0:0:
101,274,101754,1,0,0:0:0:0:
91,254,101837,1,0,0:0:0:0:
85,232,101920,1,0,0:0:0:0:
82,210,102004,1,0,0:0:0:0:
83,187,102087,1,0,0:0:0:0:
87,165,102170,1,0,0:0:0:0:
95,144,102254,1,0,0:0:0:0:
106,124,102337,1,0,0:0:0:0:
120,107,102420,1,0,0:0:0:0:
136,92,102504,1,0,0:0:0:0:
155,79,102587,1,0,0:0:0:0:
175,70,102670,1,0,0:0:0:0:
197,64,102754,1,0,0:0:0:0:
219,61,102837,1,0,0:0:0:0:
196,142,103005,5,0,0:0:0:0:
215,130,103088,1,0,0:0:0:0:
235,121,103171,1,0,0:0:0:0:
258,116,103255,1,0,0:0:0:0:
279,114,103338,1,0,0:0:0:0:
302,115,103421,1,0,0:0:0:0:
325,120,103505,1,0,0:0:0:0:
345,128,103588,1,0,0:0:0:0:
365,140,103671,1,0,0:0:0:0:
381,154,103755,1,0,0:0:0:0:
397,171,103838,1,0,0:0:0:0:
408,190,103921,1,0,0:0:0:0:
417,211,104005,1,0,0:0:0:0:
422,232,104088,1,0,0:0:0:0:
425,255,104171,1,0,0:0:0:0:
495,223,104338,5,0,0:0:0:0:
491,201,104421,1,0,0:0:0:0:
484,180,104504,1,0,0:0:0:0:
475,159,104587,1,0,0:0:0:0:
465,140,104671,1,0,0:0:0:0:
452,121,104754,1,0,0:0:0:0:
437,104,104837,1,0,0:0:0:0:
420,89,104921,1,0,0:0:0:0:
402,75,105004,1,0,0:0:0:0:
383,64,105087,1,0,0:0:0:0:
363,54,105171,1,0,0:0:0:0:
342,47,105254,1,0,0:0:0:0:
320,42,105337,1,0,0:0:0:0:
297,39,105421,1,0,0:0:0:0:
275,38,105504,1,0,0:0:0:0:
247,131,105671,5,0,0:0:0:0:
267,121,105754,1,0,0:0:0:0:
289,116,105837,1,0,0:0:0:0:
311,116,105920,1,0,0:0:0:0:
333,121,106004,1,0,0:0:0:0:
354,129,106087,1,0,0:0:0:0:
372,143,106170,1,0,0:0:0:0:
387,159,106254,1,0,0:0:0:0:
399,178,106337,1,0,0:0:0:0:
406,200,106420,1,0,0:0:0:0:
409,222,106504,1,0,0:0:0:0:
406,244,106587,1,0,0:0:0:0:
400,266,106670,1,0,0:0:0:0:
389,285,106754,1,0,0:0:0:0:
374,302,106837,1,0,0:0:0:0:
246,316,107005,5,0,0:0:0:0:
228,303,107088,1,0,0:0:0:0:
213,286,107171,1,0,0:0:0:0:
202,266,107255,1,0,0:0:0:0:
195,245,107338,1,0,0:0:0:0:
193,223,107421,1,0,0:0:0:0:
196,200,107505,1,0,0:0:0:0:
203,179,107588,1,0,0:0:0:0:
214,160,107671,1,0,0:0:0:0:
229,143,107755,1,0,0:0:0:0:
248,130,107838,1,0,0:0:0:0:
268,121,107921,1,0,0:0:0:0:
290,117,108005,1,0,0:0:0:0:
313,117,108088,1,0,0:0:0:0:
335,122,108171,1,0,0:0:0:0:
416,159,108338,6,0,P|447:169|481:169,2,67.5000025749208,0|0|0,0:0|0:0|0:0,0:0:0:0:
460,90,108838,2,0,L|464:58,2,16.8750006437302,0|0|0,0:0|0:0|0:0,0:0:0:0:
460,90,109005,1,0,0:0:0:0:
416,159,109171,2,0,P|392:134|381:103,1,67.5000025749208
219,103,109671,6,0,P|208:134|184:158,1,67.5000025749208
142,89,110005,1,0,0:0:0:0:
185,159,110171,2,0,L|160:178,2,16.8750006437302,0|0|0,0:0|0:0|0:0,0:0:0:0:
185,159,110338,1,0,0:0:0:0:
336,103,110671,5,0,0:0:0:0:
393,159,110838,2,0,L|415:181,2,16.8750006437302,0|0|0,0:0|0:0|0:0,0:0:0:0:
393,159,111005,1,0,0:0:0:0:
313,174,111171,6,0,P|284:159|266:130,1,67.5000025749208
234,206,111505,2,0,P|216:234|186:250,1,67.5000025749208
124,100,112005,1,0,0:0:0:0:
68,158,112171,2,0,L|49:175,2,16.8750006437302,0|0|0,0:0|0:0|0:0,0:0:0:0:
124,100,112338,6,0,L|136:88,2,16.8750006437302,0|0|0,0:0|0:0|0:0,0:0:0:0:
160,157,112505,2,0,L|172:145,2,16.8750006437302,0|0|0,0:0|0:0|0:0,0:0:0:0:
198,212,112671,2,0,L|210:200,2,16.8750006437302,0|0|0,0:0|0:0|0:0,0:0:0:0:
240,265,112838,2,0,L|252:253,2,16.8750006437302,0|0|0,0:0|0:0|0:0,0:0:0:0:
240,265,113005,1,0,0:0:0:0:
130,342,113171,1,0,0:0:0:0:
130,342,113255,2,0,L|114:356,8,16.8750006437302,0|0|0|0|0|0|0|0|0,0:0|0:0|0:0|0:0|0:0|0:0|0:0|0:0|0:0,0:0:0:0:
130,342,113671,5,4,0:0:0:0:
126,77,121916,6,0,P|159:79|191:90,1,67.5000025749208
390,125,122231,2,0,P|356:126|324:137,1,67.5000025749208,10|0,0:0|0:0,0:0:0:0:
120,154,122547,2,0,P|88:145|63:123,1,67.5000025749208,2|0,0:0|0:0,0:0:0:0:
265,95,122863,2,0,P|300:69|336:59,1,67.5000025749208,8|2,0:0|0:0,0:0:0:0:
324,348,123179,5,2,0:0:0:0:
203,137,123337,1,2,0:0:0:0:
385,243,123495,1,8,0:0:0:0:
203,348,123653,1,0,0:0:0:0:
325,138,123810,1,0,0:0:0:0:
142,243,123968,1,0,0:0:0:0:
265,95,124126,6,0,P|240:72|208:62,1,67.5000025749208,10|0,0:0|0:0,0:0:0:0:
385,243,124442,2,0,P|409:220|441:210,1,67.5000025749208,2|0,0:0|0:0,0:0:0:0:
142,243,124758,1,8,0:0:0:0:
203,348,124916,1,0,0:0:0:0:
325,138,125074,6,0,P|357:127|391:126,1,67.5000025749208,2|0,0:0|0:0,0:0:0:0:
142,243,125389,2,0,P|110:254|76:255,1,67.5000025749208,10|0,0:0|0:0,0:0:0:0:
385,243,125705,2,0,P|417:254|451:255,2,67.5000025749208,2|0|8,0:0|0:0|0:0,0:0:0:0:
97,180,126179,5,2,0:0:0:0:
97,180,126337,1,2,0:0:0:0:
97,180,126495,1,0,0:0:0:0:
97,180,126574,1,0,0:0:0:0:
97,180,126653,2,0,B|76:128,1,45,8|0,0:0|0:0,0:0:0:0:
360,180,126968,6,0,B|385:242,1,67.5000025749208,0|0,0:0|0:0,0:0:0:0:
190,274,127284,2,0,B|128:247,1,67.5000025749208,10|0,0:0|0:0,0:0:0:0:
244,88,127600,2,0,B|306:62,1,67.5000025749208,2|0,0:0|0:0,0:0:0:0:
191,274,127916,1,8,0:0:0:0:
360,180,128074,1,2,0:0:0:0:
97,180,128231,5,2,0:0:0:0:
360,180,128389,1,2,0:0:0:0:
277,143,128547,2,0,P|253:119|244:88,1,67.5000025749208,8|0,0:0|0:0,0:0:0:0:
191,274,128863,2,0,P|214:297|224:329,1,67.5000025749208
244,89,129179,5,10,0:0:0:0:
378,229,129337,1,0,0:0:0:0:
244,89,129495,2,0,P|234:57|210:33,1,67.5000025749208,2|0,0:0|0:0,0:0:0:0:
191,274,129810,1,8,0:0:0:0:
244,89,129968,1,0,0:0:0:0:
181,138,130126,2,0,P|208:159|241:167,2,67.5000025749208,2|0|10,0:0|0:0|0:0,0:0:0:0:
105,71,130600,1,0,0:0:0:0:
240,167,130758,6,0,P|274:164|300:144,1,67.5000025749208,2|0,0:0|0:0,0:0:0:0:
360,61,131074,1,8,0:0:0:0:
416,144,131231,1,2,0:0:0:0:
416,144,131389,1,2,0:0:0:0:
416,144,131547,1,0,0:0:0:0:
416,177,131626,1,0,0:0:0:0:
416,210,131705,2,0,L|416:255,1,45,8|0,0:0|0:0,0:0:0:0:
416,336,131942,5,0,0:0:0:0:
416,336,132021,1,2,0:0:0:0:
214,156,132258,1,0,0:0:0:0:
201,144,132337,1,10,0:0:0:0:
93,316,132574,1,0,0:0:0:0:
106,304,132653,1,2,0:0:0:0:
131,172,132810,5,0,0:0:0:0:
126,148,132888,1,0,0:0:0:0:
127,125,132967,1,10,0:0:0:0:
136,103,133046,1,0,0:0:0:0:
151,85,133125,1,0,0:0:0:0:
171,73,133204,1,0,0:0:0:0:
194,67,133283,1,0,0:0:0:0:
217,62,133362,1,0,0:0:0:0:
238,52,133441,1,0,0:0:0:0:
256,37,133520,1,0,0:0:0:0:
269,18,133599,5,8,0:0:0:0:
201,144,133758,1,2,0:0:0:0:
275,115,133916,2,0,P|304:96|323:69,1,67.5000025749208
332,50,134153,1,0,0:0:0:0:
340,30,134231,2,0,P|359:93|419:119,1,135.000005149842,10|2,0:0|0:0,0:0:0:0:
419,38,134705,5,0,0:0:0:0:
479,142,134863,2,0,P|445:138|418:118,2,67.5000025749208,8|0|2,0:0|0:0|0:0,0:0:0:0:
471,225,135337,1,0,0:0:0:0:
437,219,135415,1,0,0:0:0:0:
406,207,135494,1,8,0:0:0:0:
377,189,135573,1,0,0:0:0:0:
354,166,135652,1,0,0:0:0:0:
321,174,135731,1,0,0:0:0:0:
288,182,135810,5,2,0:0:0:0:
275,186,136126,1,8,0:0:0:0:
262,190,136442,1,2,0:0:0:0:
249,194,136758,1,8,0:0:0:0:
235,197,137074,1,2,0:0:0:0:
120,126,137705,5,0,0:0:0:0:
235,197,137863,2,0,P|264:212|297:218,2,67.5000025749208,0|0|0,0:0|0:0|0:0,0:0:0:0:
316,88,138337,1,2,0:0:0:0:
316,88,138810,2,0,L|342:55,2,33.7500012874604,2|0|2,0:0|0:0|0:0,0:0:0:0:
125,280,139284,5,10,0:0:0:0:
387,280,139600,1,10,0:0:0:0:
256,53,140074,1,0,0:0:0:0:
256,53,140153,1,0,0:0:0:0:
256,53,140231,1,2,0:0:0:0:
256,331,140389,5,0,0:0:0:0:
387,280,140547,1,0,0:0:0:0:
125,280,140705,1,0,0:0:0:0:
256,53,140863,6,0,B|191:77|191:164|256:193|256:193|321:219|321:296|256:330,2,360,2|0|0,0:0|0:0|0:0,0:0:0:0:
229,259,143547,5,0,0:0:0:0:
281,123,143705,2,0,P|312:137|338:159,1,67.5000025749208
218,184,144021,2,0,P|187:197|161:219,1,67.5000025749208
338,159,144337,1,0,0:0:0:0:
162,219,144495,5,0,0:0:0:0:
162,219,144574,1,0,0:0:0:0:
162,219,144653,2,0,P|136:240|105:254,2,67.5000025749208,0|0|0,0:0|0:0|0:0,0:0:0:0:
337,157,145126,2,0,P|312:136|281:123,1,67.5000025749208,0|0,0:0|0:0,0:0:0:0:
255,243,145442,2,0,P|280:264|311:278,1,67.5000025749208,0|0,0:0|0:0,0:0:0:0:
255,40,145758,5,8,0:0:0:0:
255,39,145916,2,0,P|168:87|73:59,1,202.500007724762,8|0,0:0|0:0,0:0:0:0:
59,44,146468,1,0,0:0:0:0:
43,30,146547,2,0,P|8:88|0:155,2,135.000005149842,2|8|2,0:0|0:0|0:0,0:0:0:0:
259,193,147337,5,0,0:0:0:0:
113,121,147495,1,8,0:0:0:0:
113,121,147574,1,0,0:0:0:0:
113,121,147653,1,0,0:0:0:0:
113,121,147731,1,0,0:0:0:0:
113,120,147810,2,0,P|118:184|177:209,1,135.000005149842,2|8,0:0|0:0,0:0:0:0:
218,202,148205,1,0,0:0:0:0:
258,193,148284,2,0,P|292:187|324:196,1,67.5000025749208,0|2,0:0|0:0,0:0:0:0:
282,325,148600,5,0,0:0:0:0:
113,121,148758,2,0,P|92:94|82:62,1,67.5000025749208,10|0,0:0|0:0,0:0:0:0:
323,195,149074,2,0,P|344:222|354:254,1,67.5000025749208,2|0,0:0|0:0,0:0:0:0:
163,63,149389,1,10,0:0:0:0:
163,63,149705,6,0,P|189:124|159:182,1,135.000005149842,2|8,0:0|0:0,0:0:0:0:
136,206,150099,1,0,0:0:0:0:
128,239,150178,1,0,0:0:0:0:
138,271,150257,1,0,0:0:0:0:
162,294,150337,2,0,P|189:314|222:320,1,67.5000025749208,2|0,0:0|0:0,0:0:0:0:
349,89,150653,2,0,P|322:69|289:63,1,67.5000025749208,10|0,0:0|0:0,0:0:0:0:
248,253,150968,6,0,P|286:284|295:332,1,101.250003862381,2|0,0:0|0:0,0:0:0:0:
397,170,151284,2,0,P|359:137|349:89,1,101.250003862381,10|0,0:0|0:0,0:0:0:0:
179,202,151600,2,0,P|219:171|269:173,1,101.250003862381,2|0,0:0|0:0,0:0:0:0:
444,250,151916,2,0,P|435:201|397:170,1,101.250003862381,10|0,0:0|0:0,0:0:0:0:
180,202,152231,5,2,0:0:0:0:
420,78,152468,1,0,0:0:0:0:
436,66,152547,1,10,0:0:0:0:
180,202,152863,1,2,0:0:0:0:
420,326,153100,1,0,0:0:0:0:
436,338,153179,1,10,0:0:0:0:
200,202,153337,5,0,0:0:0:0:
87,127,153495,2,0,L|137:81,1,67.5000025749208,2|0,0:0|0:0,0:0:0:0:
220,203,153731,1,0,0:0:0:0:
302,326,153810,2,0,P|345:349|393:338,1,101.250003862381,8|0,0:0|0:0,0:0:0:0:
407,135,154126,2,0,P|363:111|315:122,1,101.250003862381,2|0,0:0|0:0,0:0:0:0:
138,81,154442,5,10,0:0:0:0:
120,110,154520,1,0,0:0:0:0:
117,144,154599,1,0,0:0:0:0:
127,175,154678,1,0,0:0:0:0:
150,200,154758,6,0,L|217:263,1,67.5000025749208,2|0,0:0|0:0,0:0:0:0:
362,184,155074,2,0,L|295:121,1,67.5000025749208,8|0,0:0|0:0,0:0:0:0:
98,203,155389,2,0,L|147:250,1,67.5000025749208,2|0,0:0|0:0,0:0:0:0:
413,180,155705,2,0,L|364:133,1,67.5000025749208,8|0,0:0|0:0,0:0:0:0:
23,209,156021,6,0,L|72:255,1,67.5000025749208,2|0,0:0|0:0,0:0:0:0:
488,174,156337,2,0,L|439:128,1,67.5000025749208,8|0,0:0|0:0,0:0:0:0:
72,256,156653,1,2,0:0:0:0:
439,128,156810,1,0,0:0:0:0:
80,107,156968,1,8,0:0:0:0:
431,277,157125,1,2,0:0:0:0:
80,107,157758,5,0,0:0:0:0:
121,87,157916,1,0,0:0:0:0:
160,106,158074,2,0,P|180:118|202:120,1,45
308,101,158389,5,0,0:0:0:0:
350,133,158547,1,0,0:0:0:0:
393,165,158705,1,0,0:0:0:0:
350,197,158863,2,0,P|328:213|316:237,2,53.9999983520508,0|0|0,0:0|0:0|0:0,0:0:0:0:
438,288,159337,5,0,0:0:0:0:
377,304,159495,1,0,0:0:0:0:
315,288,159653,1,0,0:0:0:0:
254,304,159810,1,0,0:0:0:0:
161,193,159968,6,0,L|128:208,2,36,2|0|0,0:0|0:0|0:0,0:0:0:0:
225,157,160284,2,0,P|257:143|293:142,1,72,2|0,0:0|0:0,0:0:0:0:
455,164,160600,1,2,0:0:0:0:
374,151,160758,1,0,0:0:0:0:
394,329,160916,1,2,0:0:0:0:
315,288,161074,1,0,0:0:0:0:
118,302,161231,6,0,L|76:329,2,49.5000015106202,2|0|8,0:0|0:0|0:0,0:0:0:0:
201,247,161547,2,0,P|225:205|225:156,1,99.0000030212403,2|0,0:0|0:0,0:0:0:0:
38,44,161863,1,2,0:0:0:0:
129,102,162021,1,8,0:0:0:0:
433,100,162179,1,2,0:0:0:0:
337,168,162337,1,0,0:0:0:0:
118,303,162495,1,2,0:0:0:0:
433,100,162653,5,10,0:0:0:0:
66,113,173647,6,0,P|108:99|152:100,1,90,8|0,0:0|0:0,0:0:0:0:
211,180,173932,2,0,P|169:194|125:193,1,90
59,269,174218,2,0,P|25:189|66:112,1,180,8|0,0:0|0:0,0:0:0:0:
211,180,174647,1,0,0:0:0:0:
355,112,174789,5,8,0:0:0:0:
355,112,174861,1,0,0:0:0:0:
355,112,174932,1,0,0:0:0:0:
355,112,175004,1,0,0:0:0:0:
355,112,175075,2,0,B|370:145|394:154|418:157|418:157|400:175|387:215|408:248,1,180,0|8,0:0|0:0,0:0:0:0:
423,78,175504,1,0,0:0:0:0:
408,248,175647,1,0,0:0:0:0:
499,212,175789,1,0,0:0:0:0:
490,380,175932,6,0,B|459:361|453:336|453:312|453:312|432:327|391:335|360:310,1,180,8|0,0:0|0:0,0:0:0:0:
499,212,176361,1,0,0:0:0:0:
361,311,176504,1,8,0:0:0:0:
499,212,176647,1,0,0:0:0:0:
423,78,176789,1,0,0:0:0:0:
423,78,176861,1,0,0:0:0:0:
423,78,176932,1,0,0:0:0:0:
423,78,177004,1,0,0:0:0:0:
423,78,177075,6,0,P|370:113|258:98,1,180,8|0,0:0|0:0,0:0:0:0:
186,43,177504,1,0,0:0:0:0:
274,30,177647,2,0,P|330:94|284:164,1,180,8|0,0:0|0:0,0:0:0:0:
204,205,178075,1,0,0:0:0:0:
184,217,178147,1,0,0:0:0:0:
165,229,178218,6,0,B|127:254|127:254|103:317|103:317|47:354,1,180,8|0,0:0|0:0,0:0:0:0:
347,229,178789,2,0,B|385:254|385:254|409:317|409:317|464:354,1,180,8|0,0:0|0:0,0:0:0:0:
256,299,179218,1,0,0:0:0:0:
380,250,179361,6,0,B|346:228|346:228|300:245|230:210|209:175,1,180,8|0,0:0|0:0,0:0:0:0:
151,151,179789,1,0,0:0:0:0:
129,253,179932,2,0,B|165:229|165:229|201:221|219:187|219:187|249:221|287:224,1,180,8|0,0:0|0:0,0:0:0:0:
297,234,180289,1,0,0:0:0:0:
324,243,180360,1,0,0:0:0:0:
351,248,180432,1,0,0:0:0:0:
380,250,180504,6,0,B|428:246|428:246|484:231|508:188|512:155|512:155|442:175|397:144|387:136,1,270,8|0,0:0|0:0,0:0:0:0:
474,84,181075,1,8,0:0:0:0:
380,250,181218,1,0,0:0:0:0:
424,155,181361,1,0,0:0:0:0:
389,75,181504,1,0,0:0:0:0:
389,75,181575,1,0,0:0:0:0:
389,75,181647,6,0,P|432:67|474:83,2,90,8|0|0,0:0|0:0|0:0,0:0:0:0:
124,74,182075,2,0,P|80:66|39:83,2,90,0|8|0,0:0|0:0|0:0,0:0:0:0:
256,198,182504,2,0,L|256:108,1,90
149,138,182789,6,0,L|124:75,1,67.5000025749208,10|0,0:0|0:0,0:0:0:0:
389,75,182932,2,0,L|365:138,1,67.5000025749208
457,192,183075,2,0,L|481:254,1,67.5000025749208,8|0,0:2|0:0,0:0:0:0:
349,287,183218,2,0,L|324:349,1,67.5000025749208,2|0,0:0|0:0,0:0:0:0:
163,287,183361,6,0,L|187:349,1,67.5000025749208,8|0,0:0|0:0,0:0:0:0:
55,192,183504,2,0,L|30:254,1,67.5000025749208,0|0,0:0|0:0,0:0:0:0:
124,75,183647,2,0,L|149:138,1,67.5000025749208,8|0,0:2|0:0,0:0:0:0:
365,138,183789,2,0,L|389:75,1,67.5000025749208
415,44,183932,5,8,0:0:0:0:
454,36,184003,1,0,0:0:0:0:
489,54,184075,1,0,0:0:0:0:
506,90,184146,1,0,0:0:0:0:
497,129,184218,1,10,0:0:0:0:
473,153,184289,1,0,0:0:0:0:
459,183,184360,1,0,0:0:0:0:
455,217,184432,1,0,0:0:0:0:
463,249,184504,6,0,L|489:318,7,67.5000025749208,10|0|0|0|8|0|0|0,0:0|0:0|0:0|0:0|0:0|0:0|0:0|0:0,0:0:0:0:
456,217,185075,5,10,0:0:0:0:
429,195,185147,1,0,0:0:0:0:
398,184,185218,1,0,0:0:0:0:
364,184,185289,1,0,0:0:0:0:
330,163,185361,1,8,0:0:0:0:
316,125,185432,1,0,0:0:0:0:
328,88,185504,1,2,0:0:0:0:
361,66,185575,1,0,0:0:0:0:
393,55,185647,6,0,L|456:30,1,67.5000025749208,8|0,0:0|0:0,0:0:0:0:
324,6,185789,2,0,L|260:30,1,67.5000025749208
171,132,185932,2,0,L|234:107,1,67.5000025749208,8|0,0:0|0:0,0:0:0:0:
100,81,186075,2,0,L|36:105,1,67.5000025749208
15,120,186218,5,8,0:0:0:0:
3,144,186289,1,0,0:0:0:0:
4,171,186361,1,0,0:0:0:0:
17,194,186432,1,0,0:0:0:0:
39,210,186504,2,0,L|100:237,1,67.5000025749208,10|0,0:0|0:0,0:0:0:0:
297,264,186647,2,0,L|236:237,1,67.5000025749208
42,278,186789,6,0,L|109:270,1,67.5000025749208,10|0,0:0|0:0,0:0:0:0:
294,195,186932,2,0,L|226:203,1,67.5000025749208
201,210,187075,1,8,0:0:0:0:
176,202,187146,1,0,0:0:0:0:
159,181,187218,1,0,0:0:0:0:
157,155,187289,1,0,0:0:0:0:
172,132,187361,6,0,L|216:81,1,67.5000025749208,10|0,0:0|0:0,0:0:0:0:
349,50,187504,2,0,L|304:0,1,67.5000025749208,0|0,0:0|0:0,0:0:0:0:
101,0,187647,2,0,L|145:50,1,67.5000025749208,8|0,0:0|0:0,0:0:0:0:
375,132,187789,2,0,L|419:81,1,67.5000025749208,2|0,0:0|0:0,0:0:0:0:
406,202,187932,6,0,P|373:209|340:201,1,67.5000025749208,8|0,0:0|0:0,0:0:0:0:
172,132,188075,2,0,P|204:125|237:133,1,67.5000025749208
168,266,188218,2,0,P|191:242|202:211,1,67.5000025749208,8|0,0:0|0:0,0:0:0:0:
409,76,188361,2,0,P|385:99|375:131,1,67.5000025749208
487,198,188504,6,0,P|477:165|455:140,1,67.5000025749208,8|0,0:0|0:0,0:0:0:0:
371,274,188647,2,0,P|403:282|436:275,1,67.5000025749208,0|0,0:0|0:0,0:0:0:0:
169,267,188789,2,0,P|136:275|103:268,1,67.5000025749208,10|0,0:0|0:0,0:0:0:0:
84,134,188932,2,0,P|61:158|52:191,1,67.5000025749208,0|0,0:0|0:0,0:0:0:0:
172,132,189075,6,0,P|194:107|203:74,1,67.5000025749208,10|0,0:0|0:0,0:0:0:0:
256,133,189218,2,0,P|266:164|289:188,1,67.5000025749208,0|0,0:0|0:0,0:0:0:0:
299,56,189361,2,0,P|288:24|265:0,1,67.5000025749208,8|0,0:0|0:0,0:0:0:0:
290,189,189504,2,0,P|322:195|355:187,1,67.5000025749208,0|0,0:0|0:0,0:0:0:0:
409,76,189647,6,0,P|376:69|343:77,1,67.5000025749208,10|0,0:0|0:0,0:0:0:0:
356,188,189789,2,0,P|323:196|290:189,1,67.5000025749208,0|0,0:0|0:0,0:0:0:0:
343,77,189932,2,0,P|310:70|277:78,1,67.5000025749208,8|0,0:0|0:0,0:0:0:0:
290,189,190075,2,0,P|257:197|224:190,1,67.5000025749208,0|0,0:0|0:0,0:0:0:0:
279,78,190218,2,0,P|246:71|213:79,1,67.5000025749208,10|0,0:0|0:0,0:0:0:0:
226,190,190360,2,0,P|193:198|160:191,1,67.5000025749208,0|0,0:0|0:0,0:0:0:0:
213,79,190503,2,0,P|180:72|147:80,1,67.5000025749208,8|0,0:0|0:0,0:0:0:0:
160,191,190647,2,0,P|127:199|94:192,1,67.5000025749208,0|0,0:0|0:0,0:0:0:0:
82,81,190789,6,0,P|114:72|147:79,1,67.5000025749208,10|0,0:0|0:0,0:0:0:0:
95,192,190932,2,0,P|127:198|160:190,1,67.5000025749208,0|0,0:0|0:0,0:0:0:0:
148,80,191075,2,0,P|180:71|213:78,1,67.5000025749208,8|0,0:0|0:0,0:0:0:0:
159,191,191218,2,0,P|191:197|224:189,1,67.5000025749208,0|0,0:0|0:0,0:0:0:0:
212,79,191360,2,0,P|244:70|277:77,1,67.5000025749208,10|0,0:0|0:0,0:0:0:0:
225,190,191503,2,0,P|257:196|290:188,1,67.5000025749208,0|0,0:0|0:0,0:0:0:0:
278,78,191647,2,0,P|310:69|343:76,1,67.5000025749208,8|0,0:0|0:0,0:0:0:0:
230,368,191932,6,0,P|110:319|94:191,1,270.000010299683,0|8,0:0|0:0,0:0:0:0:
281,15,192504,2,0,P|401:64|417:192,1,270.000010299683,0|8,0:0|0:0,0:0:0:0:
290,146,193075,5,8,0:0:0:0:
284,150,193147,1,0,0:0:0:0:
278,154,193218,1,8,0:0:0:0:
272,158,193289,1,0,0:0:0:0:
266,162,193361,1,2,0:1:0:0:
260,166,193432,1,0,0:0:0:0:
254,170,193504,1,8,0:0:0:0:
248,174,193575,1,0,0:0:0:0:
242,177,193647,2,0,P|210:188|176:184,1,67.5000025749208
122,62,193789,2,0,P|153:51|187:55,1,67.5000025749208,8|0,0:0|0:0,0:0:0:0:
323,55,193932,2,0,P|356:51|388:61,1,67.5000025749208,2|0,0:1|0:0,0:0:0:0:
333,183,194075,2,0,P|299:186|267:176,1,67.5000025749208
122,62,194218,6,0,B|81:45|40:57|26:91|26:91|104:119|115:183|86:224,1,270.000010299683,0|8,0:0|0:0,0:0:0:0:
416,213,194647,2,0,B|393:183|404:119|482:91|482:91|468:57|427:45|386:62,1,270.000010299683,0|8,0:0|0:0,0:0:0:0:
256,109,195075,1,8,0:0:0:0:
256,379,195361,5,8,0:0:0:0:
256,345,195432,1,0,0:0:0:0:
256,311,195504,1,8,0:0:0:0:
256,277,195575,1,0,0:0:0:0:
256,244,195647,1,2,0:1:0:0:
256,210,195718,1,0,0:0:0:0:
256,176,195790,1,8,0:0:0:0:
256,142,195861,1,0,0:0:0:0:
255,109,195932,1,0,0:0:0:0:
277,63,196003,1,0,0:0:0:0:
317,33,196074,1,8,0:0:0:0:
367,26,196146,1,0,0:0:0:0:
414,42,196217,1,2,0:1:0:0:
448,79,196289,1,0,0:0:0:0:
461,127,196360,1,0,0:0:0:0:
449,176,196432,1,0,0:0:0:0:
416,214,196504,6,0,P|320:183|256:311,1,270.000010299683,0|8,0:0|0:0,0:0:0:0:
350,26,197075,2,0,P|455:95|416:214,1,270.000010299683,0|8,0:0|0:0,0:0:0:0:
256,312,197647,6,0,P|217:307|192:285,1,67.5000025749208,8|0,0:0|0:0,0:0:0:0:
144,165,197789,2,0,P|183:170|208:192,1,67.5000025749208,8|0,0:0|0:0,0:0:0:0:
256,312,197932,2,0,P|217:302|192:285,1,67.5000025749208,2|0,0:1|0:0,0:0:0:0:
144,165,198075,2,0,P|183:175|208:192,1,67.5000025749208,8|0,0:0|0:0,0:0:0:0:
256,312,198218,2,0,L|192:285,1,67.5000025749208
144,165,198361,2,0,L|206:191,1,67.5000025749208,8|0,0:0|0:0,0:0:0:0:
231,199,198503,1,2,0:1:0:0:
258,199,198574,1,0,0:0:0:0:
284,191,198646,1,0,0:0:0:0:
305,175,198717,1,0,0:0:0:0:
321,153,198789,6,0,B|366:132|385:81|354:41|354:41|411:9|411:9|430:47|471:48,1,270.000010299683,0|8,0:0|0:0,0:0:0:0:
250,172,199218,2,0,B|233:142|256:106|256:106|200:73|200:73|181:120|127:129|87:101,1,270.000010299683,0|8,0:0|0:0,0:0:0:0:
135,45,199647,1,8,0:0:0:0:
395,111,199932,5,2,0:0:0:0:
404,131,200003,1,0,0:0:0:0:
408,153,200074,1,0,0:0:0:0:
407,175,200146,1,0,0:0:0:0:
400,197,200217,1,0,0:0:0:0:
388,216,200289,1,0,0:0:0:0:
372,231,200360,1,0,0:0:0:0:
352,242,200432,1,0,0:0:0:0:
330,247,200503,1,2,0:0:0:0:
308,247,200574,1,0,0:0:0:0:
286,242,200646,1,0,0:0:0:0:
267,231,200717,1,0,0:0:0:0:
250,215,200789,1,0,0:0:0:0:
235,202,200861,1,0,0:0:0:0:
220,188,200932,1,0,0:0:0:0:
48,265,201075,5,2,0:0:0:0:
38,244,201146,1,0,0:0:0:0:
34,222,201217,1,0,0:0:0:0:
35,200,201289,1,0,0:0:0:0:
42,179,201360,1,0,0:0:0:0:
54,160,201432,1,0,0:0:0:0:
70,144,201503,1,0,0:0:0:0:
90,134,201575,1,0,0:0:0:0:
112,128,201646,1,2,0:0:0:0:
134,128,201717,1,0,0:0:0:0:
156,134,201789,1,0,0:0:0:0:
176,145,201860,1,0,0:0:0:0:
192,160,201932,1,0,0:0:0:0:
206,174,202004,1,0,0:0:0:0:
220,188,202075,1,0,0:0:0:0:
123,282,202218,6,0,P|109:313|82:332,3,67.5000025749208,2|0|0|0,0:0|0:0|0:0|0:0,0:0:0:0:
220,188,202504,2,0,P|233:157|260:138,2,67.5000025749208,2|0|0,0:0|0:0|0:0,0:0:0:0:
398,282,202789,6,0,P|411:312|438:331,3,67.5000025749208,2|0|0|0,0:0|0:0|0:0|0:0,0:0:0:0:
302,188,203075,2,0,P|288:157|261:138,2,67.5000025749208,2|0|0,0:0|0:0|0:0,0:0:0:0:
83,333,203361,5,2,0:0:0:0:
83,333,203432,1,0,0:0:0:0:
83,333,203504,1,0,0:0:0:0:
439,332,203647,5,2,0:0:0:0:
439,332,203718,1,0,0:0:0:0:
439,332,203789,1,0,0:0:0:0:
261,138,203932,5,2,0:0:0:0:
261,138,204004,1,2,0:0:0:0:
261,138,204075,1,2,0:0:0:0:
261,138,204147,1,2,0:0:0:0:
261,138,204218,1,2,0:0:0:0:
62,247,204504,6,0,P|64:292|83:333,2,90,8|0|8,0:0|0:0|0:2,0:0:0:0:
261,138,204932,1,8,0:0:0:0:
170,137,205075,2,0,P|216:64|303:54,1,180,8|8,0:0|0:2,0:0:0:0:
442,129,205504,2,0,P|355:125|303:55,1,180,8|8,0:0|0:2,0:0:0:0:
261,138,205932,2,0,B|289:180|322:195|349:206|349:206|320:243|323:266,2,180,8|8|8,0:0|0:2|0:2,0:0:0:0:
397,264,206789,6,0,P|385:306|350:333,1,90,8|0,0:0|0:0,0:0:0:0:
168,334,207075,2,0,P|132:307|121:264,1,90,8|8,0:2|0:0,0:0:0:0:
261,138,207361,2,0,B|240:129|209:136|189:156|189:156|164:151|164:151|150:173|114:177|95:165,1,180,8|8,0:0|0:2,0:0:0:0:
246,210,207789,2,0,P|323:175|316:91,1,180,8|8,0:0|0:2,0:0:0:0:
406,92,208218,2,0,P|407:181|361:257,2,180,8|8|8,0:0|0:2|0:2,0:0:0:0:
246,210,209075,6,0,P|289:205|333:159,1,90,8|0,0:0|0:0,0:0:0:0:
482,67,209361,2,0,P|456:32|394:17,1,90,8|8,0:2|0:0,0:0:0:0:
263,139,209647,2,0,B|209:126|167:176|174:217|174:217|131:237,1,180,8|8,0:0|0:2,0:0:0:0:
213,321,210075,2,0,B|96:256|96:256|136:234,1,180,8|8,0:0|0:2,0:0:0:0:
41,107,210504,2,0,P|118:148|136:234,2,180,8|8|8,0:0|0:2|0:2,0:0:0:0:
401,108,211361,6,0,B|378:108|378:108|317:137,2,90,8|0|8,0:0|0:0|0:2,0:0:0:0:
274,235,211789,1,8,0:0:0:0:
232,154,211932,2,0,P|255:85|368:78,1,180,8|8,0:0|0:2,0:0:0:0:
274,234,212361,2,0,P|196:220|232:153,1,180,8|8,0:0|0:2,0:0:0:0:
401,107,212789,2,0,P|377:182|312:140,2,180,8|8|8,0:0|0:2|0:2,0:0:0:0:
395,95,213432,1,0,2:0:0:0:
388,83,213504,1,0,2:0:0:0:
381,71,213575,1,0,2:0:0:0:
373,58,213647,6,0,B|348:17|348:17|297:50|253:50|223:35,1,180,8|0,0:0|0:2,0:0:0:0:
151,90,214075,2,0,P|232:125|322:124,1,180,8|0,0:0|0:0,0:0:0:0:
224,35,214504,2,0,P|189:6|145:-1,1,90,8|0,0:0|0:0,0:0:0:0:
151,90,214789,6,0,B|103:84|82:65|66:37|66:37|16:93,1,180,8|0,0:0|0:0,0:0:0:0:
323,125,215218,2,0,B|371:119|392:100|408:72|408:72|457:128,2,180,8|0|8,0:0|0:0|0:0,0:0:0:0:
115,159,215932,6,0,P|190:156|223:64,1,180,8|0,0:0|0:0,0:0:0:0:
310,241,216361,2,0,P|225:231|200:149,1,180,8|0,0:0|0:0,0:0:0:0:
225,68,216789,2,0,B|232:108|220:126|201:148|201:148|188:204|222:230|248:250,2,180,8|8|0,0:0|0:0|0:0,0:0:0:0:
116,159,217504,6,0,B|149:173|188:165|200:149|200:149|192:189|207:216|226:231,2,180,8|0|0,0:0|0:0|0:0,0:0:0:0:
276,172,218218,2,0,P|300:253|234:307,1,180,8|0,0:0|0:0,0:0:0:0:
301,94,218647,1,8,0:0:0:0:
206,34,218789,2,0,B|240:50|240:50|215:86|223:141|276:172,1,180,8|0,0:0|0:0,0:0:0:0:
227,231,219218,1,8,0:0:0:0:
301,94,219361,6,0,B|319:142|319:142|277:171|277:171|227:232,1,180,8|0,0:0|0:0,0:0:0:0:
353,206,219789,2,0,P|384:175|390:131,2,90,8|0|0,0:0|0:0|0:0,0:0:0:0:
227,231,220218,2,0,B|286:282|286:282|353:206,2,180,8|0|8,0:0|0:0|0:0,0:0:0:0:
125,81,221075,2,0,B|66:30|66:30|-1:106,1,180,0|8,0:0|0:0,0:0:0:0:
256,192,221647,12,0,222789,0:0:0:0:
256,192,222932,12,0,224504,0:0:0:0:
60,42,225075,6,0,L|68:86,1,45,8|0,0:0|0:0,0:0:0:0:
118,259,225218,2,0,L|126:214,1,45,0|8,0:0|0:0,0:0:0:0:
174,41,225361,2,0,L|182:85,1,45,0|0,0:0|0:0,0:0:0:0:
232,258,225504,2,0,L|240:213,1,45,8|0,0:0|0:0,0:0:0:0:
279,37,225647,6,0,L|287:81,1,45,8|0,0:0|0:0,0:0:0:0:
337,254,225790,2,0,L|345:209,1,45,0|8,0:0|0:0,0:0:0:0:
393,36,225933,2,0,L|401:80,1,45
451,253,226076,2,0,L|459:208,1,45,8|0,0:0|0:0,0:0:0:0:
470,192,226218,5,8,0:0:0:0:
477,173,226289,1,0,0:0:0:0:
480,154,226361,1,0,0:0:0:0:
476,134,226432,1,8,0:0:0:0:
468,116,226504,1,0,0:0:0:0:
456,100,226575,1,0,0:0:0:0:
440,89,226647,1,8,0:0:0:0:
421,82,226718,1,0,0:0:0:0:
401,79,226789,6,0,L|346:88,1,45,0|0,0:0|0:0,0:0:0:0:
181,131,226932,2,0,L|225:124,1,45,8|0,0:0|0:0,0:0:0:0:
399,138,227075,2,0,L|347:117,1,45,8|0,0:0|0:0,0:0:0:0:
183,72,227218,2,0,L|224:89,1,45,8|0,0:0|0:0,0:0:0:0:
248,97,227360,5,0,0:0:0:0:
272,102,227431,1,8,0:0:0:0:
297,100,227503,1,0,0:0:0:0:
321,93,227574,1,0,0:0:0:0:
343,81,227646,1,0,0:0:0:0:
366,74,227717,1,8,0:0:0:0:
391,74,227789,1,0,0:0:0:0:
416,79,227860,1,0,0:0:0:0:
440,89,227932,6,0,L|494:118,1,45,8|0,0:0|0:0,0:0:0:0:
375,198,228075,2,0,L|335:219,1,45,0|8,0:0|0:0,0:0:0:0:
67,271,228218,2,0,L|107:250,1,45
211,162,228361,2,0,L|172:141,1,45,8|0,0:0|0:0,0:0:0:0:
152,121,228503,5,8,0:0:0:0:
143,94,228574,1,0,0:0:0:0:
147,67,228646,1,0,0:0:0:0:
163,44,228717,1,8,0:0:0:0:
188,30,228789,1,0,0:0:0:0:
215,29,228860,1,0,0:0:0:0:
241,40,228932,1,8,0:0:0:0:
259,62,229003,1,0,0:0:0:0:
256,192,229075,12,0,231932,0:0:0:0:
260,196,238265,5,0,0:0:0:0:
124,84,238538,2,0,P|60:72|-4:172,1,180
36,248,239083,2,0,L|116:296,1,90
232,272,239356,5,0,0:0:0:0:
376,212,239493,1,0,0:0:0:0:
312,164,239629,1,4,0:0:0:0:
244,40,239765,1,4,0:0:0:0:
304,88,239902,1,4,0:0:0:0:
236,136,240038,2,4,P|236:204|340:236,1,180,4|0,0:0|0:0,0:0:0:0:
164,292,240447,5,4,0:0:0:0:
136,280,240515,1,0,0:0:0:0:
108,264,240583,1,0,0:0:0:0:
84,240,240652,1,0,0:0:0:0:
68,212,240720,1,4,0:0:0:0:
56,184,240788,1,0,0:0:0:0:
48,152,240856,1,0,0:0:0:0:
44,120,240924,1,0,0:0:0:0:
52,88,240993,1,4,0:0:0:0:
68,60,241061,1,0,0:0:0:0:
112,48,241129,6,0,L|160:88,1,45
200,24,241265,2,0,L|248:56,1,45,4|0,0:0|0:0,0:0:0:0:
332,56,241402,2,0,L|300:116,1,45
412,124,241538,2,0,L|388:172,1,45,4|0,0:0|0:0,0:0:0:0:
372,200,241674,5,0,0:0:0:0:
116,196,241811,1,4,0:0:0:0:
328,328,241947,1,0,0:0:0:0:
188,328,242083,1,4,0:0:0:0:
256,108,242220,1,0,0:0:0:0:
52,88,242356,5,4,0:0:0:0:
48,120,242424,1,0,0:0:0:0:
44,152,242493,1,0,0:0:0:0:
40,184,242561,1,0,0:0:0:0:
40,216,242629,1,4,0:0:0:0:
44,248,242697,1,0,0:0:0:0:
56,276,242765,1,0,0:0:0:0:
76,300,242833,1,0,0:0:0:0:
100,320,242902,1,4,0:0:0:0:
128,332,242970,1,0,0:0:0:0:
160,332,243038,1,0,0:0:0:0:
192,332,243106,1,0,0:0:0:0:
224,328,243174,6,0,L|272:264,1,45,4|0,0:0|0:0,0:0:0:0:
320,332,243311,2,0,L|352:292,1,45
464,276,243447,2,0,L|408:216,1,45,4|0,0:0|0:0,0:0:0:0:
500,192,243583,2,0,L|448:132,1,45
492,64,243720,2,0,L|416:68,1,45,4|0,0:0|0:0,0:0:0:0:
420,68,243856,5,0,0:0:0:0:
400,92,243924,1,0,0:0:0:0:
368,96,243993,2,4,B|328:100|328:100|320:88|288:72|228:68|196:140|216:200|256:236|304:268|316:320,1,360
352,264,244606,5,0,0:0:0:0:
384,272,244674,1,0,0:0:0:0:
408,292,244743,1,0,0:0:0:0:
408,324,244811,1,4,0:0:0:0:
392,352,244879,1,0,0:0:0:0:
360,356,244947,1,0,0:0:0:0:
328,352,245015,1,0,0:0:0:0:
296,344,245083,1,4,0:0:0:0:
268,328,245152,1,0,0:0:0:0:
240,316,245220,1,0,0:0:0:0:
208,304,245288,1,0,0:0:0:0:
176,300,245356,1,4,0:0:0:0:
192,216,245493,5,0,0:0:0:0:
256,52,245629,1,4,0:0:0:0:
328,224,245765,1,0,0:0:0:0:
144,112,245902,1,4,0:0:0:0:
380,112,246038,1,0,0:0:0:0:
256,52,246174,5,4,0:0:0:0:
328,224,246311,1,0,0:0:0:0:
188,216,246447,1,4,0:0:0:0:
380,112,246583,1,0,0:0:0:0:
140,112,246720,1,4,0:0:0:0:
44,196,246856,6,4,P|48:276|80:304,1,90
116,232,247129,2,4,P|128:284|152:316,1,90
200,248,247402,2,4,P|240:304|264:320,1,90
284,232,247674,2,4,P|336:268|380:272,1,90
392,196,247947,5,0,0:0:0:0:
344,104,248083,2,0,L|304:80,4,45,4|0|4|0|4,0:0|0:0|0:0|0:0|0:0,0:0:0:0:
208,172,248629,1,8,0:0:0:0:
44,104,248902,5,4,0:0:0:0:
28,144,248970,1,0,0:0:0:0:
24,192,249038,2,0,P|24:240|52:288,1,90,0|4,0:0|0:0,0:0:0:0:
64,280,249243,1,0,0:0:0:0:
88,252,249311,1,0,0:0:0:0:
120,232,249379,1,0,0:0:0:0:
160,212,249447,2,0,P|172:212|216:228,4,45,4|0|0|0|4,0:0|0:0|0:0|0:0|0:0,0:0:0:0:
232,200,249788,5,0,0:0:0:0:
248,180,249856,1,0,0:0:0:0:
268,156,249993,1,4,0:0:0:0:
360,224,250129,1,0,0:0:0:0:
208,288,250265,1,4,0:0:0:0:
304,88,250402,1,0,0:0:0:0:
160,132,250538,1,4,0:0:0:0:
256,188,250811,6,0,L|288:152,4,45,4|0|0|0|4,0:0|0:0|0:0|0:0|0:0,0:0:0:0:
144,220,251220,1,0,0:0:0:0:
60,248,251356,1,4,0:0:0:0:
372,128,251493,1,0,0:0:0:0:
452,92,251629,1,4,0:0:0:0:
224,316,251765,6,0,P|272:328|320:320,1,90,0|4,0:0|0:0,0:0:0:0:
224,236,252038,2,0,P|164:256|136:296,1,90,0|4,0:0|0:0,0:0:0:0:
40,180,252311,1,0,0:0:0:0:
56,152,252379,1,0,0:0:0:0:
68,128,252447,1,4,0:0:0:0:
80,108,252515,1,0,0:0:0:0:
88,84,252583,1,0,0:0:0:0:
68,60,252652,2,0,B|40:40|4:40|8:40|8:40|40:20|136:16|160:56,1,225,0|8,0:0|0:0,0:0:0:0:
288,144,253265,6,0,L|336:160,4,45,4|0|0|0|4,0:0|0:0|0:0|0:0|0:0,0:0:0:0:
264,164,253606,1,0,0:0:0:0:
240,184,253674,1,0,0:0:0:0:
220,208,253743,1,0,0:0:0:0:
212,240,253811,1,4,0:0:0:0:
220,272,253879,5,0,0:0:0:0:
208,300,253947,1,0,0:0:0:0:
176,308,254015,1,0,0:0:0:0:
144,300,254083,1,4,0:0:0:0:
68,168,254220,1,0,0:0:0:0:
156,32,254356,5,4,0:0:0:0:
156,32,254424,1,0,0:0:0:0:
156,32,254493,1,0,0:0:0:0:
156,32,254561,1,0,0:0:0:0:
156,32,254629,2,0,B|161:75|193:71|193:71|221:111|221:111,1,90,4|0,0:0|0:0,0:0:0:0:
324,164,254902,5,4,0:0:0:0:
108,172,255038,1,0,0:0:0:0:
288,296,255174,1,4,0:0:0:0:
164,296,255311,1,0,0:0:0:0:
108,172,255447,6,0,L|44:80,1,90,4|0,0:0|0:0,0:0:0:0:
196,184,255720,2,0,L|136:96,1,90,4|0,0:0|0:0,0:0:0:0:
32,256,255993,1,4,0:0:0:0:
32,256,256061,1,0,0:0:0:0:
32,256,256129,1,0,0:0:0:0:
136,320,256265,2,0,P|200:336|260:320,1,90,4|0,0:0|0:0,0:0:0:0:
198,220,256538,2,0,B|254:226|310:163|310:163|334:215|334:215|330:207,2,180,4|4|0,0:0|0:0|0:0,0:0:0:0:
416,288,257220,6,0,B|476:224|484:164|484:164|416:180,1,180,0|8,0:0|0:0,0:0:0:0:
40,220,257629,2,0,L|52:160,7,45,4|0|0|0|4|0|0|0,0:0|0:0|0:0|0:0|0:0|0:0|0:0|0:0,0:0:0:0:
52,144,258174,1,4,0:0:0:0:
72,120,258243,1,0,0:0:0:0:
100,104,258311,1,0,0:0:0:0:
132,96,258379,1,0,0:0:0:0:
164,92,258447,1,4,0:0:0:0:
196,92,258515,1,0,0:0:0:0:
228,96,258583,1,0,0:0:0:0:
264,280,258720,5,4,0:0:0:0:
284,256,258788,1,0,0:0:0:0:
300,228,258856,1,0,0:0:0:0:
160,208,258993,1,4,0:0:0:0:
368,176,259129,1,0,0:0:0:0:
192,296,259265,5,4,0:0:0:0:
320,104,259402,1,0,0:0:0:0:
288,320,259538,1,4,0:0:0:0:
204,120,259674,1,0,0:0:0:0:
240,200,259811,6,0,P|168:200|132:208,1,90,4|0,0:0|0:0,0:0:0:0:
244,280,260083,2,0,P|304:284|348:276,1,90,4|0,0:0|0:0,0:0:0:0:
160,272,260356,2,0,L|156:336,1,45,4|0,0:0|0:0,0:0:0:0:
316,208,260493,2,0,L|316:148,1,45
272,128,260629,1,4,0:0:0:0:
272,128,260765,1,0,0:0:0:0:
168,144,260902,2,0,B|128:163|88:163|63:109|63:109|3:109,2,180,4|4|4,0:0|0:0|0:0,0:0:0:0:
140,284,261720,6,0,L|104:240,4,45,4|0|0|0|4,0:0|0:0|0:0|0:0|0:0,0:0:0:0:
172,276,262061,1,0,0:0:0:0:
200,260,262129,1,0,0:0:0:0:
224,240,262197,1,0,0:0:0:0:
244,216,262265,1,4,0:0:0:0:
260,188,262333,1,0,0:0:0:0:
276,160,262402,1,0,0:0:0:0:
284,128,262470,1,0,0:0:0:0:
292,100,262538,5,4,0:0:0:0:
308,128,262607,1,0,0:0:0:0:
324,156,262675,1,0,0:0:0:0:
348,176,262743,1,0,0:0:0:0:
376,192,262811,2,0,L|460:260,1,90,4|0,0:0|0:0,0:0:0:0:
344,336,263083,5,4,0:0:0:0:
316,324,263152,1,0,0:0:0:0:
288,308,263220,1,0,0:0:0:0:
260,292,263288,1,0,0:0:0:0:
232,276,263356,2,0,P|164:264|128:276,1,90,4|0,0:0|0:0,0:0:0:0:
20,208,263629,1,4,0:0:0:0:
96,52,263765,1,0,0:0:0:0:
216,212,263902,1,4,0:0:0:0:
356,56,264038,1,0,0:0:0:0:
292,228,264174,6,4,P|248:140|160:156,1,180
88,180,264583,1,0,0:0:0:0:
16,256,264720,2,0,P|24:292|56:312,4,45,4|0|0|0|4,0:0|0:0|0:0|0:0|0:0,0:0:0:0:
128,332,265129,1,0,0:0:0:0:
372,304,265265,6,4,L|212:152,1,180
124,212,265674,1,0,0:0:0:0:
324,140,265811,2,4,B|256:104|272:40|272:40|240:40|184:40,1,180
216,316,266356,5,4,0:0:0:0:
296,316,266492,1,0,0:0:0:0:
152,264,266629,1,4,0:0:0:0:
356,264,266765,1,0,0:0:0:0:
174,149,266902,2,0,B|168:104|144:71|144:71|116:72|52:92,1,180,4|4,0:0|0:0,0:0:0:0:
292,84,267447,6,4,L|396:276|396:276,1,180
308,272,267856,1,0,0:0:0:0:
128,264,267993,1,4,0:0:0:0:
124,120,268129,1,0,0:0:0:0:
56,216,268265,1,4,0:0:0:0:
188,164,268402,1,0,0:0:0:0:
208,240,268538,6,0,P|276:220|304:176,1,90,4|0,0:0|0:0,0:0:0:0:
108,208,268811,1,4,0:0:0:0:
24,272,268947,2,0,P|16:332|-28:356,1,90,0|4,0:0|0:0,0:0:0:0:
28,164,269220,1,0,0:0:0:0:
44,72,269356,1,4,0:0:0:0:
136,72,269493,1,0,0:0:0:0:
160,160,269629,2,4,P|248:184|248:116,1,180
60,236,270038,1,0,0:0:0:0:
88,332,270174,2,4,B|144:296|160:260|160:260|180:292|236:280,1,180
200,68,270720,6,0,L|144:156,1,90,4|0,0:0|0:0,0:0:0:0:
316,312,270993,2,0,L|376:224,1,90,4|0,0:0|0:0,0:0:0:0:
160,216,271265,2,4,B|140:280|88:280|88:280|72:328|8:332,1,180
48,216,271674,1,0,0:0:0:0:
16,136,271811,6,4,B|16:80|-12:56|-12:56|16:48|72:8,1,180
96,100,272220,1,0,0:0:0:0:
284,156,272356,2,0,P|248:196|212:200,1,90,4|0,0:0|0:0,0:0:0:0:
116,232,272629,2,0,P|156:264|208:268,1,90,4|0,0:0|0:0,0:0:0:0:
320,296,272902,2,4,P|284:332|152:336,1,180
40,288,273311,5,0,0:0:0:0:
116,112,273447,1,4,0:0:0:0:
4,184,273583,1,0,0:0:0:0:
168,284,273720,1,4,0:0:0:0:
24,100,273856,1,0,0:0:0:0:
148,216,273993,2,4,B|216:204|240:116|240:116|244:148|260:156|260:156|260:156,1,180
300,280,274538,1,4,0:0:0:0:
336,204,274811,6,0,L|368:128,4,45,4|4|4|4|4,0:0|0:0|0:0|0:0|0:0,0:0:0:0:
240,128,275220,1,0,0:0:0:0:
148,80,275356,2,0,P|88:48|48:76,1,90,4|0,0:0|0:0,0:0:0:0:
16,200,275629,1,4,0:0:0:0:
136,164,275765,2,0,L|148:72,1,90,0|4,0:0|0:0,0:0:0:0:
88,296,276038,1,0,0:0:0:0:
156,272,276174,2,0,P|116:232|76:224,1,90,4|0,0:0|0:0,0:0:0:0:
276,232,276447,5,4,0:0:0:0:
392,136,276583,1,0,0:0:0:0:
240,92,276720,1,4,0:0:0:0:
376,228,276856,1,0,0:0:0:0:
192,176,276992,1,4,0:0:0:0:
336,64,277129,1,0,0:0:0:0:
240,296,277265,6,4,B|144:304|112:344|80:308|48:328,1,180
52,52,277674,2,0,P|48:128|20:168,1,90,0|4,0:0|0:0,0:0:0:0:
168,240,277947,2,0,P|168:184|192:136,1,90,0|4,0:0|0:0,0:0:0:0:
72,248,278220,1,0,0:0:0:0:
16,192,278356,2,0,P|28:136|24:72,1,90,4|0,0:0|0:0,0:0:0:0:
12,48,278629,2,4,P|80:96|208:96,1,180
37,178,279447,6,0,B|78:295|223:318|311:202|218:62|218:62|218:15|293:-24|404:-106|462:62|381:184|381:184|474:208|515:260|485:353|416:365|357:307|357:307|317:365|264:400|165:388|66:376,2,1440,0|0|0,0:0|0:0|0:0,0:0:0:0:
140,136,284083,5,0,0:0:0:0:
264,132,284356,2,0,P|316:184|444:152,1,180
72,240,284902,1,4,0:0:0:0:
140,48,285038,1,4,0:0:0:0:
20,288,285174,2,4,P|124:284|136:216,1,180
216,144,285583,5,4,0:0:0:0:
300,232,285720,1,4,0:0:0:0:
300,232,285788,2,0,L|276:264,6,22.5,4|4|4|4|4|4|0,0:0|0:0|0:0|0:0|0:0|0:0|0:0,0:0:0:0:
212,328,286129,5,0,0:0:0:0:
180,324,286197,1,0,0:0:0:0:
152,312,286265,1,4,0:0:0:0:
132,288,286333,1,0,0:0:0:0:
100,296,286402,1,0,0:0:0:0:
68,300,286470,1,0,0:0:0:0:
36,300,286538,5,4,0:0:0:0:
12,280,286606,1,0,0:0:0:0:
4,248,286674,1,0,0:0:0:0:
8,216,286743,1,0,0:0:0:0:
20,188,286811,1,4,0:0:0:0:
44,168,286879,1,0,0:0:0:0:
76,164,286947,1,0,0:0:0:0:
108,160,287015,1,0,0:0:0:0:
132,140,287083,1,4,0:0:0:0:
152,116,287152,1,0,0:0:0:0:
176,100,287220,6,0,P|232:68|276:52,1,90,0|4,0:0|0:0,0:0:0:0:
340,196,287493,1,0,0:0:0:0:
316,216,287561,1,0,0:0:0:0:
288,228,287629,1,4,0:0:0:0:
288,228,287765,1,0,0:0:0:0:
392,164,287902,1,4,0:0:0:0:
368,184,287970,1,0,0:0:0:0:
340,196,288039,1,0,0:0:0:0:
340,196,288174,1,4,0:0:0:0:
460,288,288311,5,0,0:0:0:0:
444,316,288379,1,0,0:0:0:0:
416,332,288447,1,4,0:0:0:0:
388,340,288515,1,0,0:0:0:0:
356,348,288583,1,0,0:0:0:0:
324,348,288652,1,0,0:0:0:0:
292,344,288720,1,4,0:0:0:0:
260,336,288788,1,0,0:0:0:0:
224,312,288856,6,0,P|196:268|192:240,4,45,0|0|4|0|0,0:0|0:0|0:0|0:0|0:0,0:0:0:0:
68,188,289265,1,4,0:0:0:0:
120,312,289402,2,0,P|184:280|232:280,1,90,0|4,0:0|0:0,0:0:0:0:
252,108,289811,1,4,0:0:0:0:
388,160,290083,6,0,P|412:212|412:220,5,45,4|0|0|0|4|0,0:0|0:0|0:0|0:0|0:0|0:0,0:0:0:0:
424,228,290493,1,0,0:0:0:0:
428,260,290561,1,0,0:0:0:0:
416,288,290629,1,4,0:0:0:0:
392,308,290697,1,0,0:0:0:0:
364,324,290765,5,0,0:0:0:0:
332,332,290833,1,0,0:0:0:0:
300,328,290902,1,4,0:0:0:0:
268,320,290970,1,0,0:0:0:0:
240,304,291038,1,0,0:0:0:0:
212,288,291106,5,0,0:0:0:0:
180,284,291174,1,4,0:0:0:0:
148,284,291243,1,0,0:0:0:0:
120,296,291311,1,0,0:0:0:0:
88,288,291379,2,0,P|60:280|32:256,5,45,0|4|0|0|0|4,0:0|0:0|0:0|0:0|0:0|0:0,0:0:0:0:
24,248,291788,2,0,P|24:200|44:176,5,45,0|0|0|4|0|0,0:0|0:0|0:0|0:0|0:0|0:0,0:0:0:0:
44,180,292197,1,0,0:0:0:0:
68,160,292265,1,4,0:0:0:0:
92,140,292333,1,0,0:0:0:0:
120,120,292402,1,0,0:0:0:0:
148,108,292470,1,0,0:0:0:0:
180,104,292538,6,0,P|208:96|260:104,9,45,4|0|0|0|4|0|0|0|4|0,0:0|0:0|0:0|0:0|0:0|0:0|0:0|0:0|0:0|0:0,0:0:0:0:
256,100,293220,2,0,P|276:104|328:88,9,45,0|0|4|0|0|0|4|0|0|0,0:0|0:0|0:0|0:0|0:0|0:0|0:0|0:0|0:0|0:0,0:0:0:0:
332,108,293902,1,4,0:0:0:0:
360,120,293970,1,0,0:0:0:0:
388,136,294038,1,0,0:0:0:0:
408,160,294106,1,0,0:0:0:0:
428,184,294174,1,4,0:0:0:0:
444,212,294243,1,0,0:0:0:0:
460,240,294311,6,0,P|480:300|472:356,1,90,0|4,0:0|0:0,0:0:0:0:
479,326,294515,1,0,0:0:0:0:
479,326,294583,1,0,0:0:0:0:
479,326,294652,1,0,0:0:0:0:
479,326,294720,1,4,0:0:0:0:
344,308,294856,2,0,P|276:280|232:280,1,90,0|4,0:0|0:0,0:0:0:0:
260,278,295061,1,0,0:0:0:0:
260,278,295129,1,0,0:0:0:0:
260,278,295197,1,0,0:0:0:0:
260,278,295265,1,4,0:0:0:0:
116,200,295402,6,0,L|84:252,1,45
64,144,295538,2,0,L|12:184,1,45,4|0,0:0|0:0,0:0:0:0:
64,64,295674,2,0,L|4:56,1,45
136,28,295811,2,0,L|104:-16,1,45,4|0,0:0|0:0,0:0:0:0:
216,64,295947,2,0,L|264:28,1,45
240,144,296083,2,0,L|292:156,1,45,4|0,0:0|0:0,0:0:0:0:
316,160,296220,1,0,0:0:0:0:
348,168,296288,1,0,0:0:0:0:
380,176,296356,1,4,0:0:0:0:
412,184,296424,1,0,0:0:0:0:
444,192,296493,1,0,0:0:0:0:
284,284,296629,6,0,L|208:256,1,45,4|0,0:0|0:0,0:0:0:0:
212,260,296765,1,0,0:0:0:0:
184,244,296834,1,0,0:0:0:0:
156,228,296902,1,4,0:0:0:0:
140,200,296970,1,0,0:0:0:0:
136,168,297038,1,0,0:0:0:0:
56,112,297174,5,4,0:0:0:0:
152,56,297311,1,0,0:0:0:0:
272,64,297447,1,4,0:0:0:0:
340,148,297583,1,0,0:0:0:0:
300,232,297720,2,0,B|260:292|292:344|352:328|352:328|384:348,1,180,4|0,0:0|0:0,0:0:0:0:
392,248,298129,1,0,0:0:0:0:
216,172,298265,2,4,P|148:128|216:80,1,180
56,112,298811,5,4,0:0:0:0:
56,112,298880,1,0,0:0:0:0:
56,112,298948,1,0,0:0:0:0:
56,112,299016,1,0,0:0:0:0:
56,112,299084,1,4,0:0:0:0:
72,212,299220,6,0,L|60:272,1,45
140,236,299356,2,0,L|136:304,1,45,4|0,0:0|0:0,0:0:0:0:
208,256,299493,2,0,L|216:304,1,45
276,264,299629,2,0,L|300:308,1,45,4|0,0:0|0:0,0:0:0:0:
348,240,299765,2,0,L|380:276,1,45
404,256,299902,5,4,0:0:0:0:
424,232,299970,1,0,0:0:0:0:
436,204,300038,1,0,0:0:0:0:
448,176,300106,1,0,0:0:0:0:
460,148,300174,5,4,0:0:0:0:
452,116,300243,1,0,0:0:0:0:
428,92,300311,1,0,0:0:0:0:
400,76,300379,1,0,0:0:0:0:
372,60,300447,1,4,0:0:0:0:
340,56,300515,1,0,0:0:0:0:
308,56,300583,5,0,0:0:0:0:
276,60,300652,1,0,0:0:0:0:
248,68,300720,1,4,0:0:0:0:
224,88,300788,1,0,0:0:0:0:
200,108,300856,1,0,0:0:0:0:
180,132,300924,1,0,0:0:0:0:
164,160,300993,1,4,0:0:0:0:
160,192,301061,6,0,L|140:272,1,45
224,232,301197,2,0,L|272:292,1,45,0|4,0:0|0:0,0:0:0:0:
304,212,301333,2,0,L|368:236,1,45
352,148,301470,2,0,L|408:148,1,45,0|4,0:0|0:0,0:0:0:0:
420,168,301606,1,0,0:0:0:0:
436,192,301674,1,0,0:0:0:0:
448,224,301743,1,0,0:0:0:0:
452,256,301811,1,4,0:0:0:0:
452,288,301879,1,0,0:0:0:0:
440,316,301947,1,0,0:0:0:0:
424,340,302015,6,0,L|368:340,1,45,0|4,0:0|0:0,0:0:0:0:
296,272,302152,2,0,L|348:272,1,45
396,320,302288,2,0,L|340:320,1,45,0|4,0:0|0:0,0:0:0:0:
276,248,302424,2,0,L|340:248,1,45
388,276,302561,2,0,L|332:280,1,45,0|4,0:0|0:0,0:0:0:0:
248,212,302697,2,0,L|312:212,1,45
120,140,302902,6,0,P|92:120|34:164,1,90,4|0,0:0|0:0,0:0:0:0:
43,135,303106,1,0,0:0:0:0:
43,135,303174,1,4,0:0:0:0:
43,135,303243,1,0,0:0:0:0:
43,135,303311,1,0,0:0:0:0:
100,244,303447,1,4,0:0:0:0:
80,82,311337,6,0,P|112:53|156:52,1,90
218,112,311913,1,0,0:0:0:0:
200,196,312028,1,0,0:0:0:0:
119,225,312144,1,0,0:0:0:0:
52,171,312260,6,0,P|45:215|11:243,1,90
81,298,312836,1,0,0:0:0:0:
170,305,312951,1,0,0:0:0:0:
248,263,313067,1,0,0:0:0:0:
289,185,313183,6,0,P|295:141|329:113,1,90
267,49,313760,1,0,0:0:0:0:
182,20,313875,1,0,0:0:0:0:
94,34,313991,1,0,0:0:0:0:
23,88,314106,6,0,P|57:115|102:120,1,90
93,207,314683,1,0,0:0:0:0:
154,268,314798,1,0,0:0:0:0:
241,259,314914,1,0,0:0:0:0:
288,185,315029,6,0,P|318:154|362:147,1,90
367,231,315606,1,0,0:0:0:0:
447,259,315721,1,0,0:0:0:0:
503,195,315837,1,0,0:0:0:0:
465,119,315952,6,0,P|428:98|421:55,1,90
369,126,316529,1,0,0:0:0:0:
285,155,316644,1,0,0:0:0:0:
200,130,316760,1,0,0:0:0:0:
145,61,316875,6,0,P|115:142|163:214,1,180,8|8,0:0|0:0,0:0:0:0:
172,304,318029,2,0,L|215:291,1,45,8|0,0:0|0:0,0:0:0:0:
302,267,318260,2,0,L|345:254,1,45,8|0,0:0|0:0,0:0:0:0:
256,192,362085,12,0,364453,0:0:0:0:
64,72,364611,6,0,P|100:140|208:144,1,180,8|0,0:2|0:0,0:0:0:0:
264,100,365558,1,8,0:2:0:0:
336,152,365874,2,0,B|368:176|376:240|376:240|404:264|404:264|392:312|392:312|396:340|396:340|376:356|360:360|336:360|296:344|300:292|316:264,1,360,8|8,0:2|0:0,0:0:0:0:
292,264,367216,1,0,0:0:0:0:
272,252,367295,1,0,0:0:0:0:
252,248,367374,1,8,0:0:0:0:
228,248,367453,1,0,0:0:0:0:
208,252,367532,1,0,0:0:0:0:
188,260,367611,1,0,0:0:0:0:
192,240,367690,5,0,0:0:0:0:
200,220,367769,1,8,0:0:0:0:
200,196,367848,1,0,0:0:0:0:
196,172,367927,1,0,0:0:0:0:
192,148,368006,1,0,0:0:0:0:
184,128,368085,1,8,0:0:0:0:
172,108,368163,1,0,0:0:0:0:
160,92,368242,1,0,0:0:0:0:
140,80,368321,1,0,0:0:0:0:
124,68,368400,5,8,0:0:0:0:
144,60,368479,1,0,0:0:0:0:
164,52,368558,1,0,0:0:0:0:
184,44,368637,1,0,0:0:0:0:
204,36,368716,1,8,0:0:0:0:
224,28,368795,1,0,0:0:0:0:
244,20,368874,1,0,0:0:0:0:
264,12,368953,1,0,0:0:0:0:
308,24,369032,6,0,P|340:56|324:152,1,135,8|0,0:0|0:0,0:0:0:0:
352,192,369348,2,0,L|440:328,1,135,0|0,0:0|0:0,0:0:0:0:
348,332,369663,5,8,0:0:0:0:
332,312,369742,1,0,0:0:0:0:
316,292,369821,1,0,0:0:0:0:
300,272,369900,1,0,0:0:0:0:
284,252,369979,2,0,P|260:200|328:104,2,180,0|0|0,0:0|0:0|0:0,0:0:0:0:
352,192,370769,1,8,0:0:0:0:
424,252,370927,5,0,0:0:0:0:
448,236,371006,1,0,0:0:0:0:
464,212,371085,1,0,0:0:0:0:
472,188,371163,1,0,0:0:0:0:
472,160,371242,2,0,P|464:96|368:40,2,180,8|0|8,0:0|0:0|0:0,0:0:0:0:
364,164,372032,1,0,0:0:0:0:
364,164,372190,6,0,B|320:136|320:136|276:152|276:152|236:140|204:148|168:176|168:216|200:264|232:268|268:252|296:196|292:164|264:128|236:104|196:96|196:96|176:56|176:56|192:16,1,540,8|0,0:0|0:0,0:0:0:0:
296,48,373295,1,8,0:0:0:0:
384,64,373453,2,0,B|448:84|488:72|488:72|452:124|452:128|452:128|464:160|464:168|460:184|452:208|464:236|464:236|452:268|444:284|452:320,1,360
424,304,374163,1,0,0:0:0:0:
408,284,374242,1,0,0:0:0:0:
384,296,374321,1,0,0:0:0:0:
376,272,374400,1,0,0:0:0:0:
352,288,374479,1,0,0:0:0:0:
332,268,374558,1,8,0:0:0:0:
232,324,374716,5,8,0:0:0:0:
216,304,374795,1,0,0:0:0:0:
208,276,374874,1,0,0:0:0:0:
204,248,374953,1,0,0:0:0:0:
212,224,375032,1,8,0:0:0:0:
224,200,375111,1,0,0:0:0:0:
228,172,375190,1,8,0:0:0:0:
228,144,375269,1,0,0:0:0:0:
220,120,375348,5,8,0:0:0:0:
244,108,375427,1,0,0:0:0:0:
268,96,375506,1,0,0:0:0:0:
292,88,375585,1,0,0:0:0:0:
316,76,375663,1,8,0:0:0:0:
340,68,375742,1,0,0:0:0:0:
364,56,375821,1,8,0:0:0:0:
388,44,375900,1,0,0:0:0:0:
408,60,375979,5,8,0:0:0:0:
420,84,376058,1,0,0:0:0:0:
424,112,376137,1,0,0:0:0:0:
428,140,376216,1,0,0:0:0:0:
424,168,376295,1,8,0:0:0:0:
412,192,376374,1,0,0:0:0:0:
396,212,376453,1,8,0:0:0:0:
376,228,376532,1,0,0:0:0:0:
352,240,376611,6,0,L|212:296,2,135,8|0|0,0:0|0:0|0:0,0:0:0:0:
300,168,377242,1,8,0:0:0:0:
320,148,377321,1,0,0:0:0:0:
300,132,377400,1,0,0:0:0:0:
316,112,377479,1,0,0:0:0:0:
300,92,377558,1,8,0:0:0:0:
308,68,377637,1,0,0:0:0:0:
288,48,377716,1,0,0:0:0:0:
304,28,377795,1,0,0:0:0:0:
332,28,377874,5,8,0:0:0:0:
356,36,377953,1,0,0:0:0:0:
384,32,378032,1,0,0:0:0:0:
408,40,378111,1,0,0:0:0:0:
436,36,378190,1,8,0:0:0:0:
460,48,378269,1,0,0:0:0:0:
480,64,378348,1,0,0:0:0:0:
492,88,378427,1,0,0:0:0:0:
492,88,378506,6,0,L|424:224,2,135,12|4|4,0:0|0:0|0:0,0:0:0:0:
372,80,379137,2,0,B|312:68|312:68|248:28,1,135,12|0,0:0|0:0,0:0:0:0:
224,32,379453,2,0,P|148:52|112:120,1,135,4|0,0:0|0:0,0:0:0:0:
120,124,379769,6,0,P|168:184|72:128,1,360,12|0,0:0|0:0,0:0:0:0:
140,40,380558,1,0,0:0:0:0:
216,68,380716,2,0,B|268:48|268:48|316:60|320:64|380:48,1,135,0|0,0:0|0:0,0:0:0:0:
364,76,381032,6,0,P|368:160|416:216,2,135,12|0|0,0:0|0:0|0:0,0:0:0:0:
464,120,381663,2,0,L|492:252,2,135,8|0|0,0:0|0:0|0:0,0:0:0:0:
360,92,382295,6,0,B|316:72|316:72|272:88|272:88|224:76,1,135,8|0,0:0|0:0,0:0:0:0:
360,92,382611,6,0,B|316:72|316:72|272:88|272:88|224:76,1,135,8|0,0:0|0:0,0:0:0:0:
360,92,382927,6,0,B|316:72|316:72|272:88|272:88|224:76,1,135,8|8,0:0|0:0,0:0:0:0:
360,92,383242,6,0,B|316:72|316:72|272:88|272:88|224:76,1,135,8|0,0:0|0:0,0:0:0:0:
208,92,383558,6,0,P|140:148|184:256,1,180,8|8,0:0|0:0,0:0:0:0:
220,176,384032,1,8,0:0:0:0:
304,196,384190,1,8,0:0:0:0:
332,204,384269,1,0,0:0:0:0:
360,212,384348,1,0,0:0:0:0:
388,220,384427,1,0,0:0:0:0:
412,232,384506,1,0,0:0:0:0:
432,252,384585,1,0,0:0:0:0:
440,276,384663,1,0,0:0:0:0:
364,304,384821,6,0,B|264:272|248:268|224:228|220:192,1,180,8|0,0:0|0:0,0:0:0:0:
224,180,385216,1,0,0:0:0:0:
216,156,385295,1,0,0:0:0:0:
200,136,385374,1,0,0:0:0:0:
176,124,385453,5,8,0:0:0:0:
200,112,385532,1,0,0:0:0:0:
224,96,385611,1,0,0:0:0:0:
244,80,385690,1,0,0:0:0:0:
252,56,385769,5,0,0:0:0:0:
276,64,385848,1,0,0:0:0:0:
288,88,385927,1,0,0:0:0:0:
312,104,386006,1,0,0:0:0:0:
320,128,386085,5,8,0:0:0:0:
340,144,386163,1,0,0:0:0:0:
364,156,386242,1,0,0:0:0:0:
392,160,386321,1,0,0:0:0:0:
420,156,386400,5,0,0:0:0:0:
444,168,386479,1,0,0:0:0:0:
456,192,386558,1,0,0:0:0:0:
460,220,386637,1,0,0:0:0:0:
452,244,386716,5,8,0:0:0:0:
428,256,386795,1,0,0:0:0:0:
400,260,386874,1,0,0:0:0:0:
376,252,386953,1,0,0:0:0:0:
360,228,387032,1,0,0:0:0:0:
352,204,387111,1,0,0:0:0:0:
360,180,387190,1,0,0:0:0:0:
376,160,387269,1,0,0:0:0:0:
372,132,387348,6,0,B|328:112|328:112|284:128|284:128|236:116,1,135,8|8,0:0|0:0,0:0:0:0:
220,120,387663,2,0,P|112:176|112:264,1,180,8|8,0:0|0:0,0:0:0:0:
116,248,388058,1,0,0:0:0:0:
140,264,388137,1,0,0:0:0:0:
164,272,388216,1,8,0:0:0:0:
192,276,388295,5,8,0:0:0:0:
220,276,388374,1,0,0:0:0:0:
248,272,388453,1,0,0:0:0:0:
272,264,388532,1,0,0:0:0:0:
300,260,388611,5,8,0:0:0:0:
324,276,388690,1,0,0:0:0:0:
340,300,388769,1,0,0:0:0:0:
336,328,388848,1,8,0:0:0:0:
316,348,388927,1,8,0:0:0:0:
288,356,389006,1,0,0:0:0:0:
260,348,389085,1,0,0:0:0:0:
244,328,389163,1,0,0:0:0:0:
244,300,389242,5,8,0:0:0:0:
256,276,389321,1,0,0:0:0:0:
276,256,389400,1,0,0:0:0:0:
304,248,389479,1,0,0:0:0:0:
332,252,389558,1,0,0:0:0:0:
356,268,389637,1,0,0:0:0:0:
364,292,389716,1,0,0:0:0:0:
360,320,389795,1,0,0:0:0:0:
360,320,389874,5,8,0:0:0:0:
388,312,389953,1,0,0:0:0:0:
416,304,390032,1,0,0:0:0:0:
444,296,390111,1,0,0:0:0:0:
472,288,390190,2,0,P|488:228|472:184,1,90,0|8,0:0|0:0,0:0:0:0:
416,80,390506,2,0,P|392:136|400:176,1,90
476,176,390742,1,0,0:0:0:0:
504,92,390821,2,0,L|472:8,1,90,0|8,0:0|0:0,0:0:0:0:
340,32,391137,6,0,P|316:72|328:156,1,135
312,20,391453,2,0,P|280:88|296:160,1,135,8|0,0:0|0:0,0:0:0:0:
280,12,391769,2,0,P|252:88|264:148,1,135,8|0,0:0|0:0,0:0:0:0:
244,160,392085,2,0,L|92:228,1,135,8|0,0:0|0:0,0:0:0:0:
108,236,392400,6,0,P|92:296|152:228,1,225,8|0,0:0|0:0,0:0:0:0:
200,248,392874,1,0,0:0:0:0:
272,80,393032,1,8,0:0:0:0:
372,244,393190,1,0,0:0:0:0:
176,140,393348,1,8,0:0:0:0:
364,136,393506,1,8,0:0:0:0:
272,80,393585,1,0,0:0:0:0:
176,140,393663,6,0,L|76:256,1,135,0|0,0:0|0:0,0:0:0:0:
84,264,393979,2,0,P|128:312|164:320,1,90,0|0,0:0|0:0,0:0:0:0:
176,240,394295,2,0,P|136:200|80:188,1,90,8|0,0:0|0:0,0:0:0:0:
56,280,394611,2,0,P|72:332|116:364,1,90
208,332,394927,5,8,0:0:0:0:
228,316,395006,1,0,0:0:0:0:
252,324,395085,1,0,0:0:0:0:
272,308,395163,1,0,0:0:0:0:
296,316,395242,1,8,0:0:0:0:
320,304,395321,1,0,0:0:0:0:
344,312,395400,1,8,0:0:0:0:
368,300,395479,1,0,0:0:0:0:
392,312,395558,5,8,0:0:0:0:
420,308,395637,1,0,0:0:0:0:
444,292,395716,1,0,0:0:0:0:
452,268,395795,1,0,0:0:0:0:
444,240,395874,1,8,0:0:0:0:
428,220,395953,1,0,0:0:0:0:
400,216,396032,1,8,0:0:0:0:
376,228,396111,1,0,0:0:0:0:
352,244,396190,5,8,0:0:0:0:
324,240,396269,1,0,0:0:0:0:
304,224,396348,1,0,0:0:0:0:
296,196,396427,1,0,0:0:0:0:
300,168,396506,1,8,0:0:0:0:
316,148,396585,1,0,0:0:0:0:
340,140,396663,1,8,0:0:0:0:
368,148,396742,1,0,0:0:0:0:
388,168,396821,1,8,0:0:0:0:
412,176,396900,5,0,0:0:0:0:
440,172,396979,1,0,0:0:0:0:
460,156,397058,1,0,0:0:0:0:
468,132,397137,1,8,0:0:0:0:
460,104,397216,1,0,0:0:0:0:
444,84,397295,1,8,0:0:0:0:
416,84,397374,1,0,0:0:0:0:
392,76,397453,5,8,0:0:0:0:
372,60,397532,1,0,0:0:0:0:
344,68,397611,1,0,0:0:0:0:
320,56,397690,1,0,0:0:0:0:
296,64,397769,1,8,0:0:0:0:
272,48,397848,1,0,0:0:0:0:
248,60,397927,1,0,0:0:0:0:
224,44,398006,1,0,0:0:0:0:
200,60,398085,5,8,0:0:0:0:
180,76,398163,1,0,0:0:0:0:
160,96,398242,1,0,0:0:0:0:
140,112,398321,1,0,0:0:0:0:
120,128,398400,1,8,0:0:0:0:
96,144,398479,1,0,0:0:0:0:
76,160,398558,1,0,0:0:0:0:
52,176,398637,1,0,0:0:0:0:
52,204,398716,5,8,0:0:0:0:
72,224,398795,1,0,0:0:0:0:
96,240,398874,1,0,0:0:0:0:
120,248,398953,1,8,0:0:0:0:
148,248,399032,1,8,0:0:0:0:
176,244,399111,1,0,0:0:0:0:
200,236,399190,1,8,0:0:0:0:
224,228,399269,1,0,0:0:0:0:
252,220,399348,5,8,0:0:0:0:
280,220,399427,1,0,0:0:0:0:
308,228,399506,1,0,0:0:0:0:
332,244,399585,1,0,0:0:0:0:
344,268,399663,1,8,0:0:0:0:
352,296,399742,1,0,0:0:0:0:
344,320,399821,1,0,0:0:0:0:
332,344,399900,1,0,0:0:0:0:
308,360,399979,5,8,0:0:0:0:
280,360,400058,1,0,0:0:0:0:
252,360,400137,1,0,0:0:0:0:
224,352,400216,1,0,0:0:0:0:
204,336,400295,1,8,0:0:0:0:
192,312,400374,1,0,0:0:0:0:
188,284,400453,1,0,0:0:0:0:
192,256,400532,1,0,0:0:0:0:
204,232,400611,5,8,0:0:0:0:
224,212,400690,1,0,0:0:0:0:
248,200,400769,1,8,0:0:0:0:
276,200,400848,1,0,0:0:0:0:
304,196,400927,1,0,0:0:0:0:
328,184,401006,1,0,0:0:0:0:
340,160,401085,1,0,0:0:0:0:
348,136,401163,1,0,0:0:0:0:
344,108,401242,6,0,L|448:80,1,90,8|0,0:0|0:0,0:0:0:0:
288,44,401558,2,0,L|196:24,1,90,8|8,0:0|0:0,0:0:0:0:
340,160,401874,2,0,L|436:184,1,90,8|0,0:0|0:0,0:0:0:0:
248,128,402190,2,0,L|140:100,1,90,8|0,0:0|0:0,0:0:0:0:
72,148,402506,6,0,P|72:192|140:248,1,135,8|0,0:0|0:0,0:0:0:0:
160,240,402821,2,0,P|220:268|236:340,1,135,8|0,0:0|0:0,0:0:0:0:
244,352,403137,2,0,L|384:324,1,135,8|8,0:0|0:0,0:0:0:0:
400,316,403453,2,0,B|408:268|408:268|392:224|392:224|396:160,1,135,8|0,0:0|0:0,0:0:0:0:
392,164,403769,6,0,L|464:104,2,90,8|0|8,0:0|0:0|0:0,0:0:0:0:
292,120,404242,1,0,0:0:0:0:
268,112,404321,1,0,0:0:0:0:
244,128,404400,1,8,0:0:0:0:
220,120,404479,1,0,0:0:0:0:
200,136,404558,1,0,0:0:0:0:
176,124,404637,1,0,0:0:0:0:
152,136,404716,5,0,0:0:0:0:
128,120,404795,1,0,0:0:0:0:
104,132,404874,1,0,0:0:0:0:
76,124,404953,1,0,0:0:0:0:
56,144,405032,5,8,0:0:0:0:
44,168,405111,1,0,0:0:0:0:
40,196,405190,1,0,0:0:0:0:
48,220,405269,1,0,0:0:0:0:
68,236,405348,1,0,0:0:0:0:
96,240,405427,1,0,0:0:0:0:
120,232,405506,1,0,0:0:0:0:
140,216,405585,1,0,0:0:0:0:
148,192,405663,5,8,0:0:0:0:
144,164,405742,1,0,0:0:0:0:
132,140,405821,1,0,0:0:0:0:
132,112,405900,1,0,0:0:0:0:
136,84,405979,1,0,0:0:0:0:
152,64,406058,1,0,0:0:0:0:
176,52,406137,1,0,0:0:0:0:
204,52,406216,1,0,0:0:0:0:
232,56,406295,5,8,0:0:0:0:
252,72,406374,1,0,0:0:0:0:
256,100,406453,1,0,0:0:0:0:
256,128,406532,1,0,0:0:0:0:
248,152,406611,1,0,0:0:0:0:
240,176,406690,1,0,0:0:0:0:
240,204,406769,1,0,0:0:0:0:
256,224,406848,1,0,0:0:0:0:
280,232,406927,5,8,0:0:0:0:
308,240,407006,1,0,0:0:0:0:
336,248,407085,1,0,0:0:0:0:
364,252,407163,1,0,0:0:0:0:
392,260,407242,1,0,0:0:0:0:
420,268,407321,1,0,0:0:0:0:
444,276,407400,1,0,0:0:0:0:
468,284,407479,1,0,0:0:0:0:
492,276,407558,5,8,0:0:0:0:
500,248,407637,1,0,0:0:0:0:
496,220,407716,1,0,0:0:0:0:
480,196,407795,1,0,0:0:0:0:
456,184,407874,1,8,0:0:0:0:
440,164,407953,1,0,0:0:0:0:
432,140,408032,1,8,0:0:0:0:
432,112,408111,1,8,0:0:0:0:
444,88,408190,5,8,0:0:0:0:
464,72,408269,1,0,0:0:0:0:
444,52,408348,1,0,0:0:0:0:
420,44,408427,1,0,0:0:0:0:
392,40,408506,1,8,0:0:0:0:
364,40,408585,1,0,0:0:0:0:
340,48,408663,1,8,0:0:0:0:
316,60,408742,1,8,0:0:0:0:
292,72,408821,5,8,0:0:0:0:
268,60,408900,1,0,0:0:0:0:
244,52,408979,1,0,0:0:0:0:
216,44,409058,1,0,0:0:0:0:
188,44,409137,1,8,0:0:0:0:
160,44,409216,1,0,0:0:0:0:
132,48,409295,1,8,0:0:0:0:
104,56,409374,1,8,0:0:0:0:
80,72,409453,6,0,B|80:128|80:128|60:180,1,90,8|0,0:0|0:0,0:0:0:0:
68,184,409690,2,0,P|80:240|112:264,1,90
128,268,409927,2,0,B|184:268|220:312|220:312|256:296|256:296|296:308|304:312|336:304|344:288,1,225,0|0,0:0|0:0,0:0:0:0:
356,292,410400,6,0,L|384:244,1,45,12|0,0:0|0:0,0:0:0:0:
452,288,410716,2,0,L|476:244,1,45
416,176,411032,2,0,L|448:108,1,67.5,0|0,0:0|0:0,0:0:0:0:
452,92,411348,6,0,P|416:64|356:64,1,90
304,104,411821,1,0,0:0:0:0:
280,184,411979,2,0,P|248:172|224:116,1,90
152,84,412453,1,8,0:0:0:0:
100,16,412532,1,0,0:0:0:0:
44,72,412611,6,0,L|40:160,1,67.5,0|0,0:0|0:0,0:0:0:0:
64,152,412927,2,0,L|64:220,1,67.5,8|0,0:0|0:0,0:0:0:0:
88,244,413242,6,0,L|140:268,1,45
180,192,413558,2,0,L|232:216,1,45
288,160,413874,2,0,L|360:188,1,67.5
376,188,414190,6,0,P|396:160|380:96,1,90
312,48,414663,1,0,0:0:0:0:
288,56,414821,1,0,0:0:0:0:
248,160,414979,6,0,L|184:128,1,67.5,8|8,0:0|0:0,0:0:0:0:
168,144,415295,2,0,L|236:264,1,135,0|0,0:0|0:0,0:0:0:0:
328,252,415927,2,0,L|332:324,1,67.5
352,332,416242,5,8,0:0:0:0:
432,212,416400,1,0,0:0:0:0:
484,344,416558,1,0,0:0:0:0:
428,116,416716,1,8,0:0:0:0:
312,152,416874,1,8,0:0:0:0:
244,80,417032,1,0,0:0:0:0:
184,156,417190,1,8,0:0:0:0:
328,128,417348,1,0,0:0:0:0:
244,52,417506,1,8,0:0:0:0:
160,144,417663,6,0,L|124:188,2,49.5000015106202,8|0|0,0:0|0:0|0:0,0:0:0:0:
240,28,417979,1,8,0:0:0:0:
340,112,418137,2,0,L|392:144,2,49.5000015106202,0|0|0,0:0|0:0|0:0,0:0:0:0:
324,204,418453,1,8,0:0:0:0:
288,288,418611,2,0,L|340:304,2,49.5000015106202,8|0|0,0:0|0:0|0:0,0:0:0:0:
192,324,418927,5,0,0:0:0:0:
120,256,419085,2,0,L|76:232,2,49.5000015106202,8|0|8,0:0|0:0|0:0,0:0:0:0:
152,148,419400,1,0,0:0:0:0:
240,132,419558,2,0,P|220:80|200:60,2,49.5000015106202,0|0|8,0:0|0:0|0:0,0:0:0:0:
332,128,419874,2,0,P|312:76|292:56,2,49.5000015106202,8|0|0,0:0|0:0|0:0,0:0:0:0:
424,148,420190,5,0,0:0:0:0:
432,176,420269,1,0,0:0:0:0:
440,204,420348,1,0,0:0:0:0:
448,232,420427,1,0,0:0:0:0:
456,260,420506,1,8,0:0:0:0:
464,288,420585,1,0,0:0:0:0:
472,316,420663,1,8,0:0:0:0:
476,344,420742,1,8,0:0:0:0:
448,348,420821,5,8,0:0:0:0:
428,328,420900,1,0,0:0:0:0:
416,300,420979,1,8,0:0:0:0:
404,272,421058,1,8,0:0:0:0:
392,244,421137,1,8,0:0:0:0:
384,216,421216,1,0,0:0:0:0:
376,188,421295,1,8,0:0:0:0:
364,160,421374,1,8,0:0:0:0:
344,136,421453,5,8,0:0:0:0:
328,160,421532,1,0,0:0:0:0:
320,188,421611,1,0,0:0:0:0:
312,216,421690,1,0,0:0:0:0:
304,244,421769,6,0,L|212:200,1,99.0000030212403,8|8,0:0|0:0,0:0:0:0:
304,244,422006,6,0,L|212:200,1,99.0000030212403
304,244,422242,6,0,L|212:200,1,99.0000030212403,8|8,0:0|0:0,0:0:0:0:
304,244,422479,6,0,L|212:200,1,99.0000030212403
304,244,422716,6,0,L|212:200,1,99.0000030212403,8|8,0:0|0:0,0:0:0:0:
200,228,422953,1,0,0:0:0:0:
172,240,423032,5,8,0:0:0:0:
156,216,423111,1,0,0:0:0:0:
152,188,423190,1,0,0:0:0:0:
156,160,423269,1,0,0:0:0:0:
168,132,423348,1,0,0:0:0:0:
192,116,423427,1,0,0:0:0:0:
220,108,423506,1,0,0:0:0:0:
248,108,423585,1,0,0:0:0:0:
276,100,423663,5,8,0:0:0:0:
300,80,423742,1,0,0:0:0:0:
308,52,423821,1,0,0:0:0:0:
304,24,423900,1,0,0:0:0:0:
276,8,423979,1,0,0:0:0:0:
248,4,424058,1,0,0:0:0:0:
220,12,424137,1,0,0:0:0:0:
208,40,424216,1,0,0:0:0:0:
212,68,424295,5,8,0:0:0:0:
232,88,424374,1,0,0:0:0:0:
256,104,424453,1,0,0:0:0:0:
276,124,424532,1,0,0:0:0:0:
284,152,424611,1,0,0:0:0:0:
288,180,424690,1,0,0:0:0:0:
276,124,424769,1,0,0:0:0:0:
304,116,424848,1,0,0:0:0:0:
328,96,424927,5,8,0:0:0:0:
344,72,425006,1,0,0:0:0:0:
352,44,425085,1,0,0:0:0:0:
380,44,425163,1,0,0:0:0:0:
408,32,425242,5,0,0:0:0:0:
436,40,425321,1,0,0:0:0:0:
464,28,425400,1,0,0:0:0:0:
492,40,425479,1,0,0:0:0:0:
508,64,425558,5,12,0:0:0:0:
256,192,425637,12,0,427769,0:0:0:0:
68,64,439163,5,0,0:0:0:0:
84,80,439234,1,0,0:0:0:0:
100,96,439305,1,0,0:0:0:0:
120,108,439377,1,0,0:0:0:0:
144,116,439448,5,0,0:0:0:0:
168,120,439520,1,0,0:0:0:0:
192,124,439591,1,0,0:0:0:0:
216,132,439663,1,0,0:0:0:0:
236,144,439734,1,0,0:0:0:0:
256,160,439806,5,0,0:0:0:0:
272,176,439877,1,0,0:0:0:0:
280,196,439949,1,0,0:0:0:0:
280,220,440020,1,0,0:0:0:0:
276,244,440091,5,0,0:0:0:0:
264,264,440163,1,0,0:0:0:0:
248,280,440234,1,0,0:0:0:0:
228,292,440306,1,0,0:0:0:0:
204,300,440377,5,0,0:0:0:0:
180,300,440449,1,0,0:0:0:0:
156,292,440520,1,0,0:0:0:0:
140,276,440591,1,0,0:0:0:0:
132,252,440663,5,0,0:0:0:0:
136,228,440734,1,0,0:0:0:0:
144,204,440806,1,0,0:0:0:0:
164,192,440877,1,0,0:0:0:0:
184,184,440949,5,0,0:0:0:0:
208,176,441020,1,0,0:0:0:0:
232,172,441091,1,0,0:0:0:0:
256,172,441163,1,0,0:0:0:0:
280,176,441234,1,0,0:0:0:0:
304,184,441306,1,0,0:0:0:0:
336,192,441377,2,0,P|364:232|268:240,1,180.000006866455
216,304,441734,6,0,P|176:336|64:320,1,135.000005149842
44,240,442115,1,0,0:0:0:0:
52,184,442210,1,0,0:0:0:0:
52,132,442306,1,0,0:0:0:0:
36,88,442401,1,0,0:0:0:0:
8,48,442496,1,0,0:0:0:0:
136,64,442591,2,0,P|168:96|224:100,2,90.0000034332277,0|0|0,0:0|0:0|0:0,0:0:0:0:
284,196,443163,2,0,P|292:288|220:288,1,180.000006866455
156,340,443449,2,0,P|76:344|52:224,1,215.999993408203
12,172,443734,5,0,0:0:0:0:
24,140,443829,1,0,0:0:0:0:
36,112,443925,1,0,0:0:0:0:
48,84,444020,1,0,0:0:0:0:
60,56,444115,1,0,0:0:0:0:
72,28,444210,1,0,0:0:0:0:
160,88,444306,6,0,P|224:128|284:104,1,135.000005149842
264,204,444687,2,0,P|352:160|352:56,1,180.000006866455
365,74,444925,2,0,L|432:88,3,67.5000025749208,0|0|0|0,0:0|0:0|0:0|0:0,0:0:0:0:
354,207,445544,6,0,L|424:264,1,90.0000034332277
284,304,446020,2,0,B|228:264|168:288|168:288|128:264|104:200,1,225.000008583069
96,180,446591,1,0,0:0:0:0:
88,144,446686,1,0,0:0:0:0:
96,112,446782,1,0,0:0:0:0:
112,84,446877,1,0,0:0:0:0:
132,64,446972,1,0,0:0:0:0:
160,48,447067,1,0,0:0:0:0:
196,32,447163,1,0,0:0:0:0:
228,112,447353,5,0,0:0:0:0:
264,20,447449,2,0,L|264:56,1,22.5000008583069
308,140,447639,1,0,0:0:0:0:
377,69,447734,2,0,L|352:96,1,22.5000008583069
284,263,448020,6,0,P|322:315|275:344,1,135.000005149842
244,332,448401,1,0,0:0:0:0:
216,320,448496,1,0,0:0:0:0:
184,312,448591,1,0,0:0:0:0:
152,308,448687,1,0,0:0:0:0:
120,300,448782,1,0,0:0:0:0:
88,300,448877,1,0,0:0:0:0:
60,312,448972,1,0,0:0:0:0:
44,284,449068,5,0,0:0:0:0:
32,256,449163,1,0,0:0:0:0:
24,224,449258,1,0,0:0:0:0:
20,192,449353,1,0,0:0:0:0:
20,160,449449,1,0,0:0:0:0:
60,112,449639,1,0,0:0:0:0:
112,76,449829,1,0,0:0:0:0:
144,88,449925,1,0,0:0:0:0:
180,140,450115,1,0,0:0:0:0:
212,196,450306,1,0,0:0:0:0:
240,212,450401,1,0,0:0:0:0:
300,340,450591,6,0,P|368:320|352:252,1,135.000005149842
408,188,450972,5,0,0:0:0:0:
412,144,451068,1,0,0:0:0:0:
408,100,451163,1,0,0:0:0:0:
384,56,451258,1,0,0:0:0:0:
340,36,451353,1,0,0:0:0:0:
296,32,451449,1,0,0:0:0:0:
264,48,451544,6,0,P|252:112|212:128,1,90.0000034332277
168,160,451829,2,0,P|92:136|16:220,1,180.000006866455
32,276,452115,2,0,P|128:316|192:248,1,180.000006866455
248,208,452401,2,0,L|432:212,1,180.000006866455
408,128,452687,2,0,L|272:128,1,120
256,104,452877,5,0,0:0:0:0:
228,92,452972,1,0,0:0:0:0:
192,88,453068,1,0,0:0:0:0:
160,96,453163,1,0,0:0:0:0:
128,112,453258,1,0,0:0:0:0:
100,128,453353,1,0,0:0:0:0:
76,148,453449,1,0,0:0:0:0:
48,168,453544,2,0,L|56:216,5,45.0000017166138,0|0|0|0|0|0,0:0|0:0|0:0|0:0|0:0|0:0,0:0:0:0:
136,256,453925,5,0,0:0:0:0:
164,268,454020,1,0,0:0:0:0:
264,272,454210,1,0,0:0:0:0:
296,256,454306,1,0,0:0:0:0:
372,144,454496,1,0,0:0:0:0:
400,156,454591,1,0,0:0:0:0:
408,296,454877,1,0,0:0:0:0:
312,304,455163,5,0,0:0:0:0:
284,312,455258,1,0,0:0:0:0:
252,320,455353,1,0,0:0:0:0:
220,328,455449,1,0,0:0:0:0:
188,332,455544,1,0,0:0:0:0:
156,332,455639,1,0,0:0:0:0:
128,324,455734,1,0,0:0:0:0:
100,312,455829,1,0,0:0:0:0:
72,296,455925,1,0,0:0:0:0:
44,280,456020,1,0,0:0:0:0:
28,252,456115,6,0,P|32:192|40:176,9,45.0000017166138,0|0|0|0|0|0|0|0|0|0,0:0|0:0|0:0|0:0|0:0|0:0|0:0|0:0|0:0|0:0,0:0:0:0:
40,180,457068,1,0,0:0:0:0:
56,152,457163,1,0,0:0:0:0:
76,128,457258,1,0,0:0:0:0:
104,112,457353,1,0,0:0:0:0:
136,96,457449,1,0,0:0:0:0:
192,168,457591,5,0,0:0:0:0:
192,168,457734,1,0,0:0:0:0:
164,272,457877,1,0,0:0:0:0:
248,336,458020,1,0,0:0:0:0:
272,316,458091,1,0,0:0:0:0:
296,300,458163,1,0,0:0:0:0:
368,256,458306,1,0,0:0:0:0:
384,180,458449,5,0,0:0:0:0:
456,124,458591,2,0,P|440:64|420:44,1,67.5000025749208
356,32,458877,2,0,P|364:84|392:112,1,67.5000025749208
300,164,459163,1,0,0:0:0:0:
300,164,459234,1,0,0:0:0:0:
300,164,459306,1,0,0:0:0:0:
240,268,459734,6,0,P|192:320|124:320,1,135.000005149842
40,224,460020,1,0,0:0:0:0:
92,152,460163,2,0,P|148:96|172:24,1,135.000005149842
240,104,460449,1,0,0:0:0:0:
260,124,460520,1,0,0:0:0:0:
288,140,460591,2,0,P|384:160|440:136,1,135.000005149842
220,224,460877,5,0,0:0:0:0:
208,248,460949,1,0,0:0:0:0:
192,272,461020,1,0,0:0:0:0:
172,288,461091,1,0,0:0:0:0:
152,308,461163,2,0,P|80:320|24:272,1,135.000005149842
28,260,461377,6,0,B|72:288|84:152|84:152|156:164|168:108,1,202.500007724762
260,152,461734,6,0,L|236:224,1,67.5000025749208
336,168,461877,2,0,L|328:260,1,67.5000025749208
340,264,462020,6,0,P|408:308|488:296,1,135.000005149842
412,232,462306,2,0,P|368:188|264:244,1,135.000005149842
288,208,462520,1,0,0:0:0:0:
276,224,462591,1,0,0:0:0:0:
264,236,462663,1,0,0:0:0:0:
248,248,462734,1,0,0:0:0:0:
160,180,462877,6,0,P|92:88|100:44,1,135.000005149842
156,32,463163,1,0,0:0:0:0:
208,96,463306,2,0,L|288:100,1,67.5000025749208
240,176,463449,2,0,L|312:208,1,67.5000025749208
388,252,463591,5,0,0:0:0:0:
376,268,463663,1,0,0:0:0:0:
360,280,463734,1,0,0:0:0:0:
344,292,463806,1,0,0:0:0:0:
328,296,463877,1,0,0:0:0:0:
312,296,463949,2,0,L|144:136,1,202.500007724762
96,224,464306,5,0,0:0:0:0:
164,68,464449,1,0,0:0:0:0:
52,136,464591,2,0,P|4:136|-16:100,1,67.5000025749208
208,144,464877,2,0,P|264:164|284:188,1,67.5000025749208
268,192,465091,1,0,0:0:0:0:
268,216,465163,1,0,0:0:0:0:
236,336,465306,5,0,0:0:0:0:
328,268,465449,1,0,0:0:0:0:
172,280,465591,2,0,P|124:264|96:248,1,67.5000025749208
380,320,465877,2,0,P|428:336|456:336,1,67.5000025749208
440,208,466163,5,0,0:0:0:0:
428,188,466234,1,0,0:0:0:0:
412,168,466306,1,0,0:0:0:0:
396,148,466377,1,0,0:0:0:0:
380,132,466449,1,0,0:0:0:0:
224,68,466591,6,0,L|224:144,1,67.5000025749208
112,116,466877,2,0,L|160:196,1,67.5000025749208
64,232,467163,1,0,0:0:0:0:
88,248,467234,1,0,0:0:0:0:
112,264,467306,1,0,0:0:0:0:
140,276,467377,1,0,0:0:0:0:
164,288,467449,1,0,0:0:0:0:
280,288,467663,2,0,P|280:228|324:196,1,101.250003862381
208,160,468020,5,0,0:0:0:0:
264,40,468163,1,0,0:0:0:0:
276,172,468306,1,0,0:0:0:0:
196,60,468449,1,0,0:0:0:0:
324,108,468591,1,0,0:0:0:0:
180,132,468734,1,0,0:0:0:0:
200,248,468877,6,0,P|168:336|96:336,1,135.000005149842
56,284,469163,1,0,0:0:0:0:
32,128,469306,1,0,0:0:0:0:
32,144,469377,1,0,0:0:0:0:
32,160,469449,1,0,0:0:0:0:
32,176,469520,1,0,0:0:0:0:
32,192,469591,1,0,0:0:0:0:
32,212,469663,2,0,L|32:0,1,202.500007724762,0|0,0:0|0:0,0:0:0:0:
148,56,470020,5,0,0:0:0:0:
256,120,470163,1,0,0:0:0:0:
192,240,470306,1,0,0:0:0:0:
424,92,470449,1,0,0:0:0:0:
408,96,470520,1,0,0:0:0:0:
392,100,470591,1,0,0:0:0:0:
376,104,470663,1,0,0:0:0:0:
360,104,470734,1,0,0:0:0:0:
328,208,470877,6,0,P|336:296|256:344,1,135.000005149842
96,180,471163,5,0,0:0:0:0:
164,96,471306,1,0,0:0:0:0:
184,260,471449,2,0,P|160:332|88:364,1,135.000005149842
344,152,471734,1,0,0:0:0:0:
332,156,471806,1,0,0:0:0:0:
320,160,471877,1,0,0:0:0:0:
308,164,471949,1,0,0:0:0:0:
296,168,472020,1,0,0:0:0:0:
208,64,472163,2,0,P|148:24|72:48,1,135.000005149842
32,148,472449,6,0,B|88:208|88:208|88:316,1,135.000005149842
100,336,472734,2,0,P|168:352|232:336,1,135.000005149842
224,168,473020,1,0,0:0:0:0:
220,192,473091,1,0,0:0:0:0:
216,224,473163,1,0,0:0:0:0:
220,256,473234,1,0,0:0:0:0:
240,288,473306,1,0,0:0:0:0:
392,208,473449,6,0,P|392:108|352:64,1,135.000005149842
374,82,473663,1,0,0:0:0:0:
374,82,473734,1,0,0:0:0:0:
374,82,473806,1,0,0:0:0:0:
374,82,473877,1,0,0:0:0:0:
348,80,473949,1,0,0:0:0:0:
320,84,474020,1,0,0:0:0:0:
292,92,474091,1,0,0:0:0:0:
268,100,474163,1,0,0:0:0:0:
244,112,474234,1,0,0:0:0:0:
220,128,474306,1,0,0:0:0:0:
200,148,474377,1,0,0:0:0:0:
180,164,474449,1,0,0:0:0:0:
156,180,474520,1,0,0:0:0:0:
132,196,474591,1,0,0:0:0:0:
104,196,474663,6,0,L|56:264,1,67.5000025749208
144,264,474806,2,0,L|112:336,1,67.5000025749208
208,304,474949,2,0,L|204:380,1,67.5000025749208
272,272,475091,2,0,L|328:348,1,67.5000025749208
312,208,475234,2,0,L|392:292,1,67.5000025749208
384,244,475377,5,0,0:0:0:0:
404,228,475449,1,0,0:0:0:0:
424,208,475520,1,0,0:0:0:0:
440,188,475591,1,0,0:0:0:0:
452,164,475663,1,0,0:0:0:0:
464,140,475734,1,0,0:0:0:0:
472,116,475806,2,0,P|488:72|488:40,5,67.5000025749208,0|0|0|0|0|0,0:0|0:0|0:0|0:0|0:0|0:0,0:0:0:0:
468,36,476234,2,0,P|420:48|368:48,5,67.5000025749208,0|0|0|0|0|0,0:0|0:0|0:0|0:0|0:0|0:0,0:0:0:0:
376,60,476663,5,0,0:0:0:0:
356,76,476734,1,0,0:0:0:0:
336,96,476806,1,0,0:0:0:0:
316,112,476877,2,0,L|240:164,1,67.5000025749208
340,184,477020,2,0,L|284:252,1,67.5000025749208
404,244,477163,2,0,L|380:328,1,67.5000025749208
360,316,477306,5,0,0:0:0:0:
332,316,477377,1,0,0:0:0:0:
304,316,477449,1,0,0:0:0:0:
276,312,477520,1,0,0:0:0:0:
248,308,477591,1,0,0:0:0:0:
228,292,477663,1,0,0:0:0:0:
208,276,477734,2,0,B|164:212|176:128|176:128|124:200|60:176,1,270.000010299683
56,268,478163,6,0,P|56:316|76:340,1,67.5000025749208
128,288,478449,2,0,P|152:332|188:344,1,67.5000025749208
208,280,478734,2,0,P|256:320|280:320,1,67.5000025749208
276,244,479020,2,0,P|336:252|360:248,1,67.5000025749208
324,176,479306,5,0,0:0:0:0:
408,136,479449,1,0,0:0:0:0:
344,68,479591,1,0,0:0:0:0:
256,116,479734,1,0,0:0:0:0:
100,152,479877,2,0,L|100:236,1,67.5000025749208
200,256,480163,2,0,L|200:176,1,67.5000025749208
284,268,480449,2,0,B|200:260|200:260|160:308,1,135.000005149842
60,292,480877,6,0,P|36:240|12:228,1,67.5000025749208
120,216,481163,2,0,P|136:172|176:160,1,67.5000025749208
56,104,481449,5,0,0:0:0:0:
128,12,481591,1,0,0:0:0:0:
192,104,481734,1,0,0:0:0:0:
264,12,481877,1,0,0:0:0:0:
320,88,482020,6,0,L|328:160,1,67.5000025749208,0|0,0:0|0:0,0:0:0:0:
432,280,482306,2,0,L|420:192,1,67.5000025749208
292,232,482591,2,0,B|264:240|264:240|216:232,1,67.5000025749208
416,128,482877,2,0,B|448:116|448:116|512:128,1,67.5000025749208
348,308,483163,5,0,0:0:0:0:
328,160,483306,1,0,0:0:0:0:
416,260,483449,1,0,0:0:0:0:
260,212,483591,1,0,0:0:0:0:
408,180,483734,1,0,0:0:0:0:
284,288,483877,1,0,0:0:0:0:
184,304,484020,2,0,P|148:344|112:360,1,67.5000025749208
20,320,484306,2,0,P|56:284|84:272,1,67.5000025749208
176,176,484591,2,0,B|224:200|224:200|252:240|296:244,1,135.000005149842,0|0,0:0|0:0,0:0:0:0:
176,176,485020,5,0,0:0:0:0:
152,72,485163,1,0,0:0:0:0:
292,244,485306,1,0,0:0:0:0:
220,320,485449,1,0,0:0:0:0:
120,264,485591,6,0,P|48:268|24:272,1,67.5000025749208
272,144,485877,2,0,L|364:144,1,67.5000025749208
352,224,486163,2,0,P|408:196|416:176,2,67.5000025749208,0|0|0,0:0|0:0|0:0,0:0:0:0:
164,164,486591,1,0,0:0:0:0:
240,240,486734,1,0,0:0:0:0:
240,140,486877,1,0,0:0:0:0:
356,224,487020,1,0,0:0:0:0:
408,88,487306,5,0,0:0:0:0:
452,168,487449,1,0,0:0:0:0:
432,264,487592,1,0,0:0:0:0:
420,280,487663,1,0,0:0:0:0:
408,296,487734,1,0,0:0:0:0:
396,312,487806,1,0,0:0:0:0:
384,328,487877,1,0,0:0:0:0:
260,300,488020,6,0,B|216:252|216:252|144:256,1,135.000005149842
40,212,488449,1,0,0:0:0:0:
80,132,488591,1,0,0:0:0:0:
96,112,488663,1,0,0:0:0:0:
112,92,488734,1,0,0:0:0:0:
128,68,488806,1,0,0:0:0:0:
140,44,488877,1,0,0:0:0:0:
240,72,489020,1,0,0:0:0:0:
288,172,489163,2,0,P|320:240|268:272,1,135.000005149842
184,284,489591,6,0,L|96:240,1,67.5000025749208,0|0,0:0|0:0,0:0:0:0:
36,208,489877,1,0,0:0:0:0:
16,120,490020,2,0,P|44:80|56:32,1,67.5000025749208
148,148,490306,2,0,P|116:192|104:224,1,67.5000025749208
184,64,490591,5,0,0:0:0:0:
272,68,490734,1,0,0:0:0:0:
104,256,490877,1,0,0:0:0:0:
8,268,491020,1,0,0:0:0:0:
272,176,491163,1,0,0:0:0:0:
260,260,491306,1,0,0:0:0:0:
64,144,491449,1,0,0:0:0:0:
88,56,491591,1,0,0:0:0:0:
256,40,491734,5,0,0:0:0:0:
268,48,491806,1,0,0:0:0:0:
280,56,491877,1,0,0:0:0:0:
292,64,491949,1,0,0:0:0:0:
300,72,492020,1,0,0:0:0:0:
312,80,492091,1,0,0:0:0:0:
324,88,492163,1,0,0:0:0:0:
332,100,492234,1,0,0:0:0:0:
336,112,492306,1,0,0:0:0:0:
340,124,492377,1,0,0:0:0:0:
344,136,492449,1,0,0:0:0:0:
348,148,492520,1,0,0:0:0:0:
348,160,492591,1,0,0:0:0:0:
348,172,492663,1,0,0:0:0:0:
340,184,492734,1,0,0:0:0:0:
332,196,492806,1,0,0:0:0:0:
324,208,492877,1,0,0:0:0:0:
312,216,492949,1,0,0:0:0:0:
300,220,493020,1,0,0:0:0:0:
288,220,493091,1,0,0:0:0:0:
276,220,493163,1,0,0:0:0:0:
264,216,493234,1,0,0:0:0:0:
252,208,493306,1,0,0:0:0:0:
240,200,493377,1,0,0:0:0:0:
228,192,493449,1,0,0:0:0:0:
220,180,493520,1,0,0:0:0:0:
212,168,493591,1,0,0:0:0:0:
200,164,493663,1,0,0:0:0:0:
188,160,493734,1,0,0:0:0:0:
176,156,493806,1,0,0:0:0:0:
164,156,493877,1,0,0:0:0:0:
152,160,493949,1,0,0:0:0:0:
140,164,494020,1,0,0:0:0:0:
128,172,494091,1,0,0:0:0:0:
120,184,494163,1,0,0:0:0:0:
124,196,494234,1,0,0:0:0:0:
128,208,494306,1,0,0:0:0:0:
128,220,494377,1,0,0:0:0:0:
132,232,494449,1,0,0:0:0:0:
140,244,494520,1,0,0:0:0:0:
152,252,494591,1,0,0:0:0:0:
164,256,494663,1,0,0:0:0:0:
176,260,494734,1,0,0:0:0:0:
188,264,494806,1,0,0:0:0:0:
196,272,494877,1,0,0:0:0:0:
204,280,494949,1,0,0:0:0:0:
216,288,495020,1,0,0:0:0:0:
228,296,495091,2,0,P|264:316|272:316,9,33.7500012874604,0|0|0|0|0|0|0|0|0|0,0:0|0:0|0:0|0:0|0:0|0:0|0:0|0:0|0:0|0:0,0:0:0:0:
268,312,495806,2,0,P|296:288|312:288,7,33.7500012874604,0|0|0|0|0|0|0|0,0:0|0:0|0:0|0:0|0:0|0:0|0:0|0:0,0:0:0:0:
376,288,496401,5,0,0:0:0:0:
388,260,496496,1,0,0:0:0:0:
400,232,496591,1,0,0:0:0:0:
412,204,496687,1,0,0:0:0:0:
424,176,496782,1,0,0:0:0:0:
432,144,496877,1,0,0:0:0:0:
440,112,496972,1,0,0:0:0:0:
448,80,497068,1,0,0:0:0:0:
416,60,497163,2,0,P|360:68|420:8,1,215.999993408203
92,148,507757,6,0,P|172:192|200:184,1,90,2|2,0:0|0:0,0:0:0:0:
420,148,508849,2,0,P|340:192|312:184,1,90,2|2,0:0|0:0,0:0:0:0:
256,44,509939,1,2,0:0:0:0:
248,224,511030,6,0,L|232:256,15,22.5,8|8|8|8|8|8|8|8|8|8|8|8|8|8|8|8,0:0|0:0|0:0|0:0|0:0|0:0|0:0|0:0|0:0|0:0|0:0|0:0|0:0|0:0|0:0|0:0,0:0:0:0:
228,264,511530,5,8,0:0:0:0:
195,272,511592,1,8,0:0:0:0:
161,268,511655,1,8,0:0:0:0:
131,254,511717,1,8,0:0:0:0:
107,231,511780,1,8,0:0:0:0:
92,201,511842,1,8,0:0:0:0:
88,167,511905,1,8,0:0:0:0:
96,134,511967,1,8,0:0:0:0:
114,106,512030,6,0,L|196:40,1,90,2|0,0:0|0:0,0:0:0:0:
372,112,512280,1,2,0:0:0:0:
114,106,512405,2,0,L|24:124,2,90,0|2|0,0:0|0:0|2:0,0:0:0:0:
372,112,512780,2,0,L|462:129,2,90,2|0|2,0:0|0:0|0:0,0:0:0:0:
131,254,513155,1,0,0:0:0:0:
56,281,513280,2,0,P|82:317|124:332,1,90,2|0,0:0|0:0,0:0:0:0:
456,281,513530,2,0,P|430:317|388:332,1,90,2|0,0:0|0:0,0:0:0:0:
381,254,513780,6,2,L|380:188,1,45,2|0,0:0|0:0,0:0:0:0:
328,84,514177,37,2,0:0:0:0:
396,96,514302,2,0,L|488:104,1,90,2|2,0:0|2:0,0:0:0:0:
348,148,514552,2,0,L|340:244,1,90,2|2,0:0|2:0,0:0:0:0:
328,84,514802,6,2,L|296:20,1,45,10|0,0:0|0:0,0:0:0:0:
184,36,515211,6,0,L|232:116,1,90,2|2,2:0|2:0,2:0:0:0:
328,84,515461,1,0,0:0:0:0:
380,184,515586,6,2,L|340:264,1,90,2|0,0:0|2:0,0:0:0:0:
216,204,516256,5,6,0:0:0:0:
340,264,516381,1,2,0:0:0:0:
244,340,516506,1,2,0:0:0:0:
113,334,516631,38,0,L|48:268,1,90,10|2,0:0|2:0,2:0:0:0:
64,184,516881,2,0,L|128:248,1,90,2|2,2:0|0:0,0:0:0:0:
113,314,517131,54,0,L|48:248,1,90,10|2,0:0|0:0,0:0:0:0:
64,164,517381,2,0,L|128:228,1,90,2|2,0:0|0:0,0:0:0:0:
113,294,517631,6,0,L|44:224,1,90,10|2,0:0|0:0,0:0:0:0:
64,144,517881,2,0,L|128:208,1,90,2|2,0:0|0:0,0:0:0:0:
448,144,518131,6,2,L|392:204,1,45,2|0,0:0|0:0,0:0:0:0:
360,312,518528,5,2,0:0:0:0:
256,104,518653,1,2,2:0:0:0:
132,296,518778,1,2,2:0:0:0:
360,312,518903,1,2,0:0:0:0:
448,144,519028,2,0,P|416:56|284:40,1,180,2|2,0:0|0:0,0:0:0:0:
256,104,519403,2,0,L|180:180,1,90,2|2,0:0|0:0,0:0:0:0:
184,292,519653,6,0,L|192:316,14,22.5,8|8|8|8|8|8|8|8|8|8|8|8|8|8|8,0:0|0:0|0:0|0:0|0:0|0:0|0:0|0:0|0:0|0:0|0:0|0:0|0:0|0:0|0:0,0:0:0:0:
256,316,520153,6,0,L|364:316,1,90,2|0,0:0|0:0,0:0:0:0:
472,216,520403,2,0,L|364:216,1,90,2|0,0:0|0:0,0:0:0:0:
276,306,520653,2,0,L|384:306,1,90,2|0,0:0|0:0,0:0:0:0:
492,206,520903,2,0,L|384:206,1,90,2|0,0:0|0:0,0:0:0:0:
256,316,521153,6,0,L|148:316,1,90,2|0,0:0|0:0,0:0:0:0:
40,216,521403,2,0,L|148:216,1,90,2|0,0:0|0:0,0:0:0:0:
236,306,521653,2,0,L|128:306,1,90,2|0,0:0|0:0,0:0:0:0:
20,206,521903,2,0,L|128:206,1,90,2|0,0:0|0:0,0:0:0:0:
256,120,522153,6,0,L|360:88,1,90,2|0,0:0|0:0,0:0:0:0:
416,164,522403,2,0,L|312:196,1,90,2|0,0:0|0:0,0:0:0:0:
256,120,522653,2,0,L|360:88,1,90,2|0,0:0|0:0,0:0:0:0:
416,164,522903,2,0,L|312:196,1,90,2|8,0:0|0:0,0:0:0:0:
292,200,523090,1,8,1:0:0:0:
256,212,523153,5,10,1:0:0:0:
220,200,523216,1,8,1:0:0:0:
182,190,523278,2,0,L|96:164,1,90,8|2,0:0|0:0,0:0:0:0:
172,76,523528,1,0,0:0:0:0:
182,190,523653,2,0,L|184:296,1,90,2|0,0:0|0:0,0:0:0:0:
329,190,523903,2,0,L|328:280,1,90,2|0,0:0|0:0,0:0:0:0:
428,344,524153,6,0,L|456:248,1,90,2|0,0:0|0:0,0:0:0:0:
104,364,524403,2,0,L|200:392,1,90,2|0,0:0|0:0,0:0:0:0:
84,40,524653,2,0,L|56:136,1,90,2|0,0:0|0:0,0:0:0:0:
408,32,524903,1,2,0:0:0:0:
296,0,525028,2,0,P|276:68|176:104,1,180
115,28,525403,6,0,P|155:7|200:8,1,90,2|0,0:0|0:0,0:0:0:0:
396,355,525653,2,0,P|356:376|312:376,1,90,2|0,0:0|0:0,0:0:0:0:
216,384,525903,2,0,P|222:339|247:303,1,90,2|0,0:0|0:0,0:0:0:0:
295,0,526153,2,0,P|289:44|264:80,1,90,2|0,0:0|0:0,0:0:0:0:
448,231,526403,2,0,P|403:225|367:200,1,90,2|0,0:0|0:0,0:0:0:0:
216,384,526653,2,0,P|222:339|247:303,1,90,2|0,0:0|0:0,0:0:0:0:
63,152,526903,2,0,P|108:158|144:183,1,90,2|0,0:0|0:0,0:0:0:0:
296,0,527153,1,2,0:0:0:0:
448,232,527278,1,0,0:0:0:0:
216,384,527403,1,2,0:0:0:0:
64,152,527528,1,0,0:0:0:0:
172,128,527653,6,0,L|163:148,7,22.5,8|8|8|8|8|8|8|8,0:0|0:0|0:0|0:0|0:0|0:0|0:0|0:0,0:0:0:0:
200,164,527913,6,0,L|192:192,7,22.5,8|8|8|8|8|8|8|8,0:0|0:0|0:0|0:0|0:0|0:0|0:0|0:0,0:0:0:0:
228,200,528185,6,0,L|216:228,7,22.5,8|8|8|8|8|8|8|8,0:0|0:0|0:0|0:0|0:0|0:0|0:0|0:0,0:0:0:0:
256,236,528470,6,0,L|248:260,7,22.5,8|8|8|8|8|8|8|8,0:0|0:0|0:0|0:0|0:0|0:0|0:0|0:0,0:0:0:0:
284,272,528770,6,0,L|272:300,7,22.5,8|8|8|8|8|8|8|8,0:0|0:0|0:0|0:0|0:0|0:0|0:0|0:0,0:0:0:0:
312,308,529085,6,8,L|300:336,7,22.5,8|8|8|8|8|8|8|8,0:0|0:0|0:0|0:0|0:0|0:0|0:0|0:0,0:0:0:0:
336,348,529418,6,0,P|400:336|420:296,1,90,14|0,0:0|0:0,0:0:0:0:
420,204,529690,2,0,P|356:216|336:256,1,90,14|0,0:0|0:0,0:0:0:0:
264,272,529963,6,0,P|184:284|116:264,1,135.000005149842,2|0,0:0|0:0,0:0:0:0:
92,108,530371,2,0,P|172:96|240:116,1,135.000005149842,2|0,0:0|0:0,0:0:0:0:
264,346,530781,2,0,P|184:358|116:338,1,135.000005149842,2|0,0:0|0:0,0:0:0:0:
92,34,531190,2,0,P|172:22|240:42,1,135.000005149842,2|0,0:0|0:0,0:0:0:0:
360,148,531599,2,0,L|444:188,1,67.5000025749208,2|2,0:0|0:0,0:0:0:0:
480,120,531872,2,0,L|396:80,1,67.5000025749208,2|2,0:0|0:0,0:0:0:0:
360,148,532144,6,0,L|392:284,1,135.000005149842,2|0,0:0|0:0,0:0:0:0:
300,296,532554,2,0,L|164:328,1,135.000005149842,2|0,0:0|0:0,0:0:0:0:
152,236,532963,2,0,L|120:100,1,135.000005149842,2|0,0:0|0:0,0:0:0:0:
212,88,533372,2,0,L|348:56,1,135.000005149842,2|0,0:0|0:0,0:0:0:0:
360,148,533781,2,0,L|374:213,1,67.5000025749208,2|2,0:0|0:0,0:0:0:0:
152,236,534053,2,0,L|137:170,1,67.5000025749208,2|2,0:0|0:0,0:0:0:0:
360,148,534326,6,0,P|416:108|384:32,1,135.000005149842,2|0,0:0|0:0,0:0:0:0:
105,49,534735,2,0,P|98:113|152:148,1,135.000005149842,2|0,0:0|0:0,0:0:0:0:
360,148,535145,2,0,P|416:188|384:264,1,135.000005149842,2|0,0:0|0:0,0:0:0:0:
105,246,535554,2,0,P|98:182|152:148,1,135.000005149842,2|0,0:0|0:0,0:0:0:0:
360,148,535963,2,0,L|440:148,1,67.5000025749208,2|2,0:0|0:0,0:0:0:0:
152,148,536235,2,0,L|72:148,1,67.5000025749208,2|2,0:0|0:0,0:0:0:0:
360,148,536508,6,0,L|380:8,1,135.000005149842,2|0,0:0|0:0,0:0:0:0:
152,236,536917,2,0,L|132:376,1,135.000005149842,2|0,0:0|0:0,0:0:0:0:
212,88,537326,2,0,L|72:68,1,135.000005149842,2|0,0:0|0:0,0:0:0:0:
300,296,537735,2,0,L|440:316,1,135.000005149842,2|0,0:0|0:0,0:0:0:0:
152,236,538144,2,0,P|160:188|184:156,1,67.5000025749208,2|2,0:0|0:0,0:0:0:0:
360,148,538417,2,0,P|352:196|328:228,1,67.5000025749208,2|2,0:0|0:0,0:0:0:0:
152,236,538690,6,0,B|116:236|116:236|96:272,2,67.5000025749208,2|2|0,0:0|0:0|0:0,0:0:0:0:
360,236,539099,2,0,B|396:236|396:236|416:272,2,67.5000025749208,2|2|0,0:0|0:0|0:0,0:0:0:0:
256,276,539508,2,0,L|256:344,2,67.5000025749208,2|2|0,0:0|0:0|0:0,0:0:0:0:
256,108,539917,2,0,L|256:40,2,67.5000025749208,2|2|0,0:0|0:0|0:0,0:0:0:0:
172,192,540326,2,0,L|104:192,1,67.5000025749208,2|2,0:0|0:0,0:0:0:0:
340,192,540599,2,0,L|408:192,1,67.5000025749208,2|2,0:0|0:0,0:0:0:0:
444,280,540872,6,0,P|488:248|488:144,1,135.000005149842,2|0,0:0|0:0,0:0:0:0:
68,104,541281,2,0,P|24:136|24:240,1,135.000005149842,2|0,0:0|0:0,0:0:0:0:
408,144,541690,2,0,P|440:96|532:80,1,135.000005149842,2|0,0:0|0:0,0:0:0:0:
104,240,542099,2,0,P|72:288|-20:304,1,135.000005149842,2|0,0:0|0:0,0:0:0:0:
10,211,542508,2,0,P|7:178|17:146,1,67.5000025749208,2|2,0:0|0:0,0:0:0:0:
501,172,542781,2,0,P|504:205|494:237,1,67.5000025749208,2|2,0:0|0:0,0:0:0:0:
420,284,543053,6,0,L|285:284,1,135.000005149842,2|0,0:0|0:0,0:0:0:0:
92,100,543463,2,0,L|252:100,1,135.000005149842,2|0,0:0|0:0,0:0:0:0:
328,216,543872,2,0,L|193:216,1,135.000005149842,2|0,0:0|0:0,0:0:0:0:
0,32,544282,2,0,L|160:32,1,135.000005149842,2|0,0:0|0:0,0:0:0:0:
328,216,544690,2,0,L|368:160,1,67.5000025749208,2|2,0:0|0:0,0:0:0:0:
184,168,544963,2,0,L|144:224,1,67.5000025749208,2|2,0:0|0:0,0:0:0:0:
328,216,545235,6,0,P|392:236|436:304,1,135.000005149842,2|0,0:0|0:0,0:0:0:0:
424,232,545645,2,0,P|444:168|512:124,1,135.000005149842,2|0,0:0|0:0,0:0:0:0:
440,136,546053,2,0,P|376:116|332:48,1,135.000005149842,2|0,0:0|0:0,0:0:0:0:
344,120,546463,2,0,P|324:184|256:228,1,135.000005149842,2|0,0:0|0:0,0:0:0:0:
188,252,546872,1,2,0:0:0:0:
232,116,547008,1,2,0:0:0:0:
92,145,547144,6,0,L|80:168,7,16.8750006437302,8|8|8|8|8|8|8|8,0:0|0:0|0:0|0:0|0:0|0:0|0:0|0:0,0:0:0:0:
84,184,547417,5,8,0:0:0:0:
84,184,547484,1,0,0:0:0:0:
84,184,547551,6,0,P|116:232|120:268,1,90,2|8,0:0|0:0,0:0:0:0:
248,364,547818,2,0,P|296:332|332:328,1,90,2|8,0:0|0:0,0:0:0:0:
428,200,548084,2,0,P|396:152|392:116,1,90,2|8,0:0|0:0,0:0:0:0:
264,20,548351,2,0,P|216:52|180:56,1,90,2|8,0:0|0:0,0:0:0:0:
84,184,548618,6,0,L|96:288,1,90,2|8,0:0|0:0,0:0:0:0:
224,200,548884,1,2,0:0:0:0:
336,128,549018,1,10,0:0:0:0:
342,260,549151,1,2,0:0:0:0:
224,200,549284,5,14,0:0:0:0:
224,200,549351,1,0,0:0:0:0:
224,200,549418,2,0,L|188:96,1,90,6|8,0:0|0:0,0:0:0:0:
336,128,549684,2,0,P|400:128|440:148,1,90,0|8,0:0|0:0,0:0:0:0:
429,250,549952,2,0,P|386:263|342:260,1,90,0|14,0:0|0:0,0:0:0:0:
82,250,550218,1,6,0:0:0:0:
116,56,550351,5,8,0:0:0:0:
137,60,550417,1,0,0:0:0:0:
159,65,550484,1,0,0:0:0:0:
181,70,550550,1,0,0:0:0:0:
204,76,550618,2,0,L|212:184,1,90,10|2,0:0|0:0,0:0:0:0:
340,104,550884,5,2,0:0:0:0:
416,124,550973,1,2,0:0:0:0:
396,200,551062,1,2,0:0:0:0:
320,180,551151,5,2,2:0:0:0:
293,175,551239,1,2,2:0:0:0:
267,174,551328,1,2,2:0:0:0:
240,177,551417,5,2,2:0:0:0:
215,185,551506,1,2,2:0:0:0:
191,197,551595,1,2,2:0:0:0:
169,213,551684,5,2,2:0:0:0:
151,231,551773,1,2,2:0:0:0:
135,253,551862,1,2,2:0:0:0:
124,280,551951,5,2,2:0:0:0:
144,296,552039,1,2,2:0:0:0:
168,309,552128,1,2,2:0:0:0:
193,317,552217,5,2,2:0:0:0:
220,320,552306,1,2,2:0:0:0:
246,318,552395,1,2,2:0:0:0:
272,312,552484,5,2,2:0:0:0:
296,301,552573,1,2,2:0:0:0:
318,286,552662,1,2,2:0:0:0:
337,268,552750,5,10,2:0:0:0:
240,140,552884,1,2,0:0:0:0:
210,238,553018,5,8,0:0:0:0:
240,140,553151,1,2,0:0:0:0:
324,148,553284,1,8,0:0:0:0:
324,148,553351,1,8,0:0:0:0:
324,148,553418,1,10,0:0:0:0:
330,226,553552,5,8,0:0:0:0:
330,226,553618,1,8,0:0:0:0:
330,226,553685,1,10,0:0:0:0:
332,344,553818,5,8,0:0:0:0:
354,343,553884,1,8,0:0:0:0:
375,336,553951,1,10,0:0:0:0:
393,323,554017,1,8,0:0:0:0:
407,306,554084,2,8,L|428:256,3,45,8|8|8|8,0:0|0:0|0:0|0:0,0:0:0:0:
436,208,554351,6,0,L|448:184,4,22.5,8|8|8|8|8,0:0|0:0|0:0|0:0|0:0,0:0:0:0:
76,208,554618,6,0,L|64:184,4,22.5,8|8|8|8|8,0:0|0:0|0:0|0:0|0:0,0:0:0:0:
124,100,554884,5,8,0:0:0:0:
204,63,555014,1,8,0:0:0:0:
291,81,555144,1,8,0:0:0:0:
349,147,555275,1,8,0:0:0:0:
386,227,555405,5,8,0:0:0:0:
368,314,555535,1,8,0:0:0:0:
302,372,555666,1,8,0:0:0:0:
210,372,555797,1,8,0:0:0:0:
144,314,555927,5,8,0:0:0:0:
126,227,556057,1,8,0:0:0:0:
162,147,556188,1,8,0:0:0:0:
220,81,556318,1,8,0:0:0:0:
307,63,556449,5,8,0:0:0:0:
388,100,556579,1,8,0:0:0:0:
444,204,556710,6,0,L|412:248,3,45,8|0|0|0,0:0|0:0|0:0|0:0,0:0:0:0:
412,304,556970,2,0,P|372:288|356:228,1,90,8|0,0:0|0:0,0:0:0:0:
68,204,557232,6,0,L|100:248,3,45,8|0|0|0,0:0|0:0|0:0|0:0,0:0:0:0:
100,304,557492,2,0,P|140:288|156:228,1,90,8|0,0:0|0:0,0:0:0:0:
184,132,557753,1,8,0:0:0:0:
216,20,557884,1,0,0:0:0:0:
256,128,558014,1,8,0:0:0:0:
296,236,558144,1,0,0:0:0:0:
328,124,558275,6,0,L|340:104,7,22.5,8|8|8|8|8|8|8|8,0:0|0:0|0:0|0:0|0:0|0:0|0:0|0:0,0:0:0:0:
368,40,558536,6,0,P|400:64|408:128,1,90,8|0,0:0|0:0,0:0:0:0:
412,273,558797,2,0,P|402:316|368:344,1,90,8|0,0:0|0:0,0:0:0:0:
144,344,559058,2,0,P|112:320|104:256,1,90,8|0,0:0|0:0,0:0:0:0:
99,110,559319,2,0,P|109:67|144:40,1,90,8|0,0:0|0:0,0:0:0:0:
368,40,559579,6,0,L|428:120,1,90,8|0,0:0|0:0,0:0:0:0:
144,344,559840,2,0,L|84:264,1,90,8|0,0:0|0:0,0:0:0:0:
338,70,560101,2,0,L|398:150,1,90,8|0,0:0|0:0,0:0:0:0:
174,314,560362,5,8,0:0:0:0:
147,278,560427,1,8,0:0:0:0:
120,242,560492,1,8,0:0:0:0:
188,144,560623,1,8,0:0:0:0:
256,52,560753,1,2,0:0:0:0:
338,314,560884,5,8,0:0:0:0:
365,278,560949,1,8,0:0:0:0:
392,242,561014,1,2,0:0:0:0:
324,144,561145,1,8,0:0:0:0:
256,52,561275,1,2,0:0:0:0:
256,314,561405,5,8,0:0:0:0:
256,278,561470,1,8,0:0:0:0:
256,242,561535,1,2,0:0:0:0:
256,144,561666,2,0,L|256:120,4,22.5,8|8|8|8|8,0:0|0:0|0:0|0:0|0:0,0:0:0:0:
344,52,561928,2,0,L|344:76,4,22.5,8|8|8|8|8,0:0|0:0|0:0|0:0|0:0,0:0:0:0:
256,242,562188,1,8,0:0:0:0:
256,192,562263,12,4,566117,2:0:0:0:
88,52,566367,6,8,L|288:52,1,180,4|4,2:0|2:0,0:0:0:0:
408,240,566867,1,4,2:0:0:0:
88,52,567117,6,0,L|296:52,1,180,4|4,2:0|2:0,0:0:0:0:
408,240,567597,2,0,L|200:240,1,180,4|4,2:0|2:0,0:0:0:0:
96,176,567952,5,4,2:0:0:0:
152,144,568067,2,0,L|192:96,1,45,4|4,2:0|2:0,0:0:0:0:
256,144,568298,2,0,L|256:88,1,45,4|4,2:0|2:0,0:0:0:0:
360,144,568528,2,0,L|320:96,1,45,4|4,2:0|2:0,0:0:0:0:
256,99,568760,6,0,L|256:144,1,45,4|4,2:0|2:0,0:0:0:0:
180,109,568982,1,4,2:0:0:0:
183,196,569204,5,4,2:0:0:0:
328,196,569315,1,4,2:0:0:0:
211,282,569426,1,4,2:0:0:0:
256,144,569537,1,4,2:0:0:0:
301,282,569648,6,0,L|436:268,1,90,4|8,2:0|2:0,0:0:0:0:
211,102,569862,2,0,L|76:116,1,90,8|8,0:0|2:0,0:0:0:0:
121,272,570076,2,0,L|211:282,1,90,8|8,0:0|2:0,0:0:0:0:
390,111,570291,2,0,L|301:102,1,90,8|8,0:0|2:0,0:0:0:0:
128,72,570505,6,0,L|160:32,3,45,8|8|8|8,0:0|0:0|0:0|0:0,0:0:0:0:
216,8,570719,2,0,B|228:32|228:68|184:104,1,90,8|8,0:0|2:0,0:0:0:0:
116,318,570934,2,0,B|131:296|162:278|215:298,1,90,8|8,0:0|2:0,0:0:0:0:
435,249,571148,2,0,B|408:247|377:229|368:173,1,90,8|8,0:0|2:0,0:0:0:0:
384,72,571362,6,0,L|352:32,3,45,8|8|8|8,0:0|0:0|0:0|0:0,0:0:0:0:
296,8,571577,2,0,B|284:32|284:68|328:104,1,90,8|8,0:0|2:0,0:0:0:0:
395,318,571791,2,0,B|380:296|349:278|296:298,1,90,8|8,0:0|2:0,0:0:0:0:
76,249,572005,2,0,B|103:247|134:229|143:173,1,90,8|8,0:0|2:0,0:0:0:0:
256,192,572219,1,8,0:0:0:0:
364,144,572326,1,8,2:0:0:0:
268,74,572433,6,2,L|178:72,1,90,0|2,0:0|0:0,0:0:0:0:
172,96,572947,5,8,0:0:0:0:
168,124,573001,1,8,0:0:0:0:
168,152,573054,1,8,0:0:0:0:
172,180,573108,2,0,L|128:264,1,90,8|8,0:0|2:0,0:0:0:0:
256,180,573322,2,0,L|256:272,1,90,8|8,0:0|2:0,0:0:0:0:
340,180,573536,2,0,L|381:259,1,90,8|8,0:0|2:0,0:0:0:0:
382,260,573751,5,8,0:0:0:0:
388,236,573805,1,8,0:0:0:0:
392,208,573858,1,8,0:0:0:0:
392,180,573912,1,8,0:0:0:0:
388,152,573966,2,0,L|432:68,1,90,8|8,0:0|2:0,0:0:0:0:
304,152,574180,2,0,L|304:60,1,90,8|8,0:0|2:0,0:0:0:0:
220,152,574394,2,0,L|176:68,1,90,8|8,0:0|2:0,0:0:0:0:
96,40,574608,6,0,P|92:88|136:148,1,90,8|8,0:0|2:0,0:0:0:0:
104,352,574823,2,0,P|152:356|212:312,1,90,8|8,0:0|2:0,0:0:0:0:
416,344,575037,2,0,P|420:296|376:236,1,90,8|8,0:0|2:0,0:0:0:0:
408,32,575251,2,0,P|360:28|300:72,1,90,8|8,0:0|2:0,0:0:0:0:
96,40,575466,2,0,P|144:36|204:80,1,90,8|8,0:0|2:0,0:0:0:0:
109,125,575679,6,2,P|91:84|96:40,1,90,2|2,0:0|0:0,0:0:0:0:
184,68,576247,5,8,0:0:0:0:
184,68,576300,1,8,0:0:0:0:
184,68,576354,2,0,L|280:72,1,90,8|8,0:0|2:0,0:0:0:0:
328,316,576569,2,0,L|232:312,1,90,8|8,0:0|2:0,0:0:0:0:
380,120,576783,2,0,L|376:216,1,90,8|8,0:0|2:0,0:0:0:0:
132,264,576997,6,0,L|136:180,3,45,8|8|8|8,0:0|0:0|0:0|0:0,0:0:0:0:
160,160,577211,1,8,0:0:0:0:
261,160,577318,1,8,2:0:0:0:
179,219,577425,1,8,0:0:0:0:
210,122,577532,1,8,2:0:0:0:
242,219,577640,2,0,L|248:264,2,45,8|8|8,0:0|0:0|0:0,0:0:0:0:
328,160,577854,1,8,0:0:0:0:
429,160,577961,1,8,2:0:0:0:
347,219,578068,1,8,0:0:0:0:
378,122,578175,1,8,2:0:0:0:
410,219,578283,2,0,L|416:264,2,45,8|8|8,0:0|0:0|0:0,0:0:0:0:
102,219,578497,2,0,L|96:264,2,45,8|8|8,0:0|0:0|0:0,0:0:0:0:
21,115,578711,6,0,L|128:108,1,90,8|8,0:0|2:0,0:0:0:0:
491,115,578926,2,0,L|384:108,1,90,8|8,0:0|2:0,0:0:0:0:
256,144,579140,2,0,L|256:180,7,22.5,8|8|8|8|8|8|8|8,0:0|0:0|0:0|0:0|0:0|0:0|0:0|0:0,0:0:0:0:
256,188,579354,5,8,0:0:0:0:
356,288,579461,1,8,2:0:0:0:
356,88,579568,2,0,L|296:8,1,90,8|8,0:0|2:0,0:0:0:0:
156,88,579782,2,0,L|76:148,1,90,8|8,0:0|2:0,0:0:0:0:
156,288,579996,2,0,L|216:368,1,90,8|8,0:0|2:0,0:0:0:0:
356,88,580211,6,0,L|380:184,1,90,8|8,0:0|2:0,0:0:0:0:
356,288,580426,2,0,L|260:312,1,90,8|8,0:0|2:0,0:0:0:0:
156,288,580640,2,0,L|132:192,1,90,8|8,0:0|2:0,0:0:0:0:
156,88,580854,2,0,L|252:64,1,90,8|8,0:0|2:0,0:0:0:0:
356,88,581068,5,4,2:0:0:0:
355,214,581175,1,4,2:0:0:0:
246,150,581282,1,4,2:0:0:0:
356,88,581389,5,4,2:0:0:0:
354,251,581496,1,4,2:0:0:0:
213,168,581603,1,4,2:0:0:0:
356,88,581711,5,4,2:0:0:0:
353,299,581818,1,4,2:0:0:0:
170,191,581925,5,4,2:0:0:0:
356,88,582086,5,12,0:0:0:0:
352,362,582246,5,12,0:0:0:0:
114,221,582407,5,12,0:0:0:0:
356,88,582568,5,12,0:0:0:0:
256,192,582636,12,0,584749,0:0:0:0:
64,136,694326,6,0,P|64:188|72:204,3,45,4|0|0|0,0:0|0:0|0:0|0:0,0:0:0:0:
80,200,694605,2,0,P|88:236|80:264,4,45,8|0|0|0|0,0:0|0:0|0:0|0:0|0:0,0:0:0:0:
100,212,694954,1,0,0:0:0:0:
120,220,695024,1,0,0:0:0:0:
144,224,695094,1,0,0:0:0:0:
168,224,695163,1,8,0:0:0:0:
192,220,695233,1,0,0:0:0:0:
216,216,695303,1,0,0:0:0:0:
236,212,695373,1,0,0:0:0:0:
256,204,695442,1,0,0:0:0:0:
280,200,695512,6,0,P|304:200|344:184,7,45,0|0|0|8|0|0|0|0,0:0|0:0|0:0|0:0|0:0|0:0|0:0|0:0,0:0:0:0:
340,176,696070,1,0,0:0:0:0:
352,156,696140,1,0,0:0:0:0:
360,136,696210,1,0,0:0:0:0:
368,116,696280,1,8,0:0:0:0:
376,96,696349,1,0,0:0:0:0:
380,76,696419,1,0,0:0:0:0:
400,84,696489,1,0,0:0:0:0:
416,96,696559,5,4,0:0:0:0:
432,112,696629,1,0,0:0:0:0:
448,128,696698,1,0,0:0:0:0:
460,148,696768,1,0,0:0:0:0:
472,168,696838,1,8,0:0:0:0:
476,188,696908,1,0,0:0:0:0:
476,212,696977,1,0,0:0:0:0:
468,232,697047,2,0,P|444:260|412:260,5,45,0|0|0|0|0|8,0:0|0:0|0:0|0:0|0:0|0:0,0:0:0:0:
416,260,697466,2,0,P|368:256|344:264,7,45,0|0|0|0|0|0|0|8,0:0|0:0|0:0|0:0|0:0|0:0|0:0|0:0,0:0:0:0:
348,256,698024,5,0,0:0:0:0:
324,260,698094,1,0,0:0:0:0:
304,268,698163,1,0,0:0:0:0:
280,272,698233,1,0,0:0:0:0:
256,272,698303,1,0,0:0:0:0:
232,272,698373,1,0,0:0:0:0:
208,272,698442,1,0,0:0:0:0:
184,268,698512,1,8,0:0:0:0:
160,264,698582,1,0,0:0:0:0:
140,256,698652,1,0,0:0:0:0:
120,248,698722,6,0,P|104:224|104:184,5,45,4|0|0|0|0|0,0:0|0:0|0:0|0:0|0:0|0:0,0:0:0:0:
104,188,699140,2,0,P|112:160|112:116,7,45,0|0|0|0|0|0|0|0,0:0|0:0|0:0|0:0|0:0|0:0|0:0|0:0,0:0:0:0:
128,124,699698,2,0,B|164:116|192:164|192:164|228:156|276:184,1,135,0|4,0:0|0:0,0:0:0:0:
336,160,700047,2,0,P|320:228|272:252,1,90
396,308,700326,5,0,0:0:0:0:
272,316,700466,2,0,P|200:328|72:312,1,180
44,240,700884,2,0,P|36:176|56:128,1,90,0|4,0:0|0:0,0:0:0:0:
120,72,701163,2,0,P|128:128|116:180,1,90,0|0,0:0|0:0,0:0:0:0:
192,248,701442,6,0,P|192:196|204:148,1,90,0|4,0:0|0:0,0:0:0:0:
276,64,701722,2,0,P|280:140|268:180,1,90,0|0,0:0|0:0,0:0:0:0:
352,276,702001,2,0,P|352:224|368:176,1,90,0|4,0:0|0:0,0:0:0:0:
436,80,702280,2,0,P|448:144|444:196,1,90,0|0,0:0|0:0,0:0:0:0:
352,276,702559,5,0,0:0:0:0:
336,200,702698,1,0,0:0:0:0:
264,112,702838,1,0,0:0:0:0:
248,188,702977,1,0,0:0:0:0:
196,280,703117,1,0,0:0:0:0:
168,208,703256,1,0,0:0:0:0:
64,132,703396,5,0,0:0:0:0:
60,156,703466,1,0,0:0:0:0:
56,180,703535,1,0,0:0:0:0:
52,204,703605,1,0,0:0:0:0:
48,228,703675,1,0,0:0:0:0:
168,208,703815,1,0,0:0:0:0:
176,228,703884,1,0,0:0:0:0:
184,248,703954,1,0,0:0:0:0:
284,348,704094,6,0,P|336:340|376:292,1,90
380,272,704373,1,0,0:0:0:0:
384,252,704442,1,0,0:0:0:0:
388,228,704512,1,0,0:0:0:0:
392,204,704582,1,0,0:0:0:0:
392,180,704652,1,0,0:0:0:0:
392,156,704722,1,0,0:0:0:0:
388,136,704791,1,0,0:0:0:0:
384,116,704861,1,0,0:0:0:0:
376,96,704931,1,0,0:0:0:0:
364,76,705001,1,0,0:0:0:0:
348,60,705070,1,0,0:0:0:0:
336,56,705140,2,0,L|304:40,10,22.5,0|8|8|8|8|8|8|0|0|8|0,0:0|0:0|0:0|0:0|0:0|0:0|0:0|0:0|0:0|0:0|0:0,0:0:0:0:
316,68,705559,1,0,0:0:0:0:
296,80,705629,1,0,0:0:0:0:
276,88,705698,1,0,0:0:0:0:
256,96,705768,1,0,0:0:0:0:
236,104,705838,5,0,0:0:0:0:
212,108,705908,1,0,0:0:0:0:
188,104,705977,1,0,0:0:0:0:
168,96,706047,1,0,0:0:0:0:
148,88,706117,1,0,0:0:0:0:
128,80,706187,5,0,0:0:0:0:
104,80,706256,1,0,0:0:0:0:
84,92,706326,1,0,0:0:0:0:
68,108,706396,1,0,0:0:0:0:
56,128,706466,1,0,0:0:0:0:
48,148,706535,1,0,0:0:0:0:
44,172,706605,1,0,0:0:0:0:
48,196,706675,1,0,0:0:0:0:
52,220,706745,1,0,0:0:0:0:
64,240,706815,1,0,0:0:0:0:
80,256,706884,1,0,0:0:0:0:
100,268,706954,5,0,0:0:0:0:
124,268,707024,1,0,0:0:0:0:
148,264,707094,1,0,0:0:0:0:
168,260,707163,1,0,0:0:0:0:
192,256,707233,1,0,0:0:0:0:
216,252,707303,1,0,0:0:0:0:
236,248,707373,1,0,0:0:0:0:
260,244,707442,2,0,L|288:248,8,22.5,0|4|0|0|0|0|0|0|0,0:0|0:0|0:0|0:0|0:0|0:0|0:0|0:0|0:0,0:0:0:0:
280,104,707861,5,0,0:0:0:0:
440,96,708001,1,8,0:0:0:0:
448,248,708140,1,0,0:0:0:0:
284,248,708280,1,0,0:0:0:0:
172,184,708419,6,0,B|151:202|152:228|152:228|118:239|113:276,1,90,0|8,0:0|0:0,0:0:0:0:
56,60,708698,2,0,P|64:104|124:144,1,90
132,72,708977,1,0,0:0:0:0:
176,180,709117,6,0,P|140:216|128:272,1,90,8|0,0:0|0:0,0:0:0:0:
332,264,709396,1,0,0:0:0:0:
244,236,709535,1,0,0:0:0:0:
416,288,709675,1,8,0:0:0:0:
500,316,709814,1,0,0:0:0:0:
336,68,709954,6,0,P|220:32|168:100,1,180,0|8,0:0|0:0,0:0:0:0:
60,80,710373,1,0,0:0:0:0:
28,192,710512,2,0,L|128:352,1,180,0|8,0:0|0:0,0:0:0:0:
208,288,710931,1,0,0:0:0:0:
312,240,711070,2,0,P|392:204|476:260,1,180,0|8,0:0|0:0,0:0:0:0:
272,344,711489,1,0,0:0:0:0:
268,120,711629,2,0,L|136:120,1,90
60,64,711908,6,0,P|24:120|32:168,1,90,8|0,0:0|0:0,0:0:0:0:
92,220,712187,1,0,0:0:0:0:
48,312,712326,2,0,P|96:348|140:344,1,90,0|8,0:0|0:0,0:0:0:0:
192,296,712605,1,0,0:0:0:0:
344,312,712745,2,0,P|296:348|252:344,1,90
284,248,713024,6,0,L|308:52,1,180,8|0,0:0|0:0,0:0:0:0:
64,68,713442,1,0,0:0:0:0:
64,188,713582,2,0,P|100:228|160:224,3,90,8|0|0|0,0:0|0:0|0:0|0:0,0:0:0:0:
208,128,714140,1,8,0:0:0:0:
288,216,714419,6,0,B|336:216|360:264|360:264|404:240|464:268,2,180,0|8|0,0:0|0:0|0:0,0:0:0:0:
280,296,715117,1,0,0:0:0:0:
328,360,715256,2,0,P|280:372|228:356,1,90,8|0,0:0|0:0,0:0:0:0:
200,280,715535,2,0,B|160:312|152:356|152:356|96:340|52:336,1,180,0|8,0:0|0:0,0:0:0:0:
72,212,715954,6,0,P|72:168|76:112,1,90
168,48,716373,1,8,0:0:0:0:
168,48,716443,1,0,0:0:0:0:
168,48,716513,1,0,0:0:0:0:
324,140,716652,5,0,0:0:0:0:
228,252,716791,1,0,0:0:0:0:
360,304,716931,1,8,0:0:0:0:
340,160,717070,1,0,0:0:0:0:
296,304,717210,1,0,0:0:0:0:
432,280,717350,1,0,0:0:0:0:
448,188,717489,6,0,P|456:124|408:16,1,180,8|0,0:0|0:0,0:0:0:0:
256,120,717908,2,0,L|168:144,1,90,0|8,0:0|0:0,0:0:0:0:
48,124,718187,2,0,P|48:184|96:228,1,90,0|0,0:0|0:0,0:0:0:0:
144,296,718466,1,0,0:0:0:0:
256,328,718605,2,0,B|352:328|352:328|376:352|420:360|452:344,1,180,8|0,0:0|0:0,0:0:0:0:
392,216,719024,5,0,0:0:0:0:
312,92,719163,1,8,0:0:0:0:
444,116,719303,1,0,0:0:0:0:
320,212,719442,2,0,P|372:288|456:240,1,180,0|8,0:0|0:0,0:0:0:0:
200,256,720001,5,0,0:0:0:0:
192,288,720280,2,0,B|164:297|138:293|118:272|118:272|104:293|104:293|70:263|30:264|20:275,2,180,8|0|8,0:0|0:0|0:0,0:0:0:0:
188,200,721117,5,0,0:0:0:0:
184,176,721187,1,0,0:0:0:0:
184,152,721256,1,0,0:0:0:0:
184,128,721326,5,0,0:0:0:0:
192,108,721396,1,8,0:0:0:0:
204,88,721466,1,0,0:0:0:0:
220,72,721535,5,0,0:0:0:0:
240,60,721605,1,0,0:0:0:0:
260,52,721675,1,0,0:0:0:0:
284,48,721745,5,0,0:0:0:0:
308,44,721815,1,0,0:0:0:0:
332,44,721884,1,0,0:0:0:0:
356,44,721954,1,8,0:0:0:0:
400,240,722233,5,0,0:0:0:0:
388,256,722302,1,0,0:0:0:0:
368,268,722372,1,0,0:0:0:0:
348,280,722442,1,0,0:0:0:0:
324,284,722512,5,8,0:0:0:0:
300,288,722581,1,0,0:0:0:0:
276,288,722651,1,0,0:0:0:0:
256,284,722721,1,0,0:0:0:0:
236,280,722791,5,0,0:0:0:0:
216,272,722861,1,0,0:0:0:0:
196,268,722930,1,0,0:0:0:0:
280,164,723070,1,8,0:0:0:0:
356,88,723349,5,0,0:0:0:0:
372,104,723419,1,0,0:0:0:0:
384,120,723488,1,0,0:0:0:0:
404,132,723559,1,0,0:0:0:0:
420,148,723629,5,8,0:0:0:0:
428,168,723698,1,0,0:0:0:0:
428,192,723768,1,0,0:0:0:0:
424,216,723838,1,0,0:0:0:0:
416,236,723908,5,0,0:0:0:0:
408,256,723977,1,0,0:0:0:0:
396,276,724047,1,0,0:0:0:0:
380,292,724117,1,0,0:0:0:0:
360,304,724187,5,8,0:0:0:0:
340,312,724256,1,0,0:0:0:0:
320,316,724326,1,0,0:0:0:0:
296,316,724396,1,0,0:0:0:0:
276,304,724466,1,0,0:0:0:0:
260,288,724535,5,0,0:0:0:0:
248,268,724605,1,0,0:0:0:0:
240,248,724675,1,0,0:0:0:0:
228,228,724745,1,8,0:0:0:0:
216,208,724815,1,0,0:0:0:0:
200,192,724884,1,0,0:0:0:0:
184,180,724954,1,0,0:0:0:0:
164,172,725024,5,0,0:0:0:0:
144,164,725094,1,0,0:0:0:0:
120,164,725163,1,0,0:0:0:0:
100,168,725233,1,0,0:0:0:0:
80,176,725303,1,8,0:0:0:0:
68,196,725373,1,0,0:0:0:0:
64,216,725442,2,0,P|76:304|256:304,1,270,0|8,0:0|0:0,0:0:0:0:
172,256,726001,5,0,0:0:0:0:
288,264,726140,2,0,L|288:64,1,180,0|8,0:0|0:0,0:0:0:0:
416,324,726559,1,0,0:0:0:0:
360,236,726698,2,0,P|292:192|208:244,1,180,0|8,0:0|0:0,0:0:0:0:
148,184,727117,2,0,P|136:240|172:300,1,90
64,340,727396,1,0,0:0:0:0:
28,252,727535,6,0,B|40:216|40:160|40:160|84:116|72:68,1,180,8|0,0:0|0:0,0:0:0:0:
256,192,727954,2,0,P|180:168|140:168,1,90,0|8,0:0|0:0,0:0:0:0:
116,328,728233,1,0,0:0:0:0:
48,316,728373,2,0,P|92:392|180:352,1,180,0|8,0:0|0:0,0:0:0:0:
264,308,728791,1,0,0:0:0:0:
188,216,728931,2,0,B|140:180|104:148|104:148|76:176|36:192,1,180,0|8,0:0|0:0,0:0:0:0:
308,216,729349,5,0,0:0:0:0:
332,80,729489,1,0,0:0:0:0:
400,216,729628,1,0,0:0:0:0:
264,144,729768,1,8,0:0:0:0:
424,132,729908,1,0,0:0:0:0:
400,216,730047,6,0,B|452:232|452:232|432:256|420:308|448:352,1,180,0|8,0:0|0:0,0:0:0:0:
312,308,730466,1,0,0:0:0:0:
200,320,730605,2,0,P|140:312|24:372,1,180,0|8,0:0|0:0,0:0:0:0:
32,236,731024,1,0,0:0:0:0:
88,152,731163,2,0,B|128:104|132:40|132:40|164:68|200:68,1,180,0|8,0:0|0:0,0:0:0:0:
220,156,731582,6,0,P|280:160|328:156,1,90
248,288,731861,2,0,P|200:288|140:292,1,90,0|8,0:0|0:0,0:0:0:0:
84,196,732140,1,0,0:0:0:0:
40,296,732280,2,0,P|60:364|160:368,1,180,0|8,0:0|0:0,0:0:0:0:
368,336,732698,5,0,0:0:0:0:
300,188,732838,1,0,0:0:0:0:
456,256,732977,1,0,0:0:0:0:
292,296,733117,1,8,0:0:0:0:
408,152,733256,1,0,0:0:0:0:
300,188,733396,6,0,B|248:200|180:148|180:148|160:212,1,180,0|8,0:0|0:0,0:0:0:0:
32,212,733815,2,0,P|52:280|100:296,1,90
68,68,734094,2,0,L|124:80,6,45,0|0|8|0|0|0|0,0:0|0:0|0:0|0:0|0:0|0:0|0:0,0:0:0:0:
156,164,734652,1,0,0:0:0:0:
216,40,734791,2,0,P|276:76|272:192,1,180,8|0,0:0|0:0,0:0:0:0:
36,156,735210,1,0,0:0:0:0:
36,156,735349,5,8,0:0:0:0:
36,156,735419,1,0,0:0:0:0:
36,156,735489,1,0,0:0:0:0:
48,292,735628,2,0,B|116:296|164:288|164:288|176:328|232:352,1,180,0|8,0:0|0:0,0:0:0:0:
296,256,736047,1,0,0:0:0:0:
368,336,736187,2,0,P|416:280|416:232,1,90
216,80,736466,2,0,P|280:136|312:140,1,90,8|0,0:0|0:0,0:0:0:0:
120,200,736745,5,0,0:0:0:0:
232,284,736884,1,0,0:0:0:0:
240,160,737024,1,8,0:0:0:0:
168,248,737163,5,0,0:0:0:0:
308,284,737303,1,0,0:0:0:0:
276,160,737442,1,0,0:0:0:0:
212,264,737582,5,8,0:0:0:0:
352,280,737722,1,0,0:0:0:0:
316,156,737861,1,0,0:0:0:0:
428,56,738001,2,0,B|387:44|350:75|350:75|328:48|311:75|311:75|276:52|221:52,2,225,0|0|0,0:0|0:0|0:0,0:0:0:0:
80,104,738977,5,8,0:0:0:0:
76,128,739047,1,0,0:0:0:0:
72,152,739116,1,0,0:0:0:0:
72,176,739186,1,0,0:0:0:0:
76,200,739256,1,8,0:0:0:0:
80,220,739326,5,0,0:0:0:0:
88,240,739395,1,0,0:0:0:0:
100,260,739465,1,0,0:0:0:0:
112,280,739535,1,8,0:0:0:0:
132,292,739605,1,0,0:0:0:0:
152,300,739675,5,0,0:0:0:0:
172,304,739745,1,0,0:0:0:0:
196,304,739815,1,8,0:0:0:0:
220,300,739884,1,0,0:0:0:0:
240,292,739954,1,0,0:0:0:0:
260,284,740024,5,0,0:0:0:0:
280,276,740094,1,8,0:0:0:0:
300,268,740163,1,0,0:0:0:0:
320,264,740233,1,0,0:0:0:0:
344,264,740303,2,0,P|388:280|416:280,7,45,0|8|0|0|0|8|0|0,0:0|0:0|0:0|0:0|0:0|0:0|0:0|0:0,0:0:0:0:
404,268,740861,2,0,P|452:224|456:216,7,45,0|8|0|0|0|8|0|0,0:0|0:0|0:0|0:0|0:0|0:0|0:0|0:0,0:0:0:0:
448,220,741419,5,0,0:0:0:0:
452,200,741489,1,8,0:0:0:0:
452,176,741559,1,0,0:0:0:0:
448,156,741628,1,0,0:0:0:0:
444,132,741698,1,0,0:0:0:0:
436,112,741768,5,8,0:0:0:0:
428,92,741838,1,0,0:0:0:0:
420,72,741908,1,0,0:0:0:0:
400,64,741977,1,0,0:0:0:0:
380,56,742047,1,8,0:0:0:0:
360,48,742117,1,0,0:0:0:0:
340,56,742187,2,0,L|296:88,5,45,0|0|8|0|0|0,0:0|0:0|0:0|0:0|0:0|0:0,0:0:0:0:
312,104,742605,2,0,L|312:168,7,45,8|0|0|0|8|0|0|0,0:0|0:0|0:0|0:0|0:0|0:0|0:0|0:0,0:0:0:0:
332,164,743163,2,0,P|340:216|332:240,4,45,8|0|0|0|8,0:0|0:0|0:0|0:0|0:0,0:0:0:0:
224,292,744001,5,0,0:0:0:0:
224,292,744071,1,0,0:0:0:0:
224,292,744141,1,0,0:0:0:0:
120,164,744280,1,0,0:0:0:0:
120,164,744350,1,0,0:0:0:0:
120,164,744420,1,0,0:0:0:0:
52,84,744559,2,0,B|88:-16|220:188|292:80,1,270,4|0,0:0|0:0,0:0:0:0:
356,176,745117,5,0,0:0:0:0:
356,176,745187,1,0,0:0:0:0:
356,176,745256,1,0,0:0:0:0:
252,292,745396,1,0,0:0:0:0:
252,292,745466,1,0,0:0:0:0:
252,292,745535,1,0,0:0:0:0:
304,360,745675,2,0,P|340:320|204:220,1,270,4|0,0:0|0:0,0:0:0:0:
92,284,746233,5,0,0:0:0:0:
92,284,746303,1,0,0:0:0:0:
92,284,746373,1,0,0:0:0:0:
72,88,746512,1,0,0:0:0:0:
72,88,746582,1,0,0:0:0:0:
72,88,746652,1,0,0:0:0:0:
44,192,746791,2,0,B|120:172|168:236|168:236|312:208,1,270,4|0,0:0|0:0,0:0:0:0:
296,64,747349,1,0,0:0:0:0:
296,64,747419,1,0,0:0:0:0:
312,176,747559,1,0,0:0:0:0:
312,176,747628,1,0,0:0:0:0:
384,232,747768,5,0,0:0:0:0:
384,232,747838,1,0,0:0:0:0:
384,232,747908,2,0,B|304:228|272:244|272:244|236:228|216:208,1,180,4|0,0:0|0:0,0:0:0:0:
48,76,748466,6,0,L|0:40,2,45,0|0|0,0:0|0:0|0:0,0:0:0:0:
148,288,748745,2,0,L|216:260,2,45,0|0|0,0:0|0:0|0:0,0:0:0:0:
368,210,749024,2,0,B|368:121|284:69|284:69|326:41|387:93,1,270,4|0,0:0|0:0,0:0:0:0:
340,312,749582,2,0,L|284:356,2,45,0|0|0,0:0|0:0|0:0,0:0:0:0:
96,84,749861,2,0,L|52:44,2,45,0|0|0,0:0|0:0|0:0,0:0:0:0:
108,52,750140,2,0,B|120:168|116:248|116:248|156:204|192:164,1,270,4|0,0:0|0:0,0:0:0:0:
280,252,750698,6,0,L|340:264,2,45,0|0|0,0:0|0:0|0:0,0:0:0:0:
236,152,750977,2,0,L|176:136,2,45,0|0|0,0:0|0:0|0:0,0:0:0:0:
180,220,751256,2,0,P|180:288|364:328,1,270,4|0,0:0|0:0,0:0:0:0:
412,300,751815,5,0,0:0:0:0:
416,264,751908,1,0,0:0:0:0:
420,228,752001,1,0,0:0:0:0:
424,196,752094,1,0,0:0:0:0:
428,160,752187,1,0,0:0:0:0:
436,120,752280,1,0,0:0:0:0:
272,56,752373,5,0,0:0:0:0:
272,80,752442,1,0,0:0:0:0:
268,104,752512,1,0,0:0:0:0:
260,124,752582,1,0,0:0:0:0:
248,144,752652,1,0,0:0:0:0:
236,164,752722,5,0,0:0:0:0:
224,180,752791,1,0,0:0:0:0:
208,196,752861,1,0,0:0:0:0:
188,208,752931,1,0,0:0:0:0:
168,220,753001,1,0,0:0:0:0:
148,228,753070,5,0,0:0:0:0:
128,236,753140,1,0,0:0:0:0:
104,240,753210,1,0,0:0:0:0:
80,240,753280,2,0,L|28:224,5,45,0|0|0|0|0|0,0:0|0:0|0:0|0:0|0:0|0:0,0:0:0:0:
32,204,753698,5,0,0:0:0:0:
36,180,753768,1,0,0:0:0:0:
48,160,753838,1,0,0:0:0:0:
64,148,753908,1,0,0:0:0:0:
84,136,753977,1,0,0:0:0:0:
104,128,754047,5,0,0:0:0:0:
124,120,754117,1,0,0:0:0:0:
148,116,754187,1,0,0:0:0:0:
168,120,754256,1,0,0:0:0:0:
188,128,754326,1,0,0:0:0:0:
204,144,754396,5,0,0:0:0:0:
220,160,754466,1,0,0:0:0:0:
236,172,754535,1,0,0:0:0:0:
256,184,754605,1,0,0:0:0:0:
312,224,754745,1,4,0:0:0:0:
180,308,755024,1,4,0:0:0:0:
476,144,755303,5,4,0:0:0:0:
412,192,755443,1,4,0:0:0:0:
424,268,755583,1,4,0:0:0:0:
208,272,755861,1,4,0:0:0:0:
108,196,756140,5,4,0:0:0:0:
40,144,756280,1,4,0:0:0:0:
268,32,756559,1,4,0:0:0:0:
352,144,756838,1,4,0:0:0:0:
272,236,757117,5,4,0:0:0:0:
224,292,757256,1,4,0:0:0:0:
72,216,757535,1,4,0:0:0:0:
28,124,757815,2,0,P|32:64|48:20,2,90,0|0|0,0:0|0:0|0:0,0:0:0:0:
120,140,758373,5,4,0:0:0:0:
200,124,758512,1,4,0:0:0:0:
292,208,758722,1,4,0:0:0:0:
384,148,758861,1,4,0:0:0:0:
384,336,759070,1,0,0:0:0:0:
256,192,767094,12,0,768152,0:0:0:0:
80,68,768505,5,12,0:0:0:0:
119,47,768593,1,8,0:0:0:0:
164,44,768682,1,10,0:0:0:0:
207,57,768769,1,8,0:0:0:0:
242,86,768858,1,12,0:0:0:0:
276,114,768946,1,8,0:0:0:0:
319,127,769035,1,10,0:0:0:0:
363,124,769123,1,8,0:0:0:0:
403,103,769211,5,12,0:0:0:0:
388,145,769300,1,8,0:0:0:0:
360,179,769388,1,10,0:0:0:0:
320,200,769476,1,8,0:0:0:0:
275,204,769564,1,12,0:0:0:0:
231,209,769653,1,8,0:0:0:0:
192,230,769741,1,10,0:0:0:0:
163,263,769829,1,8,0:0:0:0:
132,296,769917,5,12,0:0:0:0:
171,316,770006,1,8,0:0:0:0:
216,319,770094,1,10,0:0:0:0:
259,306,770182,1,8,0:0:0:0:
294,278,770270,1,12,0:0:0:0:
328,250,770358,1,8,0:0:0:0:
371,237,770447,1,10,0:0:0:0:
415,240,770535,1,8,0:0:0:0:
455,261,770623,5,12,0:0:0:0:
440,219,770711,1,8,0:0:0:0:
412,185,770800,1,10,0:0:0:0:
372,164,770888,1,8,0:0:0:0:
327,160,770976,1,12,0:0:0:0:
283,155,771064,1,8,0:0:0:0:
244,134,771153,1,10,0:0:0:0:
215,101,771241,1,8,0:0:0:0:
172,84,771329,6,0,L|116:84,1,45,12|8,0:0|0:0,0:0:0:0:
100,166,771506,2,0,L|60:205,1,45,10|8,0:0|0:0,0:0:0:0:
108,276,771682,2,0,L|108:332,1,45,12|8,0:0|0:0,0:0:0:0:
190,347,771858,2,0,L|229:386,1,45,10|8,0:0|0:0,0:0:0:0:
290,378,772035,6,0,L|322:347,1,45,12|8,0:0|0:0,0:0:0:0:
404,321,772211,2,0,L|404:276,1,45,10|8,0:0|0:0,0:0:0:0:
443,197,772388,2,0,L|412:166,1,45,12|8,0:0|0:0,0:0:0:0:
385,84,772564,2,0,L|340:84,1,45,10|8,0:0|0:0,0:0:0:0:
240,84,772741,6,0,L|136:84,1,67.5000025749208,12|8,0:0|0:0,0:0:0:0:
92,168,772917,2,0,L|196:168,1,67.5000025749208,10|8,0:0|0:0,0:0:0:0:
260,64,773094,2,0,L|156:64,1,67.5000025749208,12|8,0:0|0:0,0:0:0:0:
92,168,773270,2,0,L|196:168,1,67.5000025749208,10|8,0:0|0:0,0:0:0:0:
280,44,773446,6,0,L|176:44,1,67.5000025749208,12|8,0:0|0:0,0:0:0:0:
92,168,773622,2,0,L|196:168,1,67.5000025749208,10|8,0:0|0:0,0:0:0:0:
300,24,773799,2,0,L|196:24,1,67.5000025749208,12|8,0:0|0:0,0:0:0:0:
92,168,773975,2,0,L|196:168,1,67.5000025749208,10|8,0:0|0:0,0:0:0:0:
212,180,774152,5,12,0:0:0:0:
264,189,774240,1,8,0:0:0:0:
316,177,774328,1,10,0:0:0:0:
359,144,774416,1,8,0:0:0:0:
385,98,774505,1,12,0:0:0:0:
332,88,774593,1,8,0:0:0:0:
280,100,774681,1,10,0:0:0:0:
237,133,774769,1,8,0:0:0:0:
212,180,774858,5,12,0:0:0:0:
202,232,774947,1,8,0:0:0:0:
214,284,775035,1,10,0:0:0:0:
247,327,775123,1,8,0:0:0:0:
294,353,775211,1,12,0:0:0:0:
304,300,775300,1,8,0:0:0:0:
292,248,775388,1,10,0:0:0:0:
259,205,775476,1,8,0:0:0:0:
212,180,775564,5,12,0:0:0:0:
159,170,775653,1,8,0:0:0:0:
107,182,775741,1,10,0:0:0:0:
64,215,775829,1,8,0:0:0:0:
39,262,775917,1,12,0:0:0:0:
92,272,776006,1,8,0:0:0:0:
144,260,776094,1,10,0:0:0:0:
187,227,776182,1,8,0:0:0:0:
212,180,776270,5,12,0:0:0:0:
222,127,776358,1,8,0:0:0:0:
210,75,776447,1,10,0:0:0:0:
177,32,776535,1,8,0:0:0:0:
130,7,776623,1,12,0:0:0:0:
120,60,776711,1,8,0:0:0:0:
132,112,776800,1,10,0:0:0:0:
165,155,776888,1,8,0:0:0:0:
212,180,776976,6,0,L|276:212,1,53.9999983520508,12|8,0:0|0:0,0:0:0:0:
356,108,777153,2,0,L|292:140,1,53.9999983520508,10|8,0:0|0:0,0:0:0:0:
212,180,777329,6,0,L|276:212,1,53.9999983520508,12|8,0:0|0:0,0:0:0:0:
376,88,777506,2,0,L|312:120,1,53.9999983520508,10|8,0:0|0:0,0:0:0:0:
212,180,777682,6,0,L|276:212,1,53.9999983520508,12|8,0:0|0:0,0:0:0:0:
396,68,777859,2,0,L|332:100,1,53.9999983520508,10|8,0:0|0:0,0:0:0:0:
212,180,778035,6,2,L|144:280,1,107.999996704102,4|4,0:0|0:0,0:0:0:0:
196,300,778476,5,8,0:0:0:0:
248,292,778564,2,0,L|344:288,1,53.9999983520508,10|8,0:0|0:0,0:0:0:0:
360,269,778741,6,2,L|300:180,1,107.999996704102,4|4,0:0|0:0,0:0:0:0:
276,132,779182,5,8,0:0:0:0:
273,101,779270,1,10,0:0:0:0:
288,75,779358,1,8,0:0:0:0:
314,60,779446,1,12,0:0:0:0:
345,63,779534,1,8,0:0:0:0:
368,83,779623,1,10,0:0:0:0:
377,112,779711,1,8,0:0:0:0:
368,141,779799,6,0,P|396:232|488:256,1,135.000005149842,4|2,0:0|0:0,0:0:0:0:
284,272,780064,2,0,L|264:344,1,67.5000025749208,4|0,0:0|0:0,0:0:0:0:
464,160,780241,2,0,L|484:88,2,67.5000025749208,4|2|0,0:0|0:0|0:0,0:0:0:0:
368,140,780505,5,12,0:0:0:0:
340,140,780594,1,8,0:0:0:0:
311,139,780682,1,10,0:0:0:0:
283,139,780771,1,8,0:0:0:0:
256,140,780858,1,12,0:0:0:0:
228,140,780947,1,8,0:0:0:0:
199,140,781035,1,10,0:0:0:0:
171,140,781124,1,8,0:0:0:0:
144,141,781211,6,0,P|116:232|24:256,1,135.000005149842,4|2,0:0|0:0,0:0:0:0:
228,272,781476,2,0,L|248:344,1,67.5000025749208,4|0,0:0|0:0,0:0:0:0:
48,160,781652,2,0,L|28:88,2,67.5000025749208,4|2|0,0:0|0:0|0:0,0:0:0:0:
144,140,781917,5,12,0:0:0:0:
172,140,782006,1,8,0:0:0:0:
200,139,782094,1,10,0:0:0:0:
228,139,782182,1,8,0:0:0:0:
256,140,782270,1,12,0:0:0:0:
284,140,782358,1,8,0:0:0:0:
313,140,782447,1,10,0:0:0:0:
341,140,782535,1,8,0:0:0:0:
368,140,782623,6,0,P|416:180|400:284,1,135.000005149842,4|2,0:0|0:0,0:0:0:0:
144,140,782976,2,0,P|96:180|112:284,1,135.000005149842,4|2,0:0|0:0,0:0:0:0:
256,304,783329,5,12,0:0:0:0:
256,276,783417,1,8,0:0:0:0:
256,247,783506,1,10,0:0:0:0:
256,219,783594,1,8,0:0:0:0:
256,192,783682,1,12,0:0:0:0:
256,164,783770,1,8,0:0:0:0:
256,135,783858,1,10,0:0:0:0:
256,107,783947,1,8,0:0:0:0:
256,80,784035,6,0,P|216:32|112:48,1,135.000005149842,4|6,0:0|0:0,0:0:0:0:
256,304,784388,2,0,P|216:352|112:336,1,135.000005149842,4|6,0:0|0:0,0:0:0:0:
144,192,784741,5,12,0:0:0:0:
200,192,784829,1,8,0:0:0:0:
256,192,784917,1,10,0:0:0:0:
313,192,785005,1,8,0:0:0:0:
368,192,785094,6,2,B|388:192|388:192|380:192|380:192|400:192,7,33.7500012874604,2|2|2|2|2|2|2|2,0:0|0:0|0:0|0:0|0:0|0:0|0:0|0:0,0:0:0:0:
404,192,785446,6,0,P|420:136|356:84,1,135.000005149842,6|2,0:0|0:0,0:0:0:0:
108,192,786152,2,0,P|92:136|156:84,1,135.000005149842,2|2,0:0|0:0,0:0:0:0:
404,192,786858,6,0,P|420:248|356:300,1,135.000005149842,2|2,0:0|0:0,0:0:0:0:
308,276,787388,1,0,0:0:0:0:
108,192,787564,2,0,P|92:248|156:300,1,135.000005149842,2|2,0:0|0:0,0:0:0:0:
204,276,788094,1,0,0:0:0:0:
309,190,788270,6,0,L|332:120,1,67.5000025749208,6|0,0:0|0:0,0:0:0:0:
320,60,788623,1,2,0:0:0:0:
256,36,788799,1,0,0:0:0:0:
202,77,788976,6,0,L|179:147,1,67.5000025749208,2|0,0:0|0:0,0:0:0:0:
192,208,789329,1,2,0:0:0:0:
256,232,789505,1,0,0:0:0:0:
322,242,789682,6,0,L|386:221,1,67.5000025749208,2|0,0:0|0:0,0:0:0:0:
428,168,790035,1,2,0:0:0:0:
404,104,790211,1,0,0:0:0:0:
337,93,790388,6,0,L|272:113,1,67.5000025749208,2|0,0:0|0:0,0:0:0:0:
175,291,790741,2,0,L|239:270,1,67.5000025749208,2|0,0:0|0:0,0:0:0:0:
392,320,791094,5,6,0:0:0:0:
394,311,791182,1,2,0:0:0:0:
396,303,791270,1,2,0:0:0:0:
398,296,791358,1,2,0:0:0:0:
400,288,791446,2,0,L|404:208,1,67.5000025749208,10|0,0:0|0:0,0:0:0:0:
384,56,791799,5,2,0:0:0:0:
375,53,791887,1,2,0:0:0:0:
367,51,791976,1,2,0:0:0:0:
360,50,792064,1,2,0:0:0:0:
352,48,792152,2,0,L|272:44,1,67.5000025749208,10|0,0:0|0:0,0:0:0:0:
120,64,792506,5,6,0:0:0:0:
117,72,792594,1,2,0:0:0:0:
115,80,792682,1,2,0:0:0:0:
114,88,792770,1,2,0:0:0:0:
112,96,792858,2,0,L|108:176,1,67.5000025749208,10|0,0:0|0:0,0:0:0:0:
128,328,793211,5,2,0:0:0:0:
136,330,793300,1,2,0:0:0:0:
144,332,793388,1,2,0:0:0:0:
152,334,793476,1,2,0:0:0:0:
160,336,793564,2,0,L|240:340,1,67.5000025749208,10|0,0:0|0:0,0:0:0:0:
316,332,793917,5,4,0:0:0:0:
357,316,794005,1,0,0:0:0:0:
383,280,794093,1,6,0:0:0:0:
383,236,794181,1,4,0:0:0:0:
358,199,794269,1,4,0:0:0:0:
284,120,794446,1,2,0:0:0:0:
196,52,794623,5,4,0:0:0:0:
154,67,794711,1,0,0:0:0:0:
128,103,794799,1,6,0:0:0:0:
128,147,794887,1,4,0:0:0:0:
153,184,794975,1,4,0:0:0:0:
256,192,795152,1,2,0:0:0:0:
358,184,795329,5,2,0:0:0:0:
383,147,795417,1,2,0:0:0:0:
383,103,795505,1,2,0:0:0:0:
357,67,795593,1,2,0:0:0:0:
316,52,795681,1,2,0:0:0:0:
228,120,795858,1,2,0:0:0:0:
153,199,796035,5,2,0:0:0:0:
128,236,796123,1,2,0:0:0:0:
128,280,796211,1,2,0:0:0:0:
154,316,796299,1,2,0:0:0:0:
196,332,796388,1,2,0:0:0:0:
241,332,796476,1,2,0:0:0:0:
286,332,796564,1,2,0:0:0:0:
331,332,796652,1,2,0:0:0:0:
376,332,796741,6,0,L|376:228,1,90,4|2,0:0|0:0,0:0:0:0:
460,204,797005,2,0,P|436:176|416:164,1,45,4|0,0:0|0:0,0:0:0:0:
296,204,797182,2,0,P|320:176|340:164,1,45,4|2,0:0|0:0,0:0:0:0:
372,240,797358,1,4,0:0:0:0:
376,242,797446,6,2,L|376:332,1,90,4|0,0:0|0:0,0:0:0:0:
228,292,797976,1,2,0:0:0:0:
136,52,798152,6,0,L|136:156,1,90,4|2,0:0|0:0,0:0:0:0:
52,180,798416,2,0,P|76:208|96:220,1,45,4|0,0:0|0:0,0:0:0:0:
216,180,798594,2,0,P|192:208|172:220,1,45,4|2,0:0|0:0,0:0:0:0:
140,144,798769,1,4,0:0:0:0:
136,142,798858,6,2,L|136:52,1,90,4|0,0:0|0:0,0:0:0:0:
256,52,799388,1,2,0:0:0:0:
376,52,799564,6,0,L|376:156,1,90,4|2,0:0|0:0,0:0:0:0:
460,180,799828,2,0,P|436:208|416:220,1,45,4|0,0:0|0:0,0:0:0:0:
296,180,800005,2,0,P|320:208|340:220,1,45,4|2,0:0|0:0,0:0:0:0:
348,252,800182,1,4,0:0:0:0:
368,292,800270,6,0,L|264:292,1,90,4|2,0:0|0:0,0:0:0:0:
240,376,800535,2,0,P|212:352|200:332,1,45,4|0,0:0|0:0,0:0:0:0:
240,212,800711,2,0,P|212:236|200:256,1,45,4|2,0:0|0:0,0:0:0:0:
168,264,800888,1,4,0:0:0:0:
128,239,800976,6,0,L|128:194,1,45,4|2,0:0|0:0,0:0:0:0:
44,156,801329,6,0,P|68:128|88:116,1,45,4|2,0:0|0:0,0:0:0:0:
208,156,801682,6,0,P|196:139|184:128,2,20,4|4|4,0:0|0:0|0:0,0:0:0:0:
311,168,802035,6,0,P|336:168|360:156,2,45,4|4|4,0:0|0:0|0:0,0:0:0:0:
256,192,802476,12,0,803623,0:0:0:0:
124,192,803799,5,10,0:0:0:0:
134,163,803887,1,2,0:0:0:0:
150,138,803975,1,2,0:0:0:0:
172,117,804063,1,2,0:0:0:0:
197,102,804151,1,10,0:0:0:0:
225,92,804240,1,2,0:0:0:0:
255,89,804328,1,2,0:0:0:0:
285,92,804416,1,2,0:0:0:0:
313,101,804504,1,10,0:0:0:0:
339,117,804593,1,2,0:0:0:0:
360,138,804681,1,2,0:0:0:0:
377,163,804769,1,2,0:0:0:0:
387,191,804858,2,0,L|388:204,7,11.25,10|2|2|2|2|2|2|2,0:0|0:0|0:0|0:0|0:0|0:0|0:0|0:0,0:0:0:0:
336,236,805211,5,14,0:0:0:0:
256,192,805299,12,0,806623,0:0:0:0:
97,55,812972,6,0,L|132:137,1,90,2|8,0:0|0:0,0:0:0:0:
71,203,813293,2,0,P|111:222|155:224,1,90
243,206,813507,2,0,P|287:207|327:227,2,90,0|0|0,0:0|0:0|0:0,0:0:0:0:
268,282,813829,6,0,P|330:306|390:279,1,135.000005149842,8|0,0:0|0:0,0:0:0:0:
454,216,814150,1,8,0:0:0:0:
287,127,814365,1,8,0:0:0:0:
243,206,814472,1,8,0:0:0:0:
320,48,814686,6,0,P|315:92|287:127,2,90,8|8|0,0:0|0:0|0:0,0:0:0:0:
234,56,815222,1,0,0:0:0:0:
172,121,815329,1,8,0:0:0:0:
421,139,815543,6,0,L|381:161,1,45,2|0,0:0|0:0,0:0:0:0:
260,144,815650,2,0,L|220:166,1,45
100,148,815757,2,0,L|60:170,1,45,8|0,0:0|0:0,0:0:0:0:
421,139,815972,6,0,L|381:161,2,45,0|8|2,0:0|0:0|0:0,0:0:0:0:
100,148,816614,1,8,0:0:0:0:
421,139,816828,6,0,L|342:182,1,90
100,148,817042,2,0,L|178:191,1,90,8|0,0:0|0:0,0:0:0:0:
256,316,817257,2,0,L|256:226,2,90,2|0|8,0:0|0:0|0:0,0:0:0:0:
256,68,817685,6,0,L|256:158,2,90,0|8|2,0:0|0:0|0:0,0:0:0:0:
283,32,818167,5,0,0:0:0:0:
324,17,818221,1,0,0:0:0:0:
368,26,818274,1,0,0:0:0:0:
400,56,818328,1,8,0:0:0:0:
412,99,818381,1,0,0:0:0:0:
398,142,818435,1,0,0:0:0:0:
365,171,818489,1,0,0:0:0:0:
321,178,818542,2,0,B|265:189|265:189|257:158,3,90,0|0|8|0,0:0|0:0|0:0|0:0,0:0:0:0:
256,69,819078,5,0,0:0:0:0:
158,160,819185,2,0,B|150:191|150:191|94:181,1,90,8|0,0:0|0:0,0:0:0:0:
312,209,819614,2,0,B|320:177|320:177|376:188,1,90,8|2,0:0|0:0,0:0:0:0:
256,320,819935,6,0,B|241:299|241:299|271:299|271:299|256:280|256:280|256:212,1,135
256,69,820471,1,0,0:0:0:0:
312,209,820685,2,0,P|354:223|398:221,1,90,2|0,0:0|0:0,0:0:0:0:
342,81,820900,2,0,P|300:66|256:69,1,90,8|0,0:0|0:0,0:0:0:0:
228,193,821114,2,0,P|288:130|371:150,1,180,0|8,0:0|0:0,0:0:0:0:
371,150,821542,5,2,0:0:0:0:
256,320,821650,2,0,L|223:360,2,45,0|0|8,0:0|0:0|0:0,0:0:0:0:
342,81,821864,2,0,L|325:39,2,45,0|0|0,0:0|0:0|0:0,0:0:0:0:
228,193,822078,2,0,L|173:215,2,45,0|0|8,0:0|0:0|0:0,0:0:0:0:
228,193,822400,5,2,0:0:0:0:
265,168,822453,1,0,0:0:0:0:
309,167,822507,1,0,0:0:0:0:
347,189,822560,1,0,0:0:0:0:
368,228,822614,1,8,0:0:0:0:
366,273,822667,1,0,0:0:0:0:
340,309,822721,1,0,0:0:0:0:
299,326,822775,1,0,0:0:0:0:
255,320,822828,2,0,P|223:311|189:314,1,67.5
228,193,823042,2,0,P|263:169|322:172,1,101.250003862381,8|0,0:0|0:0,0:0:0:0:
284,86,823257,2,0,P|237:38|171:27,1,135,2|0,0:0|0:0,0:0:0:0:
194,114,823471,6,0,P|136:185|227:192,1,225,8|0,0:0|0:0,0:0:0:0:
320,170,823792,2,0,P|362:156|406:158,2,90,0|8|0,0:0|0:0|0:0,0:0:0:0:
375,242,824114,6,0,B|391:258|391:258|367:282|367:282|392:307,1,90,2|8,0:0|0:0,0:0:0:0:
195,115,824435,1,0,0:0:0:0:
228,193,824542,1,0,0:0:0:0:
320,172,824650,1,0,0:0:0:0:
195,115,824757,1,8,0:0:0:0:
102,268,824971,6,0,L|24:313,1,90,0|8,0:0|0:0,0:0:0:0:
320,172,825292,1,0,0:0:0:0:
334,149,825400,2,0,P|357:86|344:21,2,135,8|0|8,0:0|0:0|0:0,0:0:0:0:
393,216,825828,6,0,P|428:158|441:92,1,135,2|0,0:0|0:0,0:0:0:0:
338,309,826257,2,0,P|405:310|468:288,1,135,2|0,0:0|0:0,0:0:0:0:
293,244,826685,2,0,P|275:258|262:277,1,45,2|0,0:0|0:0,0:0:0:0:
170,71,826953,6,8,P|126:69|42:188,1,180
135,156,827275,2,8,B|140:194|111:236|88:244|88:244|105:267,1,135
171,72,827542,2,8,L|220:72,2,45,8|8|8,0:0|0:0|0:0,0:0:0:0:
42,161,827757,1,8,0:0:0:0:
106,268,827971,2,0,L|136:300,2,45,8|8|8,0:0|0:0|0:0,0:0:0:0:
377,156,828400,5,8,0:0:0:0:
406,268,828507,2,0,L|375:300,2,45,8|8|8,0:0|0:0|0:0,0:0:0:0:
341,72,828721,1,8,0:0:0:0:
171,72,828828,1,0,0:0:0:0:
135,156,828936,2,0,L|104:188,2,45,8|8|8,0:0|0:0|0:0,0:0:0:0:
106,268,829150,1,0,0:0:0:0:
256,321,829364,5,0,0:0:0:0:
332,274,829471,2,0,P|255:234|178:273,2,180,0|0|0,0:0|0:0|0:0,0:0:0:0:
106,268,830114,6,0,L|124:202,1,67.5000025749208
153,113,830328,2,0,L|200:161,1,67.5000025749208,8|0,0:0|0:0,0:0:0:0:
125,203,830542,2,0,B|158:198|178:195|200:161|200:161|265:180,1,135.000005149842,8|0,0:0|0:0,0:0:0:0:
256,80,830971,6,0,P|311:136|243:173,1,180,2|0,0:0|0:0,0:0:0:0:
168,192,831292,2,0,B|179:184|191:175|200:161|200:161|243:173,1,90,0|2,0:0|0:0,0:0:0:0:
88,225,831507,2,0,P|132:218|168:192,1,90,0|2,0:0|0:0,0:0:0:0:
257,81,831828,6,0,P|322:71|371:26,1,135.000005149842,2|0,0:0|0:0,0:0:0:0:
424,225,832257,5,2,0:0:0:0:
372,26,832471,2,0,P|403:57|446:66,1,90,2|2,0:0|0:0,0:0:0:0:
88,225,832685,5,8,0:0:0:0:
139,26,832899,2,0,P|118:51|87:64,1,67.5000025749208,8|0,0:0|0:0,0:0:0:0:
257,261,833114,6,0,L|257:81,1,180,2|2,0:0|0:0,0:0:0:0:
140,26,833542,5,8,0:0:0:0:
372,26,833757,5,0,0:0:0:0:
88,225,833971,5,8,0:0:0:0:
425,225,834185,6,0,L|511:198,1,90
257,261,834400,5,8,0:0:0:0:
257,81,834614,6,0,L|257:261,1,180,2|2,0:0|0:0,0:0:0:0:
88,225,835042,6,0,L|2:198,1,90
120,153,835257,2,0,P|166:224|119:295,1,180,8|0,0:0|0:0,0:0:0:0:
205,323,835685,2,0,L|119:296,2,90,8|0|8,0:0|0:0|0:0,0:0:0:0:
258,81,836114,6,0,P|340:91|287:154,1,202.500007724762,2|0,0:0|0:0,0:0:0:0:
257,227,836328,2,0,P|204:164|287:154,1,202.500007724762,2|0,0:0|0:0,0:0:0:0:
205,322,836542,2,0,P|316:321|257:227,1,270.000010299683,2|0,0:0|0:0,0:0:0:0:
258,81,836971,6,0,L|313:119,1,67.5,8|0,0:0|0:0,0:0:0:0:
205,323,837185,2,0,L|149:284,1,67.5,8|0,0:0|0:0,0:0:0:0:
196,109,837400,2,0,L|257:80,1,67.5,8|0,0:0|0:0,0:0:0:0:
266,294,837614,2,0,L|205:323,1,67.5,8|0,0:0|0:0,0:0:0:0:
312,119,837828,6,0,B|258:81|258:81|237:90,1,90,8|0,0:0|0:0,0:0:0:0:
226,95,838095,1,8,0:0:0:0:
216,99,838149,1,8,0:0:0:0:
206,104,838202,1,8,0:0:0:0:
196,108,838257,2,0,B|175:118|175:118|121:80,1,90,8|8,0:0|0:0,0:0:0:0:
313,120,838685,6,0,L|423:197,1,135,8|0,0:0|2:2,0:0:0:0:
149,187,838900,2,0,L|226:76,1,135,8|0,0:0|2:0,0:0:0:0:
212,342,839114,2,0,L|101:264,1,135,8|0,0:0|2:0,0:0:0:0:
371,274,839328,2,0,L|293:384,1,135,8|0,0:0|2:0,0:0:0:0:
313,120,839542,6,0,P|333:35|412:-1,1,180,8|0,0:0|0:0,0:0:0:0:
471,153,839971,2,0,P|451:237|372:274,1,180,8|8,0:0|0:0,0:0:0:0:
296,255,840256,1,8,0:0:0:0:
269,183,840327,1,8,0:0:0:0:
312,119,840400,6,0,P|286:67|230:50,1,120,8|0,0:0|0:0,0:0:0:0:
236,126,840614,2,0,P|204:174|221:229,1,120,8|0,0:0|0:0,0:0:0:0:
296,255,840828,2,0,P|258:299|200:305,1,120,8|0,0:0|0:0,0:0:0:0:
124,312,841042,2,0,P|149:364|205:381,1,120,8|0,0:0|0:0,0:0:0:0:
231,51,841257,5,8,0:0:0:0:
222,230,841471,1,8,0:0:0:0:
201,306,841685,1,8,0:0:0:0:
206,382,841900,1,8,0:0:0:0:
313,120,842114,5,8,0:0:0:0:
124,313,842328,1,8,0:0:0:0:
297,255,842542,1,8,0:0:0:0:
237,126,842757,1,8,0:0:0:0:
123,313,842971,6,0,P|187:321|206:382,1,135,8|0,0:0|0:0,0:0:0:0:
237,126,843400,6,0,P|289:193|370:169,1,180,8|0,0:0|0:0,0:0:0:0:
373,172,843667,1,0,0:0:0:0:
375,175,843721,1,0,0:0:0:0:
377,178,843775,1,0,0:0:0:0:
378,180,843828,6,0,P|397:220|380:260,1,90,8|0,0:0|0:0,0:0:0:0:
238,126,844042,2,0,P|219:86|236:46,1,90
469,247,844257,2,0,L|380:260,1,90,8|8,0:0|0:0,0:0:0:0:
326,34,844471,2,0,L|236:46,1,90,8|0,0:0|0:0,0:0:0:0:
125,233,844685,6,0,P|142:273|124:313,1,90,8|0,0:0|0:0,0:0:0:0:
237,205,844900,2,0,P|219:165|238:125,1,90,8|8,0:0|0:0,0:0:0:0:
470,248,845114,2,0,P|452:287|471:327,1,90,0|8,0:0|0:0,0:0:0:0:
358,219,845329,2,0,P|375:179|356:139,1,90,8|0,0:0|0:0,0:0:0:0:
238,126,845542,6,0,L|185:84,2,45,8|0|0,0:0|0:0|0:0,0:0:0:0:
126,233,845757,2,0,P|108:193|127:153,1,90,8|8,0:0|0:0,0:0:0:0:
358,219,845971,2,0,P|375:179|356:139,1,90,0|8,0:0|0:0,0:0:0:0:
126,233,846185,2,0,L|73:240,2,45,8|0|0,0:0|0:0|0:0,0:0:0:0:
316,298,846400,6,0,L|358:219,1,90,8|0,0:0|0:0,0:0:0:0:
279,46,846614,2,0,L|237:125,1,90,8|0,0:0|0:0,0:0:0:0:
358,219,846828,2,0,L|380:177,2,45,8|0|8,0:0|0:0|0:0,0:0:0:0:
238,126,847042,2,8,L|217:165,2,45,0|0|8,0:0|0:0|0:0,0:0:0:0:
126,233,847257,6,0,L|60:171,1,90,8|0,0:0|0:0,0:0:0:0:
358,219,847685,2,0,L|423:157,1,90,8|0,0:0|0:0,0:0:0:0:
61,171,848114,6,0,P|97:146|141:146,1,90,8|0,0:0|0:0,0:0:0:0:
358,219,848328,2,0,P|321:244|277:244,1,90,8|8,0:0|0:0,0:0:0:0:
180,71,848542,2,0,P|148:102|141:146,1,90,0|8,0:0|0:0,0:0:0:0:
277,244,848757,2,0,L|232:236,2,45,8|0|8,0:0|0:0|0:0,0:0:0:0:
180,71,848971,6,0,L|229:56,2,45,8|0|0,0:0|0:0|0:0,0:0:0:0:
259,317,849185,2,0,P|258:272|233:236,1,90,0|8,0:0|0:0,0:0:0:0:
223,57,849400,2,0,P|223:101|249:138,1,90,0|8,0:0|0:0,0:0:0:0:
188,296,849614,2,0,L|137:297,2,45,8|0|0,0:0|0:0|0:0,0:0:0:0:
298,78,849828,6,0,P|336:99|380:96,1,90,8|0,0:0|0:0,0:0:0:0:
143,297,850042,2,0,P|104:275|60:278,1,90,8|8,0:0|0:0,0:0:0:0:
298,78,850257,2,0,L|261:52,2,45,8|0|8,0:0|0:0|0:0,0:0:0:0:
298,78,850578,5,8,0:0:0:0:
435,194,850685,1,12,0:0:0:0:
435,194,850900,5,0,0:0:0:0:
435,194,851007,1,0,0:0:0:0:
434,193,851114,2,0,P|411:254|348:273,1,135.000005149842
212,157,851542,6,2,P|235:96|298:77,1,135.000005149842,2|0,3:1|0:0,0:0:0:0:
349,273,851971,2,2,P|325:333|262:352,1,135.000005149842,8|0,0:3|0:0,0:0:0:0:
378,164,852400,2,2,P|359:101|298:77,1,135.000005149842,2|0,3:1|0:0,0:0:0:0:
212,156,852721,1,0,0:0:0:0:
349,273,852828,2,0,P|333:210|378:163,1,135.000005149842,8|0,0:3|0:0,0:0:0:0:
212,156,853257,6,0,P|256:109|241:46,1,135.000005149842,2|0,3:1|0:0,0:0:0:0:
278,304,853685,2,0,B|264:271|275:232|300:210|300:210|271:194,1,135.000005149842,2|0,3:1|0:0,0:0:0:0:
349,272,854007,1,0,0:0:0:0:
321,137,854114,2,0,P|300:75|241:45,1,135.000005149842,2|0,3:1|0:0,0:0:0:0:
212,156,854435,1,0,0:0:0:0:
278,304,854542,1,2,3:1:0:0:
349,272,854757,5,0,0:0:0:0:
212,156,854864,1,0,0:0:0:0:
321,137,854971,2,0,P|350:78|412:57,1,135.000005149842,2|0,3:1|0:0,0:0:0:0:
206,240,855400,2,0,P|147:210|126:148,1,135.000005149842,2|0,3:1|0:0,0:0:0:0:
212,156,855721,1,0,0:0:0:0:
378,163,855828,2,0,P|333:210|349:273,2,135.000005149842,2|0|2,3:1|0:0|3:1,0:0:0:0:
404,229,856471,5,0,0:0:0:0:
212,156,856578,1,0,0:0:0:0:
347,271,856685,2,0,P|428:296|474:226,1,180,2|0,3:1|0:0,0:0:0:0:
378,163,857007,2,0,P|333:210|349:273,1,135.000005149842,2|0,3:1|0:0,0:0:0:0:
372,293,857221,1,0,0:0:0:0:
403,299,857275,1,0,0:0:0:0:
429,302,857328,1,0,0:0:0:0:
424,333,857382,1,0,0:0:0:0:
405,359,857435,1,0,0:0:0:0:
377,375,857489,1,0,0:0:0:0:
346,383,857542,6,0,P|290:383|241:357,1,112.5,8|8,0:0|0:0,0:0:0:0:
271,280,857757,2,0,P|257:214|280:152,1,135,8|0,0:0|0:0,0:0:0:0:
379,164,857971,2,0,P|392:229|371:295,1,135,8|0,0:0|0:0,0:0:0:0:
270,279,858185,2,0,P|186:290|160:372,2,180,8|0|8,0:0|0:0|0:0,0:0:0:0:
76,199,858828,6,0,P|102:280|186:291,1,180,0|8,0:0|0:0,0:0:0:0:
270,280,859257,2,0,P|298:198|379:163,1,180,8|0,0:0|0:0,0:0:0:0:
468,163,859578,1,8,0:0:0:0:
431,235,859685,2,0,L|378:163,1,90,8|8,0:0|0:0,0:0:0:0:
202,120,860114,6,0,L|255:192,1,90,8|0,0:0|0:0,0:0:0:0:
377,163,860328,2,0,P|349:196|344:240,1,90,8|0,0:0|0:0,0:0:0:0:
189,259,860542,2,0,P|226:284|269:280,1,90
432,235,860757,2,0,L|474:219,2,45,0|0|0,0:0|0:0|0:0,0:0:0:0:
311,355,860971,6,0,P|354:305|345:240,2,135,8|8|8,0:0|0:0|0:0,0:0:0:0:
241,347,861400,1,8,0:0:0:0:
195,294,861507,1,0,0:0:0:0:
148,241,861614,1,0,0:0:0:0:
78,233,861722,1,0,0:0:0:0:
7,244,861828,6,0,P|8:210|25:181,1,67.5,8|0,0:0|0:0,0:0:0:0:
157,194,862042,2,0,P|129:159|88:145,1,90,8|0,0:0|0:0,0:0:0:0:
125,83,862257,2,0,P|153:48|194:33,1,90,8|0,0:0|0:0,0:0:0:0:
222,142,862578,1,0,0:0:0:0:
313,207,862685,6,0,P|284:241|243:256,2,90,8|8|8,0:0|0:0|0:0,0:0:0:0:
382,244,863328,2,0,P|390:200|374:158,1,90,0|0,0:0|0:0,0:0:0:0:
447,106,863542,2,0,P|413:76|369:69,1,90,8|8,0:0|0:0,0:0:0:0:
224,69,863971,5,0,0:0:0:0:
370,70,864078,1,0,0:0:0:0:
252,155,864185,1,0,0:0:0:0:
297,17,864292,1,0,0:0:0:0:
341,154,864399,6,0,P|391:158|433:131,1,101.250003862381,8|0,0:0|0:0,0:0:0:0:
391,253,864614,2,0,P|407:206|391:159,1,101.250003862381,8|0,0:0|0:0,0:0:0:0:
505,105,864828,2,0,P|490:188|407:206,1,180,8|0,0:0|0:0,0:0:0:0:
380,199,865471,5,0,0:0:0:0:
353,194,865685,1,0,0:0:0:0:
326,189,865899,1,0,0:0:0:0:
299,184,866114,2,0,L|198:160,3,90,0|0|0|0,0:0|0:0|0:0|0:0,0:0:0:0:
225,251,866542,2,0,L|137:271,3,90,0|0|0|0,0:0|0:0|0:0|0:0,0:0:0:0:
111,183,866971,6,0,P|60:226|48:291,1,135,8|0,0:0|0:0,0:0:0:0:
174,77,867399,2,0,P|123:119|111:184,1,135,8|0,0:0|0:0,0:0:0:0:
48,291,867828,2,0,P|113:303|156:354,1,135,8|0,0:0|0:0,0:0:0:0:
381,347,868257,2,0,P|412:335|446:334,1,67.5,0|0,0:0|0:0,0:0:0:0:
494,209,868685,5,2,0:0:0:0:
334,291,869113,2,0,P|271:314|209:293,2,135,8|8|0,0:0|0:0|0:0,0:0:0:0:
184,189,869970,2,0,L|119:126,1,90
328,189,870185,2,0,L|392:126,1,90
256,78,870399,6,0,L|256:33,2,45,8|0|0,0:0|0:0|0:0,0:0:0:0:
256,221,870613,2,0,L|256:266,2,45,8|0|0,0:0|0:0|0:0,0:0:0:0:
256,203,870827,1,8,0:0:0:0:
256,184,870935,1,0,0:0:0:0:
255,166,871042,1,8,0:0:0:0:
255,148,871149,1,8,0:0:0:0:
255,148,871470,6,0,P|265:105|299:76,1,90,8|0,0:0|0:0,0:0:0:0:
228,30,871792,2,0,P|235:73|267:104,1,90,8|0,0:0|0:0,0:0:0:0:
346,146,872113,2,0,L|377:159,2,22.5,8|0|0,0:0|0:0|0:0,0:0:0:0:
165,135,872435,2,0,P|177:200|230:240,1,135
346,146,872863,6,0,P|381:120|425:124,1,90,8|0,0:0|0:0,0:0:0:0:
401,227,873185,2,0,P|365:252|321:248,1,90,8|0,0:0|0:0,0:0:0:0:
346,146,873506,2,0,P|381:120|425:124,1,90,8|0,0:0|0:0,0:0:0:0:
440,134,873827,6,0,L|480:159,3,45,0|0|0|0,0:0|0:0|0:0|0:0,0:0:0:0:
483,175,874042,2,0,L|463:228,3,45,0|0|0|0,0:0|0:0|0:0|0:0,0:0:0:0:
459,233,874256,2,0,L|462:293,4,45,0|0|0|0|0,0:0|0:0|0:0|0:0|0:0,0:0:0:0:
346,146,874577,5,2,0:0:0:0:
345,146,874685,2,0,P|302:170|253:162,1,101.250003862381,2|0,0:0|0:0,0:0:0:0:
263,244,874899,2,0,P|273:201|253:162,1,90,2|0,0:0|0:0,0:0:0:0:
160,145,875220,1,2,0:0:0:0:
161,146,875328,2,0,P|204:170|253:162,1,101.250003862381,2|0,0:0|0:0,0:0:0:0:
346,146,875542,6,0,P|343:190|321:229,1,90,2|2,0:0|0:0,0:0:0:0:
185,228,875756,2,0,P|163:189|161:145,2,90,0|2|0,0:0|0:0|0:0,0:0:0:0:
212,77,876077,2,0,P|255:68|298:80,2,90,2|2|0,0:0|0:0|0:0,0:0:0:0:
321,229,876399,6,0,P|299:268|297:313,2,90,2|2|8,0:0|0:0|0:0,0:0:0:0:
251,155,876935,2,0,P|222:120|212:77,1,90,2|0,0:0|0:0,0:0:0:0:
212,77,877256,6,0,P|192:37|153:17,1,90,8|0,0:0|0:0,0:0:0:0:
294,56,877577,2,0,P|249:53|212:77,1,90,8|0,0:0|0:0,0:0:0:0:
170,177,877792,2,0,P|214:179|251:155,1,90,8|0,0:0|0:0,0:0:0:0:
293,55,878006,6,0,P|345:97|360:162,2,135,8|8|8,0:0|0:0|0:0,0:0:0:0:
293,55,878756,1,8,0:0:0:0:
293,55,878970,6,0,P|304:98|283:136,1,90,8|0,0:0|0:0,0:0:0:0:
202,299,879185,2,0,P|191:256|212:218,1,90,8|0,0:0|0:0,0:0:0:0:
294,56,879399,2,0,P|332:77|375:67,1,90
203,126,879613,2,0,P|245:115|283:136,1,90,8|0,0:0|0:0,0:0:0:0:
312,146,879773,5,0,0:0:0:0:
341,149,879827,1,8,0:0:0:0:
371,145,879880,1,0,0:0:0:0:
399,135,879934,1,0,0:0:0:0:
424,118,879987,1,0,0:0:0:0:
445,97,880042,6,0,L|480:53,2,45,8|0|0,0:0|0:0|0:0,0:0:0:0:
424,118,880256,1,0,0:0:0:0:
399,135,880363,1,0,0:0:0:0:
371,145,880470,1,8,0:0:0:0:
341,149,880577,1,0,0:0:0:0:
312,147,880685,6,0,L|258:137,8,45,8|0|0|0|0|0|0|0|0,0:0|0:0|0:0|0:0|0:0|0:0|0:0|0:0|0:0,0:0:0:0:
312,147,881327,1,8,0:0:0:0:
312,147,881756,6,0,L|403:177,1,90,8|8,0:0|0:0,0:0:0:0:
319,264,882077,2,0,L|233:235,1,90,8|8,0:0|0:0,0:0:0:0:
312,147,882399,2,0,P|344:203|319:264,1,135,8|0,0:0|0:0,0:0:0:0:
312,146,883042,6,0,P|269:159|225:151,1,90,8|0,0:0|0:0,0:0:0:0:
178,82,883256,2,0,P|220:67|263:76,1,90,8|0,0:0|0:0,0:0:0:0:
311,147,883577,2,0,P|345:90|331:25,1,135,8|8,0:0|0:0,0:0:0:0:
331,25,884327,6,0,L|316:1,11,22.5,8|0|0|0|0|0|0|0|0|0|0|0,0:0|0:0|0:0|0:0|0:0|0:0|0:0|0:0|0:0|0:0|0:0|0:0,0:0:0:0:
331,25,884970,1,8,0:0:0:0:
256,256,961362,6,0,L|256:160,1,90,2|0,0:0|0:0,0:0:0:0:
268,124,961737,5,2,0:0:0:0:
291,101,961812,1,2,0:0:0:0:
319,87,961887,1,2,0:0:0:0:
351,81,961962,1,2,0:0:0:0:
383,79,962037,1,2,0:0:0:0:
414,71,962112,1,2,0:0:0:0:
441,54,962187,1,2,0:0:0:0:
464,31,962262,5,2,0:0:0:0:
463,62,962337,1,2,0:0:0:0:
453,92,962412,1,2,0:0:0:0:
435,119,962487,1,2,0:0:0:0:
413,143,962562,1,2,0:0:0:0:
397,171,962637,1,2,0:0:0:0:
390,202,962712,1,2,0:0:0:0:
390,234,962787,1,2,0:0:0:0:
396,279,962862,6,0,P|330:288|275:251,1,135,6|2,0:0|0:0,0:0:0:0:
220,184,963162,2,0,P|200:204|192:272,1,90,8|2,0:0|0:0,0:0:0:0:
108,304,963462,1,6,0:0:0:0:
108,304,963537,1,2,0:0:0:0:
220,184,963687,1,2,0:0:0:0:
220,184,963762,1,10,0:0:0:0:
108,304,963912,2,0,L|104:259,1,45,2|0,0:0|0:0,0:0:0:0:
28,208,964062,6,0,P|56:184|156:184,1,135,6|2,0:0|0:0,0:0:0:0:
105,259,964362,2,0,P|147:272|190:261,2,90,8|0|4,0:0|0:0|0:0,0:0:0:0:
27,208,964737,2,0,P|84:173|144:180,1,90,2|0,0:0|0:0,0:0:0:0:
196,176,964962,2,0,P|186:132|159:97,1,90,10|2,0:0|0:0,0:0:0:0:
144,100,965262,6,0,P|210:91|265:128,1,135,6|2,0:0|0:0,0:0:0:0:
320,195,965562,2,0,P|340:175|348:107,1,90,8|0,0:0|0:0,0:0:0:0:
432,75,965862,1,6,0:0:0:0:
432,75,965937,1,2,0:0:0:0:
320,195,966087,1,2,0:0:0:0:
320,195,966162,1,10,0:0:0:0:
432,75,966312,2,0,L|435:119,1,45,2|0,0:0|0:0,0:0:0:0:
512,171,966462,6,0,P|484:195|384:195,1,135,6|0,0:0|0:0,0:0:0:0:
434,119,966762,2,0,P|391:105|348:116,2,90,10|2|6,0:0|0:0|0:0,0:0:0:0:
512,170,967137,2,0,P|455:204|395:198,1,90,2|2,0:0|0:0,0:0:0:0:
344,203,967362,2,0,P|353:246|380:281,1,90,10|2,0:0|0:0,0:0:0:0:
396,284,967662,6,0,P|352:312|264:288,1,135,6|2,0:0|0:0,0:0:0:0:
186,280,967962,2,0,P|205:240|240:212,1,90,10|2,0:0|0:0,0:0:0:0:
292,72,968262,1,6,0:0:0:0:
292,72,968337,1,2,0:0:0:0:
184,280,968487,1,2,0:0:0:0:
184,280,968562,1,10,0:0:0:0:
292,72,968712,2,0,L|292:120,1,45,2|0,0:0|0:0,0:0:0:0:
264,200,968862,6,0,P|312:204|368:164,1,90,6|2,0:0|0:0,0:0:0:0:
360,180,969087,1,2,0:0:0:0:
372,172,969162,1,10,0:0:0:0:
384,164,969237,1,2,0:0:0:0:
396,156,969312,1,2,0:0:0:0:
408,148,969387,1,2,0:0:0:0:
420,140,969462,2,0,L|420:40,1,90,6|0,0:0|0:0,0:0:0:0:
92,140,969762,2,0,L|92:40,1,90,8|0,0:0|0:0,0:0:0:0:
208,292,970062,5,12,0:0:0:0:
252,300,970137,2,8,P|296:304|356:288,1,90
432,284,970362,2,0,P|424:256|372:208,2,90,8|8|12,0:0|0:0|0:0,0:0:0:0:
252,300,970962,1,8,0:0:0:0:
432,284,971112,1,8,0:0:0:0:
252,300,971262,6,0,L|216:192,1,90,4|4,0:0|0:0,0:0:0:0:
403,198,971562,1,6,0:0:0:0:
252,300,971862,6,2,L|166:271,1,90,0|8,0:0|0:0,0:0:0:0:
144,272,972237,5,0,0:0:0:0:
120,272,972312,1,0,0:0:0:0:
96,272,972387,1,0,0:0:0:0:
72,272,972462,6,0,L|72:176,1,90,4|0,0:0|0:0,0:0:0:0:
192,84,972762,2,0,L|192:180,1,90,8|0,0:0|0:0,0:0:0:0:
72,272,973062,2,0,L|72:176,1,90,4|0,0:0|0:0,0:0:0:0:
212,64,973362,2,0,L|212:160,1,90,8|0,0:0|0:0,0:0:0:0:
424,192,973662,5,12,0:0:0:0:
348,240,973812,2,0,L|348:288,2,45,8|8|8,0:0|0:0|0:0,0:0:0:0:
272,192,974112,1,8,0:0:0:0:
196,144,974262,2,0,B|152:152|112:116|112:116|116:184|72:196,1,180,12|14,0:0|2:0,0:0:0:0:
174,312,974862,6,0,L|270:312,1,90,4|0,0:0|0:0,0:0:0:0:
362,192,975162,2,0,L|272:192,1,90,8|0,0:0|0:0,0:0:0:0:
174,312,975462,2,0,L|270:312,1,90,4|0,0:0|0:0,0:0:0:0:
382,172,975762,2,0,L|286:172,1,90,8|0,0:0|0:0,0:0:0:0:
176,312,976062,6,0,L|128:312,1,45,12|8,0:0|0:0,0:0:0:0:
176,212,976287,2,0,L|131:212,1,45,8|8,0:0|0:0,0:0:0:0:
176,112,976512,1,8,0:0:0:0:
176,112,976662,1,12,0:0:0:0:
44,96,976812,1,8,0:0:0:0:
64,105,976887,1,8,0:0:0:0:
82,119,976962,1,8,0:0:0:0:
83,99,977037,1,8,0:0:0:0:
87,77,977112,1,8,0:0:0:0:
97,57,977187,1,8,0:0:0:0:
116,44,977262,6,0,L|220:32,1,90,4|0,0:0|0:0,0:0:0:0:
328,156,977562,2,0,L|224:168,1,90,8|0,0:0|0:0,0:0:0:0:
116,44,977862,6,0,L|220:32,1,90,4|0,0:0|0:0,0:0:0:0:
368,196,978162,2,0,L|264:208,1,90,8|0,0:0|0:0,0:0:0:0:
260,248,978387,1,0,0:0:0:0:
232,284,978462,6,0,L|140:284,1,90,4|0,0:0|0:0,0:0:0:0:
164,168,978762,6,0,L|164:80,1,74.70000108284,12|0,0:0|0:0,0:0:0:0:
280,100,979062,6,0,L|360:100,1,60.2999971476747,4|0,0:0|0:0,0:0:0:0:
348,216,979362,6,0,L|348:280,1,45,12|0,0:0|0:0,0:0:0:0:
232,284,979662,6,0,L|176:284,15,45,4|0|0|0|8|0|0|0|4|0|0|0|8|0|0|0,0:0|0:0|0:0|0:0|0:0|0:0|0:0|0:0|0:0|0:0|0:0|0:0|0:0|0:0|0:0|0:0,0:0:0:0:
104,312,980862,6,0,P|103:267|123:227,1,90,6|2,0:0|0:0,0:0:0:0:
152,192,981087,1,2,0:0:0:0:
123,156,981162,2,0,P|103:116|104:71,1,90,10|2,0:0|0:0,0:0:0:0:
44,32,981387,2,0,P|83:3|128:4,2,90,2|2|2,0:0|0:0|0:0,0:0:0:0:
104,71,981762,2,0,P|103:116|123:156,1,90,10|2,0:0|0:0,0:0:0:0:
192,96,982062,1,6,0:0:0:0:
256,192,982137,12,2,985662,0:0:0:0:
144,48,986862,6,0,L|144:104,6,45,6|0|0|0|0|0|0,0:0|0:0|0:0|0:0|0:0|0:0|0:0,0:0:0:0:
84,132,987462,2,0,P|120:160|200:136,2,135,6|4|6,0:0|0:0|0:0,0:0:0:0:
144,93,988062,6,0,L|144:149,6,45,6|0|0|0|0|0|0,0:0|0:0|0:0|0:0|0:0|0:0|0:0,0:0:0:0:
84,177,988662,2,0,P|120:205|200:181,2,135,6|6|6,0:0|0:0|0:0,0:0:0:0:
144,138,989262,6,0,L|144:213,3,45,6|0|0|0,0:0|0:0|0:0|0:0,0:0:0:0:
138,233,989562,2,0,L|191:286,3,45,6|0|0|0,0:0|0:0|0:0|0:0,0:0:0:0:
202,304,989862,6,0,L|277:304,3,45,6|0|0|0,0:0|0:0|0:0|0:0,0:0:0:0:
297,309,990162,2,0,L|350:256,3,45,6|0|0|0,0:0|0:0|0:0|0:0,0:0:0:0:
360,244,990462,5,8,0:0:0:0:
375,227,990537,1,0,0:0:0:0:
387,208,990612,1,0,0:0:0:0:
395,187,990687,1,0,0:0:0:0:
399,165,990762,1,10,0:0:0:0:
399,143,990837,1,0,0:0:0:0:
394,121,990912,1,10,0:0:0:0:
386,100,990987,1,0,0:0:0:0:
373,81,991062,5,10,0:0:0:0:
358,65,991137,1,0,0:0:0:0:
339,52,991212,1,0,0:0:0:0:
319,43,991287,1,0,0:0:0:0:
297,39,991362,1,10,0:0:0:0:
274,38,991437,1,0,0:0:0:0:
252,42,991512,1,0,0:0:0:0:
231,49,991587,1,0,0:0:0:0:
216,64,991662,6,2,B|172:96|128:56|128:56|124:128|52:144|52:144|124:128|261:192|124:256|52:240|52:240|124:256|128:328|128:328|172:288|216:320,1,720
236,320,992937,5,0,0:0:0:0:
256,320,993012,1,0,0:0:0:0:
276,320,993087,1,0,0:0:0:0:
296,320,993162,1,12,0:0:0:0:
315,320,993237,1,0,0:0:0:0:
335,320,993312,1,0,0:0:0:0:
355,320,993387,1,0,0:0:0:0:
375,320,993462,5,0,0:0:0:0:
395,320,993537,1,0,0:0:0:0:
414,320,993612,1,12,0:0:0:0:
434,320,993687,1,0,0:0:0:0:
452,317,993762,1,0,0:0:0:0:
452,297,993837,1,0,0:0:0:0:
452,278,993912,1,12,0:0:0:0:
452,258,993987,1,0,0:0:0:0:
442,247,994062,5,0,0:0:0:0:
422,246,994137,1,0,0:0:0:0:
402,244,994212,1,0,0:0:0:0:
383,241,994287,1,0,0:0:0:0:
363,237,994362,1,12,0:0:0:0:
344,232,994437,1,0,0:0:0:0:
326,224,994512,1,0,0:0:0:0:
309,214,994587,1,0,0:0:0:0:
292,204,994662,5,0,0:0:0:0:
276,192,994737,1,0,0:0:0:0:
292,180,994812,1,12,0:0:0:0:
309,169,994887,1,0,0:0:0:0:
326,159,994962,1,0,0:0:0:0:
344,151,995037,1,0,0:0:0:0:
363,146,995112,1,12,0:0:0:0:
383,142,995187,1,0,0:0:0:0:
402,139,995262,5,0,0:0:0:0:
422,137,995337,1,0,0:0:0:0:
442,136,995412,1,0,0:0:0:0:
452,125,995487,1,0,0:0:0:0:
452,106,995562,1,12,0:0:0:0:
452,86,995637,1,0,0:0:0:0:
452,66,995712,1,0,0:0:0:0:
434,64,995787,1,0,0:0:0:0:
414,64,995862,5,0,0:0:0:0:
395,64,995937,1,0,0:0:0:0:
375,64,996012,1,12,0:0:0:0:
355,64,996087,1,0,0:0:0:0:
335,64,996162,1,0,0:0:0:0:
315,64,996237,1,0,0:0:0:0:
296,64,996312,1,12,0:0:0:0:
276,64,996387,1,0,0:0:0:0:
256,64,996462,5,0,0:0:0:0:
236,64,996537,1,0,0:0:0:0:
216,64,996612,1,12,0:0:0:0:
196,64,996687,1,0,0:0:0:0:
176,64,996762,1,0,0:0:0:0:
156,64,996837,1,0,0:0:0:0:
136,64,996912,1,12,0:0:0:0:
117,64,996987,1,0,0:0:0:0:
97,64,997062,5,12,0:0:0:0:
77,64,997137,1,0,0:0:0:0:
60,66,997212,1,12,0:0:0:0:
60,86,997287,1,0,0:0:0:0:
60,106,997362,1,12,0:0:0:0:
60,125,997437,1,0,0:0:0:0:
69,136,997512,1,12,0:0:0:0:
89,137,997587,1,0,0:0:0:0:
109,139,997662,5,12,0:0:0:0:
128,142,997737,1,0,0:0:0:0:
148,146,997812,1,0,0:0:0:0:
167,151,997887,1,0,0:0:0:0:
185,159,997962,1,12,0:0:0:0:
202,169,998037,1,0,0:0:0:0:
215,184,998112,1,0,0:0:0:0:
234,192,998187,1,0,0:0:0:0:
215,199,998262,5,0,0:0:0:0:
202,214,998337,1,0,0:0:0:0:
185,224,998412,1,12,0:0:0:0:
167,232,998487,1,0,0:0:0:0:
148,237,998562,1,0,0:0:0:0:
128,241,998637,1,0,0:0:0:0:
109,244,998712,1,12,0:0:0:0:
89,246,998787,1,0,0:0:0:0:
69,247,998862,5,0,0:0:0:0:
60,258,998937,1,0,0:0:0:0:
60,278,999012,1,0,0:0:0:0:
60,297,999087,1,0,0:0:0:0:
60,317,999162,1,12,0:0:0:0:
77,320,999237,1,0,0:0:0:0:
97,320,999312,1,0,0:0:0:0:
117,320,999387,1,0,0:0:0:0:
136,320,999462,5,0,0:0:0:0:
156,320,999537,1,0,0:0:0:0:
176,320,999612,1,12,0:0:0:0:
196,320,999687,1,0,0:0:0:0:
216,320,999762,1,0,0:0:0:0:
236,320,999837,1,0,0:0:0:0:
255,319,999912,1,12,0:0:0:0:
274,318,999987,1,0,0:0:0:0:
294,315,1000062,5,0,0:0:0:0:
313,309,1000137,1,0,0:0:0:0:
330,300,1000212,1,0,0:0:0:0:
346,288,1000287,1,0,0:0:0:0:
361,274,1000362,1,12,0:0:0:0:
373,259,1000437,1,0,0:0:0:0:
382,242,1000512,1,0,0:0:0:0:
390,223,1000587,1,0,0:0:0:0:
394,204,1000662,5,0,0:0:0:0:
395,184,1000737,1,0,0:0:0:0:
394,164,1000812,1,12,0:0:0:0:
389,145,1000887,1,0,0:0:0:0:
382,127,1000962,1,0,0:0:0:0:
372,109,1001037,1,0,0:0:0:0:
360,94,1001112,1,12,0:0:0:0:
346,80,1001187,1,0,0:0:0:0:
330,69,1001262,5,0,0:0:0:0:
312,60,1001337,1,0,0:0:0:0:
293,54,1001412,1,12,0:0:0:0:
274,50,1001487,1,0,0:0:0:0:
255,49,1001562,1,12,0:0:0:0:
237,50,1001637,1,0,0:0:0:0:
218,54,1001712,1,12,0:0:0:0:
199,60,1001787,1,0,0:0:0:0:
181,69,1001862,5,12,0:0:0:0:
165,80,1001937,1,0,0:0:0:0:
151,94,1002012,1,12,0:0:0:0:
139,109,1002087,1,0,0:0:0:0:
129,127,1002162,1,12,0:0:0:0:
122,145,1002237,1,0,0:0:0:0:
117,164,1002312,1,12,0:0:0:0:
116,184,1002387,1,0,0:0:0:0:
117,204,1002462,5,12,0:0:0:0:
121,223,1002537,1,0,0:0:0:0:
129,242,1002612,1,0,0:0:0:0:
138,259,1002687,1,0,0:0:0:0:
150,274,1002762,1,6,0:0:0:0:
165,288,1002837,1,0,0:0:0:0:
181,300,1002912,1,0,0:0:0:0:
198,309,1002987,1,0,0:0:0:0:
217,315,1003062,5,0,0:0:0:0:
237,318,1003137,1,0,0:0:0:0:
256,321,1003212,1,6,0:0:0:0:
275,316,1003287,1,0,0:0:0:0:
294,310,1003362,1,0,0:0:0:0:
312,303,1003437,1,0,0:0:0:0:
330,294,1003512,1,6,0:0:0:0:
347,284,1003587,1,0,0:0:0:0:
363,272,1003662,5,0,0:0:0:0:
377,258,1003737,1,0,0:0:0:0:
389,242,1003812,1,0,0:0:0:0:
398,225,1003887,1,0,0:0:0:0:
405,206,1003962,1,6,0:0:0:0:
410,187,1004037,1,0,0:0:0:0:
412,167,1004112,1,0,0:0:0:0:
412,148,1004187,1,0,0:0:0:0:
411,128,1004262,5,0,0:0:0:0:
412,108,1004337,1,0,0:0:0:0:
393,108,1004412,1,6,0:0:0:0:
373,108,1004487,1,0,0:0:0:0:
353,108,1004562,1,0,0:0:0:0:
333,108,1004637,1,0,0:0:0:0:
313,108,1004712,1,6,0:0:0:0:
294,108,1004787,1,0,0:0:0:0:
274,108,1004862,5,0,0:0:0:0:
256,108,1004937,1,0,0:0:0:0:
237,108,1005012,1,0,0:0:0:0:
217,108,1005087,1,0,0:0:0:0:
198,108,1005162,1,6,0:0:0:0:
178,108,1005237,1,0,0:0:0:0:
158,108,1005312,1,0,0:0:0:0:
138,108,1005387,1,0,0:0:0:0:
118,108,1005462,5,0,0:0:0:0:
99,108,1005537,1,0,0:0:0:0:
100,128,1005612,1,6,0:0:0:0:
99,148,1005687,1,0,0:0:0:0:
99,167,1005762,1,0,0:0:0:0:
101,187,1005837,1,0,0:0:0:0:
106,206,1005912,1,6,0:0:0:0:
113,225,1005987,1,0,0:0:0:0:
122,242,1006062,5,0,0:0:0:0:
134,258,1006137,1,0,0:0:0:0:
148,272,1006212,1,6,0:0:0:0:
164,284,1006287,1,0,0:0:0:0:
181,294,1006362,1,0,0:0:0:0:
199,303,1006437,1,0,0:0:0:0:
217,310,1006512,1,6,0:0:0:0:
236,316,1006587,1,0,0:0:0:0:
256,321,1006662,5,6,0:0:0:0:
274,318,1006737,1,0,0:0:0:0:
294,315,1006812,1,6,0:0:0:0:
313,309,1006887,1,0,0:0:0:0:
330,300,1006962,1,6,0:0:0:0:
346,288,1007037,1,0,0:0:0:0:
361,274,1007112,1,6,0:0:0:0:
373,259,1007187,1,0,0:0:0:0:
382,242,1007262,5,6,0:0:0:0:
390,223,1007337,1,0,0:0:0:0:
394,204,1007412,1,0,0:0:0:0:
395,184,1007487,1,0,0:0:0:0:
394,164,1007562,1,6,0:0:0:0:
389,145,1007637,1,0,0:0:0:0:
382,127,1007712,1,0,0:0:0:0:
372,109,1007787,1,0,0:0:0:0:
360,94,1007862,5,0,0:0:0:0:
346,80,1007937,1,0,0:0:0:0:
330,69,1008012,1,6,0:0:0:0:
312,60,1008087,1,0,0:0:0:0:
293,54,1008162,1,0,0:0:0:0:
274,50,1008237,1,0,0:0:0:0:
257,49,1008312,1,6,0:0:0:0:
237,50,1008387,1,0,0:0:0:0:
218,54,1008462,5,0,0:0:0:0:
199,60,1008537,1,0,0:0:0:0:
181,69,1008612,1,0,0:0:0:0:
165,80,1008687,1,0,0:0:0:0:
151,94,1008762,1,6,0:0:0:0:
139,109,1008837,1,0,0:0:0:0:
129,127,1008912,1,0,0:0:0:0:
122,145,1008987,1,0,0:0:0:0:
117,164,1009062,5,0,0:0:0:0:
116,184,1009137,1,0,0:0:0:0:
117,204,1009212,1,6,0:0:0:0:
121,223,1009287,1,0,0:0:0:0:
129,242,1009362,1,0,0:0:0:0:
138,259,1009437,1,0,0:0:0:0:
150,274,1009512,1,6,0:0:0:0:
165,288,1009587,1,0,0:0:0:0:
181,300,1009662,5,0,0:0:0:0:
198,309,1009737,1,0,0:0:0:0:
217,315,1009812,1,0,0:0:0:0:
236,321,1009887,1,0,0:0:0:0:
256,322,1009962,1,6,0:0:0:0:
275,323,1010037,1,0,0:0:0:0:
295,323,1010112,1,0,0:0:0:0:
315,323,1010187,1,0,0:0:0:0:
335,323,1010262,5,0,0:0:0:0:
355,323,1010337,1,0,0:0:0:0:
374,323,1010412,1,6,0:0:0:0:
394,323,1010487,1,0,0:0:0:0:
414,323,1010562,1,0,0:0:0:0:
434,323,1010637,1,0,0:0:0:0:
454,324,1010712,5,14,0:0:0:0:
454,324,1011012,5,14,0:0:0:0:
454,324,1011312,5,14,0:0:0:0:
436,180,1011462,5,14,0:0:0:0:
321,90,1011612,5,14,0:0:0:0:
177,108,1011762,5,14,0:0:0:0:
87,223,1011912,5,14,0:0:0:0:
105,367,1012062,6,2,P|207:343|255:250,1,215.999993408203,6|8,0:0|0:0,0:0:0:0:
134,250,1012512,5,2,0:0:0:0:
406,367,1012662,6,2,P|304:343|256:250,1,215.999993408203,0|8,0:0|0:0,0:0:0:0:
378,250,1013112,5,4,0:0:0:0:
384,256,1013187,5,4,0:0:0:0:
388,264,1013262,6,0,P|450:246|479:151,1,161.999995056153,4|0,0:0|2:0,0:0:0:0:
488,72,1013562,6,0,P|425:89|396:184,1,161.999995056153,12|0,0:0|2:0,0:0:0:0:
388,264,1013862,6,0,P|328:236|312:144,1,161.999995056153,4|0,0:0|2:0,0:0:0:0:
341,69,1014162,6,2,P|277:69|237:105,1,107.999996704102,8|0,0:0|0:0,0:0:0:0:
168,172,1014612,6,0,L|168:232,2,53.9999983520508,8|8|8,0:0|0:0|0:0,0:0:0:0:
243,94,1014912,1,8,0:0:0:0:
67,155,1015062,2,0,P|115:178|168:172,1,107.999996704102,8|8,0:0|0:0,0:0:0:0:
208,135,1015287,1,8,0:0:0:0:
244,95,1015362,2,0,P|308:91|348:115,1,107.999996704102,0|8,0:0|0:0,0:0:0:0:
376,156,1015587,1,8,0:0:0:0:
412,196,1015662,6,0,B|428:244|428:244|356:252|336:328,1,161.999995056153,4|0,0:0|2:0,0:0:0:0:
283,374,1015962,6,0,B|237:341|258:272|258:272|208:268,1,161.999995056153,12|0,0:0|2:0,0:0:0:0:
144,208,1016262,6,0,B|177:162|246:183|246:183|252:140,2,107.999996704102,12|8|8,0:0|0:0|0:0,0:0:0:0:
60,140,1016712,6,2,L|60:96,3,26.9999991760254,8|8|8|8,0:0|0:0|0:0|0:0,0:0:0:0:
60,92,1016862,6,0,L|168:92,1,90,4|0,0:0|0:0,0:0:0:0:
272,192,1017162,2,0,L|164:192,1,90,8|0,0:0|0:0,0:0:0:0:
60,92,1017462,2,0,L|168:92,1,90,4|0,0:0|0:0,0:0:0:0:
292,212,1017762,2,0,L|184:212,1,90,8|0,0:0|0:0,0:0:0:0:
60,92,1018062,6,0,L|168:92,1,90,4|0,0:0|0:0,0:0:0:0:
312,232,1018362,2,0,L|204:232,1,90,8|0,0:0|0:0,0:0:0:0:
60,92,1018662,2,0,L|168:92,1,90,4|0,0:0|0:0,0:0:0:0:
332,252,1018962,2,0,L|224:252,1,90,8|0,0:0|0:0,0:0:0:0:
60,92,1019262,6,0,L|168:92,1,90,4|0,0:0|0:0,0:0:0:0:
352,272,1019562,2,0,L|244:272,1,90,8|0,0:0|0:0,0:0:0:0:
60,92,1019862,2,0,L|168:92,1,90,4|0,0:0|0:0,0:0:0:0:
372,292,1020162,2,0,L|264:292,1,90,8|0,0:0|0:0,0:0:0:0:
60,92,1020462,6,0,L|168:92,1,90,4|0,0:0|0:0,0:0:0:0:
392,312,1020762,2,0,L|284:312,1,90,8|0,0:0|0:0,0:0:0:0:
60,92,1021062,2,0,L|168:92,1,90,4|0,0:0|0:0,0:0:0:0:
412,332,1021362,2,0,L|304:332,1,90,8|0,0:0|0:0,0:0:0:0:
256,272,1021662,5,4,0:0:0:0:
192,208,1021812,2,0,L|192:180,3,22.5,8|8|8|8,0:0|0:0|0:0|0:0,0:0:0:0:
212,176,1021962,6,2,B|212:120|212:120|232:100|232:100|232:68|232:68|256:44|256:44|256:8,1,180,8|8,0:0|0:0,0:0:0:0:
300,16,1022337,1,8,0:0:0:0:
344,20,1022412,1,8,0:0:0:0:
388,24,1022487,1,8,0:0:0:0:
432,28,1022562,2,2,B|432:84|432:84|412:104|412:104|412:136|412:136|388:160|388:160|388:196,1,180,0|8,0:0|0:0,0:0:0:0:
320,248,1023012,6,0,L|320:296,2,45,2|2|10,0:0|0:0|0:0,0:0:0:0:
192,248,1023312,2,0,L|192:296,2,45,2|2|0,0:0|0:0|0:0,0:0:0:0:
192,204,1023537,2,0,L|192:112,1,90,2|2,0:0|0:0,0:0:0:0:
148,64,1023762,2,0,P|200:48|252:80,1,90,10|2,0:0|0:0,0:0:0:0:
192,204,1024062,1,6,0:0:0:0:
48,160,1031860,5,8,0:0:0:0:
128,224,1031977,1,0,0:0:0:0:
108,324,1032095,2,0,P|152:364|208:368,1,90,0|8,0:0|0:0,0:0:0:0:
280,344,1032330,2,0,P|224:304|188:296,1,90,8|0,0:0|0:0,0:0:0:0:
400,276,1032565,2,0,B|424:216|416:164|416:164|472:156|496:128,1,180,0|8,0:0|0:0,0:0:0:0:
320,188,1032918,1,0,0:0:0:0:
368,48,1033036,2,0,B|328:92|328:92|296:116|244:100|224:56,2,180,0|8|0,0:0|0:0|0:0,0:0:0:0:
64,72,1033624,6,0,P|56:144|8:168,1,90,0|8,0:0|0:0,0:0:0:0:
56,252,1033860,1,0,0:0:0:0:
128,336,1033977,2,0,L|332:332,2,180,0|8|0,0:0|0:0|0:0,0:0:0:0:
356,240,1034565,2,0,P|404:188|416:132,1,90,0|8,0:0|0:0,0:0:0:0:
388,44,1034801,2,0,P|340:104|340:140,1,90
172,212,1035036,5,8,0:0:0:0:
196,80,1035154,1,8,0:0:0:0:
260,212,1035271,1,0,0:0:0:0:
128,140,1035389,1,0,0:0:0:0:
280,128,1035507,1,0,0:0:0:0:
32,264,1035624,6,0,B|64:344|132:332|132:332|188:360,1,180,8|0,0:0|0:0,0:0:0:0:
264,352,1035977,1,8,0:0:0:0:
240,256,1036095,2,0,B|280:224|280:224|288:172|312:112|392:128,1,180,8|0,0:0|0:0,0:0:0:0:
376,200,1036448,6,0,P|428:164|432:112,2,90,0|8|0,0:0|0:0|0:0,0:0:0:0:
168,184,1036801,1,0,0:0:0:0:
60,168,1036918,2,0,B|64:116|40:52|40:52|44:56|92:64|132:52,2,180,8|0|8,0:0|0:0|0:0,0:0:0:0:
108,264,1037507,6,0,P|164:320|272:296,1,180,0|0,0:0|0:0,0:0:0:0:
200,236,1037860,1,8,0:0:0:0:
308,244,1037977,2,0,P|336:168|324:132,1,90,8|0,0:0|0:0,0:0:0:0:
280,112,1038212,2,0,L|312:72,4,45,0|0|0|0|8,0:0|0:0|0:0|0:0|0:0,0:0:0:0:
176,80,1038565,6,0,P|120:104|80:88,1,90
16,144,1038801,2,0,P|64:188|128:184,1,90,8|8,0:0|0:0,0:0:0:0:
204,244,1039036,2,0,P|156:272|104:272,1,90
12,316,1039271,2,0,P|56:352|116:356,1,90,0|8,0:0|0:0,0:0:0:0:
256,344,1039507,5,0,0:0:0:0:
324,224,1039624,1,0,0:0:0:0:
188,160,1039742,1,8,0:0:0:0:
108,92,1039860,2,0,P|124:32|248:36,1,180,8|0,0:0|0:0,0:0:0:0:
184,84,1040212,2,0,P|240:96|304:64,2,90,0|8|0,0:0|0:0|0:0,0:0:0:0:
40,164,1040565,1,0,0:0:0:0:
88,252,1040683,6,0,L|112:320,4,45,8|0|8|0|0,0:0|0:0|0:0|0:0|0:0,0:0:0:0:
208,216,1041036,1,0,0:0:0:0:
336,296,1041154,2,0,P|396:228|392:120,1,180
272,52,1041507,2,0,P|220:20|176:20,1,90,8|0,0:0|0:0,0:0:0:0:
44,64,1041742,2,0,P|88:100|144:112,1,90,0|0,0:0|0:0,0:0:0:0:
216,128,1041977,1,0,0:0:0:0:
216,128,1042095,6,0,P|264:184|312:192,1,90,0|8,0:0|0:0,0:0:0:0:
148,192,1042330,2,0,P|100:240|52:240,1,90,8|0,0:0|0:0,0:0:0:0:
232,248,1042565,1,8,0:0:0:0:
256,248,1042624,1,0,0:0:0:0:
280,248,1042683,1,0,0:0:0:0:
304,248,1042742,1,0,0:0:0:0:
328,248,1042801,1,8,0:0:0:0:
412,244,1042918,6,0,P|424:180|420:128,1,90
392,124,1043154,1,8,0:0:0:0:
372,112,1043212,1,0,0:0:0:0:
352,104,1043271,1,0,0:0:0:0:
332,96,1043330,1,0,0:0:0:0:
312,88,1043389,1,0,0:0:0:0:
292,84,1043448,1,0,0:0:0:0:
268,80,1043507,1,8,0:0:0:0:
244,80,1043565,1,0,0:0:0:0:
224,88,1043624,1,8,0:0:0:0:
212,108,1043683,1,0,0:0:0:0:
196,124,1043742,1,0,0:0:0:0:
176,132,1043801,1,0,0:0:0:0:
156,140,1043860,1,0,0:0:0:0:
132,144,1043918,1,0,0:0:0:0:
112,132,1043977,1,0,0:0:0:0:
92,124,1044036,1,0,0:0:0:0:
76,140,1044095,6,0,L|32:208,5,45,8|0|0|0|0|0,0:0|0:0|0:0|0:0|0:0|0:0,0:0:0:0:
56,200,1044448,1,8,0:0:0:0:
56,224,1044507,1,0,0:0:0:0:
64,244,1044565,1,8,0:0:0:0:
72,264,1044624,1,0,0:0:0:0:
84,284,1044683,1,0,0:0:0:0:
104,292,1044742,1,0,0:0:0:0:
124,300,1044801,2,0,L|156:304,6,22.5,0|0|0|0|0|0|0,0:0|0:0|0:0|0:0|0:0|0:0|0:0,0:0:0:0:
240,268,1045036,5,8,0:0:0:0:
256,252,1045095,1,0,0:0:0:0:
272,236,1045154,1,0,0:0:0:0:
288,220,1045212,1,0,0:0:0:0:
304,204,1045271,1,0,0:0:0:0:
320,188,1045330,5,0,0:0:0:0:
336,172,1045389,1,8,0:0:0:0:
348,152,1045448,1,0,0:0:0:0:
360,132,1045507,1,8,0:0:0:0:
376,116,1045565,1,0,0:0:0:0:
376,92,1045624,2,0,P|316:32|232:80,1,180
52,188,1045977,6,0,P|108:212|144:256,1,90,0|0,0:0|0:0,0:0:0:0:
52,272,1046212,2,0,P|100:304|168:304,1,90,8|0,0:0|0:0,0:0:0:0:
196,244,1046448,1,8,0:0:0:0:
284,232,1046565,2,0,P|296:152|256:44,1,180
360,264,1047389,5,8,0:0:0:0:
380,252,1047448,1,0,0:0:0:0:
396,236,1047507,1,0,0:0:0:0:
408,216,1047565,1,0,0:0:0:0:
404,192,1047624,1,0,0:0:0:0:
400,168,1047683,1,0,0:0:0:0:
392,148,1047742,1,0,0:0:0:0:
380,128,1047801,1,0,0:0:0:0:
364,112,1047860,1,8,0:0:0:0:
228,100,1047977,6,0,P|180:160|128:172,1,90
72,92,1048212,1,8,0:0:0:0:
20,172,1048330,2,0,L|64:356,1,180,8|0,0:0|0:0,0:0:0:0:
184,332,1048683,6,0,L|256:312,1,45
212,244,1048801,2,0,L|268:224,1,45,8|0,0:0|0:0,0:0:0:0:
232,144,1048918,2,0,L|288:128,1,45
256,64,1049036,2,0,L|312:48,1,45
332,44,1049154,1,8,0:0:0:0:
348,56,1049212,1,0,0:0:0:0:
364,68,1049271,5,8,0:0:0:0:
380,84,1049330,1,0,0:0:0:0:
388,104,1049389,1,0,0:0:0:0:
396,124,1049448,5,0,0:0:0:0:
396,148,1049507,1,0,0:0:0:0:
392,168,1049565,1,0,0:0:0:0:
388,192,1049624,1,0,0:0:0:0:
248,264,1049742,2,0,B|176:264|160:260|152:248|152:232|152:232|152:156,1,180,8|0,0:0|0:0,0:0:0:0:
92,80,1050095,1,8,0:0:0:0:
44,156,1050212,2,0,P|28:224|40:268,1,90,8|0,0:0|0:0,0:0:0:0:
80,312,1050448,2,0,L|132:328,4,45,0|0|0|0|8,0:0|0:0|0:0|0:0|0:0,0:0:0:0:
244,312,1050801,5,0,0:0:0:0:
324,276,1050918,1,0,0:0:0:0:
372,208,1051036,1,8,0:0:0:0:
388,128,1051154,1,8,0:0:0:0:
392,48,1051271,1,0,0:0:0:0:
268,68,1051389,2,0,L|224:108,4,45,0|0|0|0|8,0:0|0:0|0:0|0:0|0:0,0:0:0:0:
96,124,1051742,6,0,P|104:180|100:236,1,90
44,288,1051977,1,8,0:0:0:0:
152,348,1052095,2,0,P|224:372|344:336,1,180,8|0,0:0|0:0,0:0:0:0:
388,276,1052448,6,0,P|412:224|408:160,1,90,0|8,0:0|0:0,0:0:0:0:
364,88,1052683,1,0,0:0:0:0:
260,112,1052801,2,0,P|208:128|144:128,1,90,0|8,0:0|0:0,0:0:0:0:
80,40,1053036,2,0,L|64:84,4,45,8|0|0|0|0,0:0|0:0|0:0|0:0|0:0,0:0:0:0:
16,156,1053389,6,0,P|16:244|120:308,1,180,0|0,0:0|0:0,0:0:0:0:
168,284,1053742,1,8,0:0:0:0:
192,196,1053860,1,0,0:0:0:0:
100,212,1053977,2,0,P|104:136|24:64,1,180,8|0,0:0|0:0,0:0:0:0:
120,72,1054330,5,0,0:0:0:0:
136,68,1054389,1,0,0:0:0:0:
152,64,1054448,1,8,0:0:0:0:
164,60,1054507,1,0,0:0:0:0:
180,56,1054566,1,0,0:0:0:0:
192,52,1054625,1,0,0:0:0:0:
216,44,1054683,2,0,P|264:96|244:216,1,180,0|8,0:0|0:0,0:0:0:0:
176,168,1055036,1,0,0:0:0:0:
148,288,1055154,6,0,P|196:312|256:312,1,90
212,236,1055389,1,8,0:0:0:0:
308,252,1055507,2,0,L|360:68,1,180,0|8,0:0|0:0,0:0:0:0:
260,92,1055860,1,8,0:0:0:0:
168,116,1055977,2,0,P|88:152|0:128,1,180
56,276,1056330,6,0,P|92:332|144:336,1,90,8|0,0:0|0:0,0:0:0:0:
192,308,1056565,2,0,P|228:264|240:224,1,90,0|8,0:0|0:0,0:0:0:0:
268,172,1056801,2,0,B|324:140|364:136|364:136|404:172|456:196,2,180,8|0|8,0:0|0:0|0:0,0:0:0:0:
296,308,1057389,1,0,0:0:0:0:
108,280,1057507,6,0,P|80:220|100:96,1,180,0|8,0:0|0:0,0:0:0:0:
192,84,1057860,2,0,B|260:72|260:72|296:120|376:128,1,180
236,200,1058212,1,8,0:0:0:0:
248,308,1058330,2,0,P|312:336|396:260,1,180,0|8,0:0|0:0,0:0:0:0:
392,240,1058624,2,0,P|404:168|384:104,1,135
336,28,1058918,2,0,B|276:24|276:24|208:144,1,180,0|8,0:0|0:0,0:0:0:0:
72,164,1059271,6,0,P|48:228|44:288,1,90
128,224,1059507,2,0,B|164:164|132:108|132:108|164:124|204:128,1,180,0|0,0:0|0:0,0:0:0:0:
92,332,1059860,2,0,P|152:344|216:320,2,90,8|0|8,0:0|0:0|0:0,0:0:0:0:
336,116,1060212,6,0,B|304:216|256:268|256:268|304:296|288:352,1,270,0|8,0:0|0:0,0:0:0:0:
140,164,1060683,1,0,0:0:0:0:
64,108,1060801,2,0,L|36:64,2,45,0|0|0,0:0|0:0|0:0,0:0:0:0:
344,232,1061036,1,8,0:0:0:0:
400,224,1061095,2,0,P|424:160|416:108,1,90
416,88,1061272,2,0,P|392:40|324:16,1,90,0|8,0:0|0:0,0:0:0:0:
324,16,1061507,2,0,L|168:140,1,180,0|8,0:0|0:0,0:0:0:0:
56,156,1061860,6,0,P|48:216|48:256,1,90,0|8,0:0|0:0,0:0:0:0:
176,288,1062095,2,0,B|248:292|248:292|296:344|352:344,1,180,0|8,0:0|0:0,0:0:0:0:
336,220,1062448,2,0,P|344:136|324:100,1,90,8|0,0:0|0:0,0:0:0:0:
216,188,1062683,1,0,0:0:0:0:
328,300,1062801,1,0,0:0:0:0:
264,104,1062918,2,0,B|204:76|152:132|152:132|104:100|60:112|60:112|40:64|48:16|124:-12,1,360,8|8,0:0|0:0,0:0:0:0:
44,212,1063742,6,0,P|48:280|32:332,1,90,0|8,0:0|0:0,0:0:0:0:
176,200,1063978,2,0,P|160:120|168:80,1,90
104,236,1064213,2,0,P|144:276|256:200,1,180,8|0,0:0|0:0,0:0:0:0:
360,224,1064565,6,0,P|384:156|312:44,1,180,8|8,0:0|0:0,0:0:0:0:
280,140,1064918,1,0,0:0:0:0:
152,80,1065036,2,0,P|88:64|32:72,1,90,0|8,0:0|0:0,0:0:0:0:
44,172,1065271,2,0,P|16:216|8:288,1,90,8|0,0:0|0:0,0:0:0:0:
92,264,1065507,2,0,L|136:300,2,45,0|0|0,0:0|0:0|0:0,0:0:0:0:
240,328,1065742,5,8,0:0:0:0:
280,180,1065860,1,0,0:0:0:0:
352,320,1065977,1,0,0:0:0:0:
308,96,1066095,2,0,B|224:96|172:160|172:160|216:168|232:160,1,180,8|0,0:0|0:0,0:0:0:0:
120,84,1066448,6,0,P|68:48|16:60,1,90
104,64,1070448,5,8,0:0:0:0:
180,212,1070565,1,0,0:0:0:0:
204,224,1070624,1,0,0:0:0:0:
232,220,1070683,1,0,0:0:0:0:
56,168,1070801,2,0,B|48:240|48:244|48:244|64:268,1,90,8|8,0:0|0:0,0:0:0:0:
280,316,1071036,1,0,0:0:0:0:
328,136,1071154,1,0,0:0:0:0:
324,112,1071212,1,0,0:0:0:0:
324,88,1071271,1,0,0:0:0:0:
328,64,1071330,1,0,0:0:0:0:
340,44,1071389,1,8,0:0:0:0:
412,212,1071507,6,0,B|432:268|412:320|356:328|356:328|328:368,1,180,0|8,0:0|0:0,0:0:0:0:
308,244,1071860,2,0,P|236:236|176:244,1,90,8|0,0:0|0:0,0:0:0:0:
120,168,1072095,1,0,0:0:0:0:
48,148,1072212,2,0,P|44:80|60:36,1,90,0|8,0:0|0:0,0:0:0:0:
196,172,1072448,2,0,P|204:244|184:280,1,90
80,320,1072683,1,8,0:0:0:0:
300,96,1072801,5,8,0:0:0:0:
320,128,1072860,1,0,0:0:0:0:
360,144,1072918,1,0,0:0:0:0:
340,344,1073036,1,0,0:0:0:0:
116,140,1073154,1,0,0:0:0:0:
208,272,1073271,2,0,P|224:220|216:152,1,107.999996704102,8|0,0:0|0:0,0:0:0:0:
292,256,1073507,6,0,P|304:160|264:92,1,125.999996154785,0|8,0:0|0:0,0:0:0:0:
384,232,1073742,2,0,P|388:136|348:64,1,144,8|0,0:0|0:0,0:0:0:0:
472,208,1073977,2,0,P|472:128|436:28,1,161.999995056153
160,80,1074212,5,8,0:0:0:0:
48,192,1074330,1,0,0:0:0:0:
152,312,1074448,1,0,0:0:0:0:
264,264,1074565,6,0,L|308:220,2,45,8|0|8,0:0|0:0|0:0,0:0:0:0:
284,112,1074801,1,0,0:0:0:0:
88,72,1074918,1,0,0:0:0:0:
80,104,1074977,1,0,0:0:0:0:
72,136,1075036,1,0,0:0:0:0:
68,164,1075094,1,0,0:0:0:0:
60,192,1075153,1,8,0:0:0:0:
20,308,1075271,6,0,P|96:328|144:320,1,90
188,240,1075507,1,8,0:0:0:0:
304,192,1075624,2,0,P|332:120|328:76,1,90,8|0,0:0|0:0,0:0:0:0:
236,136,1075860,2,0,B|200:136|200:136|200:160|200:160|160:160,1,90
44,84,1076095,5,8,0:0:0:0:
52,244,1076330,1,0,0:0:0:0:
88,304,1076448,1,8,0:0:0:0:
164,312,1076565,1,8,0:0:0:0:
300,300,1076683,6,0,L|316:240,4,45,0|0|0|0|0,0:0|0:0|0:0|0:0|0:0,0:0:0:0:
384,200,1077036,1,8,0:0:0:0:
384,200,1077095,1,0,0:0:0:0:
384,200,1077154,1,0,0:0:0:0:
364,84,1077271,2,0,P|308:28|264:24,1,90,0|8,0:0|0:0,0:0:0:0:
124,232,1077507,5,12,0:0:0:0:
240,80,1077683,1,4,0:0:0:0:
312,240,1077860,1,12,0:0:0:0:
208,244,1078095,2,0,P|184:292|120:320,2,90,0|0|8,0:0|0:0|0:0,0:0:0:0:
228,164,1078448,5,12,0:0:0:0:
304,328,1078624,1,4,0:0:0:0:
140,304,1078801,1,4,0:0:0:0:
312,208,1079036,2,0,P|364:172|376:120,2,90,0|0|8,0:0|0:0|0:0,0:0:0:0:
256,40,1079389,5,8,0:0:0:0:
84,316,1079565,1,0,0:0:0:0:
428,328,1079742,1,0,0:0:0:0:
428,328,1079977,1,0,0:0:0:0:
84,316,1080154,1,0,0:0:0:0:
256,48,1080330,1,8,0:0:0:0:
256,64,1080565,1,0,0:0:0:0:
256,80,1080801,1,8,0:0:0:0:
256,96,1080918,1,0,0:0:0:0:
256,112,1081036,1,0,0:0:0:0:
256,128,1081154,1,8,0:0:0:0:
256,144,1081271,1,8,0:0:0:0:
256,164,1081389,5,0,0:0:0:0:
256,172,1081448,1,0,0:0:0:0:
256,180,1081507,1,0,0:0:0:0:
256,188,1081565,1,0,0:0:0:0:
252,196,1081624,1,0,0:0:0:0:
248,204,1081683,1,0,0:0:0:0:
244,212,1081742,1,8,0:0:0:0:
240,220,1081801,1,0,0:0:0:0:
232,228,1081860,1,0,0:0:0:0:
224,232,1081918,1,0,0:0:0:0:
216,236,1081977,1,0,0:0:0:0:
208,240,1082036,1,0,0:0:0:0:
200,244,1082095,1,8,0:0:0:0:
192,248,1082154,1,0,0:0:0:0:
184,252,1082212,1,8,0:0:0:0:
180,256,1082271,2,0,L|156:272,14,22.5,0|0|0|0|0|0|0|0|0|0|0|0|0|0|8,0:0|0:0|0:0|0:0|0:0|0:0|0:0|0:0|0:0|0:0|0:0|0:0|0:0|0:0|0:0,0:0:0:0:
320,156,1082801,6,0,P|376:224|436:240,1,107.999996704102
80,60,1083036,1,8,0:0:0:0:
200,208,1083154,2,0,L|200:336,1,107.999996704102,8|0,0:0|0:0,0:0:0:0:
92,160,1083389,6,0,P|44:208|4:216,1,107.999996704102
280,104,1083624,2,0,P|328:56|392:40,1,107.999996704102,8|0,0:0|0:0,0:0:0:0:
120,272,1083860,1,0,0:0:0:0:
176,76,1083977,1,8,0:0:0:0:
296,264,1084095,1,8,0:0:0:0:
480,168,1084212,6,0,L|352:168,1,107.999996704102
24,184,1084448,2,0,L|152:184,1,107.999996704102,0|8,0:0|0:0,0:0:0:0:
216,320,1084683,5,0,0:0:0:0:
188,120,1084801,1,0,0:0:0:0:
288,312,1084918,1,8,0:0:0:0:
256,104,1085036,1,8,0:0:0:0:
356,296,1085154,1,0,0:0:0:0:
324,92,1085271,1,0,0:0:0:0:
392,184,1085389,6,0,P|412:116|400:48,1,107.999996704102,0|8,0:0|0:0,0:0:0:0:
388,76,1085565,1,0,0:0:0:0:
368,76,1085624,1,0,0:0:0:0:
348,76,1085683,1,0,0:0:0:0:
328,76,1085742,1,0,0:0:0:0:
308,76,1085801,1,0,0:0:0:0:
288,76,1085860,1,8,0:0:0:0:
268,76,1085918,1,0,0:0:0:0:
248,76,1085977,2,0,B|204:104|184:172|184:172|124:160|68:232,1,215.999993408203,8|0,0:0|0:0,0:0:0:0:
152,272,1086330,1,0,0:0:0:0:
56,96,1086448,6,0,P|-4:120|-16:192,1,107.999996704102,8|0,0:0|0:0,0:0:0:0:
228,184,1086683,1,0,0:0:0:0:
176,120,1086801,1,8,0:0:0:0:
276,256,1086918,1,8,0:0:0:0:
304,156,1087036,6,0,P|292:96|236:48,1,107.999996704102
140,208,1087271,2,0,P|144:268|200:332,1,107.999996704102,0|8,0:0|0:0,0:0:0:0:
272,243,1087507,2,0,B|320:224|352:237|352:237|384:208|404:208|436:214,2,161.999995056153,0|0|8,0:0|0:0|0:0,0:0:0:0:
224,96,1087977,5,0,0:0:0:0:
76,116,1088095,1,0,0:0:0:0:
48,136,1088154,1,0,0:0:0:0:
32,168,1088212,1,0,0:0:0:0:
52,268,1088330,1,8,0:0:0:0:
160,332,1088448,2,0,L|292:332,1,107.999996704102
328,140,1088683,2,0,P|376:184|392:264,1,107.999996704102,8|8,0:0|0:0,0:0:0:0:
304,228,1088918,1,0,0:0:0:0:
360,296,1089036,1,0,0:0:0:0:
392,224,1089154,1,0,0:0:0:0:
284,112,1089271,6,0,P|308:132|348:148,1,53.9999983520508,8|0,0:0|0:0,0:0:0:0:
232,92,1089389,2,0,P|264:100|296:128,1,53.9999983520508,0|0,0:0|0:0,0:0:0:0:
188,64,1089507,2,0,P|212:84|252:100,1,53.9999983520508,0|0,0:0|0:0,0:0:0:0:
136,44,1089624,2,0,P|168:52|200:80,1,53.9999983520508,8|0,0:0|0:0,0:0:0:0:
104,52,1089742,5,8,0:0:0:0:
88,64,1089801,1,0,0:0:0:0:
72,80,1089860,1,0,0:0:0:0:
60,96,1089918,1,0,0:0:0:0:
48,116,1089977,1,0,0:0:0:0:
48,136,1090036,1,0,0:0:0:0:
52,156,1090095,1,0,0:0:0:0:
84,288,1090212,6,0,L|216:288,1,107.999996704102,8|0,0:0|0:0,0:0:0:0:
104,192,1090448,1,8,0:0:0:0:
84,288,1090565,2,0,P|116:344|192:356,1,107.999996704102,8|8,0:0|0:0,0:0:0:0:
288,96,1090801,2,0,B|344:160|344:160|344:244,2,161.999995056153,0|0|8,0:0|0:0|0:0,0:0:0:0:
184,92,1091271,2,0,B|116:80|72:84|72:84|32:56,2,161.999995056153,0|0|8,0:0|0:0|0:0,0:0:0:0:
64,176,1091742,5,0,0:0:0:0:
48,276,1091860,2,0,P|104:324|188:336,1,107.999996704102
244,340,1092095,2,0,B|320:332|344:304|344:304|384:336|464:344,1,215.999993408203,8|0,0:0|0:0,0:0:0:0:
304,208,1092448,5,8,0:0:0:0:
288,92,1092565,1,8,0:0:0:0:
380,196,1092683,1,0,0:0:0:0:
248,152,1092801,1,0,0:0:0:0:
360,124,1092918,1,0,0:0:0:0:
164,216,1093036,6,0,P|152:292|276:336,1,215.999993408203,8|0,0:0|0:0,0:0:0:0:
152,164,1093330,2,0,P|156:196|188:252,1,53.9999983520508,0|8,0:0|0:0,0:0:0:0:
132,112,1093448,2,0,P|144:140|156:204,1,53.9999983520508,0|8,0:0|0:0,0:0:0:0:
120,60,1093565,2,0,P|124:92|156:148,1,53.9999983520508
108,8,1093683,2,0,P|112:40|144:96,1,53.9999983520508
200,52,1093860,5,0,0:0:0:0:
228,64,1093918,1,0,0:0:0:0:
256,76,1093977,1,8,0:0:0:0:
232,196,1094095,1,0,0:0:0:0:
88,272,1094212,1,0,0:0:0:0:
140,320,1094389,1,0,0:0:0:0:
212,324,1094565,1,0,0:0:0:0:
280,304,1094683,2,0,P|336:264|388:268,1,107.999996704102
224,184,1094918,5,8,0:0:0:0:
216,156,1094977,1,0,0:0:0:0:
208,132,1095036,1,0,0:0:0:0:
400,144,1095154,5,0,0:0:0:0:
324,88,1095331,1,0,0:0:0:0:
232,72,1095507,1,0,0:0:0:0:
152,56,1095624,2,0,P|96:128|52:28,1,215.999993408203,0|8,0:0|0:0,0:0:0:0:
28,184,1095977,6,0,L|132:236,1,107.999996704102
232,272,1096212,2,0,L|116:348,1,107.999996704102,8|8,0:0|0:0,0:0:0:0:
36,320,1096565,1,0,0:0:0:0:
148,156,1096682,1,0,0:0:0:0:
264,72,1096801,6,0,P|356:48|412:72,1,107.999996704102,8|0,0:0|0:0,0:0:0:0:
152,80,1097036,1,0,0:0:0:0:
48,168,1097154,2,0,P|44:236|92:296,1,107.999996704102,8|8,0:0|0:0,0:0:0:0:
160,320,1097507,1,0,0:0:0:0:
216,84,1097683,6,0,P|264:128|272:136,1,53.9999983520508,0|8,0:0|0:0,0:0:0:0:
432,176,1097860,1,0,0:0:0:0:
412,200,1097977,1,0,0:0:0:0:
292,304,1098095,1,8,0:0:0:0:
276,276,1098154,1,0,0:0:0:0:
140,248,1098271,5,0,0:0:0:0:
136,216,1098330,1,0,0:0:0:0:
132,188,1098389,1,0,0:0:0:0:
128,156,1098448,1,0,0:0:0:0:
124,128,1098507,1,0,0:0:0:0:
128,100,1098565,1,0,0:0:0:0:
136,76,1098624,1,0,0:0:0:0:
148,48,1098683,2,0,P|200:88|352:100,1,180,8|0,0:0|0:0,0:0:0:0:
248,188,1099036,5,8,0:0:0:0:
344,172,1099154,2,0,B|360:224|344:268|344:268|336:280|272:312|228:300,1,180,8|0,0:0|0:0,0:0:0:0:
128,264,1099624,1,8,0:0:0:0:
44,128,1099860,1,0,0:0:0:0:
56,52,1099977,1,8,0:0:0:0:
116,104,1100095,1,8,0:0:0:0:
240,148,1100330,1,0,0:0:0:0:
284,240,1100565,6,0,P|320:292|368:312,1,90,8|0,0:0|0:0,0:0:0:0:
464,240,1100801,1,0,0:0:0:0:
188,160,1101036,2,0,P|164:104|112:84,1,90,8|0,0:0|0:0,0:0:0:0:
8,96,1101272,1,0,0:0:0:0:
64,336,1101507,6,0,L|112:144,1,180,8|0,0:0|0:0,0:0:0:0:
20,188,1101977,1,8,0:0:0:0:
368,80,1102094,1,0,0:0:0:0:
248,160,1102212,2,0,B|240:216|304:252|304:252|344:264|340:320,1,180,0|8,0:0|0:0,0:0:0:0:
144,140,1102683,5,0,0:0:0:0:
92,40,1102919,1,8,0:0:0:0:
128,256,1103389,1,8,0:0:0:0:
280,316,1103507,1,0,0:0:0:0:
280,316,1103566,1,0,0:0:0:0:
280,316,1103625,1,0,0:0:0:0:
368,232,1103742,1,8,0:0:0:0:
404,136,1103860,2,0,B|336:68|336:68|288:96|248:92,1,180,8|0,0:0|0:0,0:0:0:0:
100,48,1104330,6,0,P|100:108|84:156,1,90,8|0,0:0|0:0,0:0:0:0:
176,248,1104566,2,0,P|180:176|196:144,1,90,0|8,0:0|0:0,0:0:0:0:
260,128,1104801,1,8,0:0:0:0:
276,128,1104860,1,0,0:0:0:0:
292,128,1104919,1,0,0:0:0:0:
312,128,1104977,2,0,P|380:176|384:256,1,135
352,328,1105271,6,0,L|172:328,1,180,8|0,0:0|0:0,0:0:0:0:
48,164,1105624,2,0,P|40:232|56:284,1,90,8|8,0:0|0:0,0:0:0:0:
228,212,1105860,2,0,P|220:148|196:100,1,90
264,40,1106212,6,0,P|300:88|424:112,1,180,8|0,0:0|0:0,0:0:0:0:
396,352,1106683,1,8,0:0:0:0:
396,200,1106801,1,0,0:0:0:0:
304,332,1106918,1,0,0:0:0:0:
244,176,1107036,1,0,0:0:0:0:
176,64,1107154,6,0,P|160:128|48:176,1,180,8|0,0:0|0:0,0:0:0:0:
20,184,1107507,1,8,0:0:0:0:
96,260,1107624,2,0,P|168:276|216:368,1,180,8|0,0:0|0:0,0:0:0:0:
248,180,1108095,1,8,0:0:0:0:
296,112,1108212,2,0,P|312:48|312:0,1,90
192,56,1108448,1,8,0:0:0:0:
144,104,1108565,2,0,L|104:144,1,45,8|0,0:0|0:0,0:0:0:0:
200,188,1108742,2,0,L|176:248,1,45
296,248,1108918,1,0,0:0:0:0:
212,312,1109036,6,0,P|140:348|36:336,1,180,8|0,0:0|0:0,0:0:0:0:
32,256,1109389,1,8,0:0:0:0:
60,176,1109507,2,0,P|104:108|96:0,1,180,8|0,0:0|0:0,0:0:0:0:
224,120,1109977,6,0,P|216:184|232:228,1,90,8|0,0:0|0:0,0:0:0:0:
312,148,1110212,2,0,P|312:84|288:52,1,90,0|8,0:0|0:0,0:0:0:0:
104,224,1110448,1,8,0:0:0:0:
116,236,1110507,1,0,0:0:0:0:
128,248,1110565,1,0,0:0:0:0:
144,260,1110624,1,0,0:0:0:0:
160,272,1110683,1,0,0:0:0:0:
264,260,1110801,1,0,0:0:0:0:
380,272,1110918,6,0,P|404:192|384:100,1,180,8|0,0:0|0:0,0:0:0:0:
284,84,1111271,2,0,L|196:128,1,90,8|8,0:0|0:0,0:0:0:0:
80,120,1111507,1,0,0:0:0:0:
16,200,1111624,2,0,P|20:268|132:300,1,180,0|8,0:0|0:0,0:0:0:0:
164,224,1111977,5,0,0:0:0:0:
184,232,1112036,1,0,0:0:0:0:
204,240,1112095,1,0,0:0:0:0:
292,204,1112212,1,8,0:0:0:0:
320,132,1112330,1,8,0:0:0:0:
324,116,1112389,1,0,0:0:0:0:
328,100,1112448,1,0,0:0:0:0:
332,84,1112507,1,0,0:0:0:0:
336,72,1112565,1,0,0:0:0:0:
192,48,1112683,6,0,P|164:100|44:120,1,180
96,336,1113036,1,0,0:0:0:0:
452,344,1113212,1,8,0:0:0:0:
260,240,1113448,1,0,0:0:0:0:
174,94,1113624,5,0,0:0:0:0:
