osu file format v14

[General]
AudioFilename: NANO DEATH!!!!!.mp3
AudioLeadIn: 0
PreviewTime: 13629
Countdown: 0
SampleSet: Normal
StackLeniency: 0.7
Mode: 2
LetterboxInBreaks: 1
WidescreenStoryboard: 0

[Editor]
Bookmarks: 118012
DistanceSpacing: 1
BeatDivisor: 8
GridSize: 4
TimelineZoom: 6.999995

[Metadata]
Title:NANO DEATH!!!!!
TitleUnicode:NANO DEATH!!!!!
Artist:LeaF
ArtistUnicode:LeaF
Creator:Yami Shoujo
Version:NANO DESU
Source:Kantai Collection
Tags:
BeatmapID:746938
BeatmapSetID:231743

[Difficulty]
HPDrainRate:6
CircleSize:4
OverallDifficulty:9.5
ApproachRate:9.5
SliderMultiplier:2
SliderTickRate:1

[Events]
//Background and Video events
0,0,"catgirls.jpg",0,0
//Break Periods
2,84025,90300
//Storyboard Layer 0 (Background)
//Storyboard Layer 1 (Fail)
//Storyboard Layer 2 (Pass)
//Storyboard Layer 3 (Foreground)
//Storyboard Sound Samples

[TimingPoints]
1400,352.941176470588,4,1,0,23,1,0
25400,300,4,1,0,23,1,0
27575,250,4,1,0,23,1,0
27825,250,4,1,0,23,1,0
39825,-90.9090909090909,4,1,0,23,0,0
43325,-50,4,1,0,23,0,0
47825,-100,4,1,0,23,0,0
78075,-50,4,1,0,23,0,0
81825,-100,4,1,0,23,0,0
101575,-50,4,1,0,23,0,0
102575,-100,4,1,0,23,0,0
118325,-62.5,4,1,0,23,0,0
120825,-66.6666666666667,4,1,0,23,0,0
121575,300,4,1,0,23,1,0
121875,352.941176470588,4,1,0,10,1,0
129320,387.096774193548,4,1,0,10,1,0
130928,428.571428571429,4,1,0,10,1,0
131785,461.538461538462,4,1,0,10,1,0
133605,480,4,1,0,10,1,0
135071,521.739130434783,4,1,0,10,1,0
135592,300,4,1,0,10,1,0
135892,428.571428571429,4,1,0,10,1,0
136320,648.648648648649,4,1,0,10,1,0
136968,600,4,1,0,10,1,0
137568,333.333333333333,4,1,0,10,1,0

[Colours]
Combo1 : 19,225,225
Combo2 : 247,9,181

[HitObjects]
256,192,25400,12,0,26075,0:0:0:0:
156,144,27575,6,0,L|156:184,1,25
232,168,27637,2,0,L|232:128,1,25
308,144,27700,2,0,L|308:188,1,25
384,168,27762,2,0,L|384:140,1,25
220,116,27825,2,0,L|164:88,1,50
104,76,27950,2,0,L|180:48,1,50
384,92,28075,6,0,L|436:64,1,50
484,32,28200,2,0,L|412:12,1,50
240,24,28325,2,0,L|156:20,1,50
128,16,28450,2,0,L|72:16,1,50
300,24,28575,6,0,L|368:24,1,50
412,24,28700,2,0,L|504:24,1,50
272,260,28825,6,0,L|212:268,1,50
236,324,28950,2,0,L|180:340,1,50
60,256,29075,6,0,L|120:264,1,50
96,320,29200,2,0,L|152:336,1,50
332,340,29325,2,0,L|396:328,1,50
440,308,29450,2,0,L|492:264,1,50
280,280,29575,2,0,L|216:256,1,50
384,264,29700,2,0,L|440:236,1,50
300,216,29825,2,0,L|232:200,1,50
200,196,29950,2,0,L|136:180,1,50
8,180,30075,2,0,L|88:144,1,50
108,140,30200,6,0,L|56:80,1,50
216,104,30325,2,0,L|180:48,1,50
180,44,30450,2,0,L|260:16,1,50
372,68,30575,2,0,L|432:48,1,50
476,40,30700,2,0,L|412:8,1,50
304,24,30825,5,0,0:0:0:0:
180,24,30887,1,0,0:0:0:0:
52,24,30950,1,0,0:0:0:0:
180,24,31012,1,0,0:0:0:0:
304,24,31075,1,0,0:0:0:0:
428,24,31137,1,0,0:0:0:0:
304,24,31200,1,0,0:0:0:0:
180,24,31262,1,0,0:0:0:0:
52,32,31325,2,0,L|20:52,7,25,0|0|0|0|0|0|0|0,0:0|0:0|0:0|0:0|0:0|0:0|0:0|0:0,0:0:0:0:
108,72,31575,2,0,L|44:96,3,50,0|0|0|0,0:0|0:0|0:0|0:0,0:0:0:0:
280,92,31825,6,0,L|340:112,1,50
400,120,31950,2,0,L|400:188,1,50
196,176,32075,2,0,L|120:196,1,50
84,212,32200,2,0,L|84:272,1,50
220,256,32325,2,0,L|280:288,1,50
400,296,32450,2,0,L|452:324,1,50
268,348,32575,2,0,L|204:356,1,50
156,360,32700,6,0,L|104:324,1,50
304,304,32825,2,0,L|352:272,1,50,0|0,0:0|0:0,0:0:0:0:
384,260,32950,2,0,L|384:208,1,50
512,200,33075,6,0,L|476:156,1,50
416,164,33200,2,0,L|372:108,1,50
192,136,33325,2,0,L|128:120,1,50
80,116,33450,2,0,L|80:64,1,50
240,68,33575,2,0,L|300:60,1,50
112,64,33700,2,0,L|144:4,1,50
328,32,33825,6,0,L|400:32,1,50
432,28,33950,2,0,L|496:24,1,50
264,40,34075,1,0,0:0:0:0:
239,42,34106,1,0,0:0:0:0:
214,47,34137,1,0,0:0:0:0:
190,55,34168,1,0,0:0:0:0:
168,66,34200,1,0,0:0:0:0:
149,82,34231,1,0,0:0:0:0:
133,101,34262,1,0,0:0:0:0:
121,123,34293,1,0,0:0:0:0:
113,147,34325,1,0,0:0:0:0:
28,152,34450,6,0,L|120:180,1,50
0,212,34575,2,0,L|56:220,1,50
4,276,34700,2,0,L|72:268,1,50
168,308,34825,2,0,L|144:360,1,50
308,360,34950,2,0,L|292:296,1,50
448,308,35075,2,0,L|472:236,1,50
248,256,35200,2,0,L|204:216,1,50
144,224,35325,6,0,B|108:168|200:172|240:156|192:132|140:148,1,150
368,148,35575,2,0,P|448:144|520:108,1,150
144,148,35825,2,0,P|64:144|-8:108,1,150
76,112,36075,2,0,P|104:76|116:16,1,100
160,24,36262,1,0,0:0:0:0:
116,23,36325,6,0,L|188:23,1,50
228,24,36450,2,0,L|296:24,1,50
340,24,36575,2,0,L|400:24,1,50
176,64,36700,2,0,L|176:104,1,25
140,96,36762,2,0,L|140:132,1,25
104,128,36825,2,0,L|36:224,1,100
96,208,37012,1,0,0:0:0:0:
248,208,37200,1,0,0:0:0:0:
396,208,37325,6,0,L|272:208,2,100
236,112,37825,1,0,0:0:0:0:
186,112,37887,1,0,0:0:0:0:
136,112,37950,2,0,L|16:112,1,100
412,148,38325,2,0,P|304:148|244:56,1,200
127,80,38700,2,0,L|151:80,1,25
177,80,38762,2,0,L|145:80,1,25
120,80,38825,1,0,0:0:0:0:
220,76,38950,1,0,0:0:0:0:
320,72,39075,6,0,L|384:72,1,50
420,72,39200,2,0,L|492:72,1,50
172,20,39325,2,0,L|108:20,1,50
60,20,39450,2,0,L|8:20,1,50
236,20,39575,1,0,0:0:0:0:
356,24,39700,1,0,0:0:0:0:
236,20,39825,1,0,0:0:0:0:
176,164,39950,6,0,L|291:164,1,110.000003356934
352,164,40137,1,0,0:0:0:0:
64,112,40200,6,0,L|179:112,1,110.000003356934
240,112,40387,1,0,0:0:0:0:
0,64,40450,6,0,L|115:64,1,110.000003356934
176,64,40637,1,0,0:0:0:0:
412,68,40700,2,0,L|246:68,1,165.000005035401
512,68,40950,6,0,L|397:68,1,110.000003356934
336,68,41137,1,0,0:0:0:0:
64,64,41200,6,0,L|179:64,1,110.000003356934
240,64,41387,1,0,0:0:0:0:
512,68,41450,6,0,L|397:68,1,110.000003356934
336,68,41637,1,0,0:0:0:0:
165,64,41700,1,0,0:0:0:0:
110,64,41762,1,0,0:0:0:0:
55,64,41825,2,0,L|-15:64,1,55.0000016784668
316,200,41950,6,0,L|436:200,1,110.000003356934
492,200,42137,1,0,0:0:0:0:
180,276,42200,5,0,0:0:0:0:
164,220,42262,1,0,0:0:0:0:
108,216,42325,1,0,0:0:0:0:
88,164,42387,1,0,0:0:0:0:
468,120,42450,6,0,L|348:120,1,110.000003356934
292,120,42637,1,0,0:0:0:0:
224,120,42700,2,0,B|100:136|32:104|20:12|216:40,1,330.000010070801
416,156,43325,6,0,B|504:88|520:48|504:24|476:16|340:24,1,300
212,32,43543,1,0,0:0:0:0:
68,52,43575,2,0,B|-8:72|-4:144|0:160,1,100
328,232,47825,2,0,L|384:140,1,100
316,144,48012,1,0,0:0:0:0:
44,148,48075,2,0,P|16:92|100:20,1,150
368,36,48325,2,0,P|472:76|496:132,1,150
420,112,48575,6,0,L|388:112,1,25
448,168,48637,2,0,L|404:168,1,25
368,168,48700,2,0,L|412:168,1,25
364,232,48762,1,0,0:0:0:0:
92,120,48825,2,0,L|256:120,1,150
496,120,49075,2,0,L|336:120,1,150
140,120,49325,2,0,L|140:288,1,150
228,296,49575,6,0,L|256:312,1,25
192,348,49637,2,0,L|220:348,1,25
156,344,49700,2,0,L|204:344,1,25
217,348,49762,1,0,0:0:0:0:
424,348,49825,2,0,P|464:268|476:200,1,150
200,232,50075,2,0,P|160:152|148:84,1,150
352,96,50325,2,0,L|200:96,1,150
264,96,50575,6,0,P|164:92|124:136,1,150
456,140,50825,2,0,L|264:144,1,150
472,200,51075,2,0,L|284:200,1,150
88,192,51325,2,0,L|28:240,1,50
48,272,51450,2,0,L|128:276,1,50
164,280,51575,2,0,L|92:276,1,50
32,328,51700,2,0,L|100:328,1,50
336,332,51825,6,0,P|432:252|428:232,1,150
228,252,52075,2,0,P|144:224|96:140,1,150
336,184,52325,2,0,L|512:116,1,150
360,120,52575,2,0,L|312:120,1,25
312,92,52637,2,0,L|312:44,1,25
252,80,52700,2,0,L|252:44,1,25
216,48,52762,1,0,0:0:0:0:
396,56,52825,6,0,L|200:48,1,150
400,128,53075,2,0,L|236:128,1,150
24,132,53325,2,0,L|184:128,1,150
284,140,53575,2,0,L|380:136,3,50,0|0|0|0,0:0|0:0|0:0|0:0,0:0:0:0:
472,140,53825,1,0,0:0:0:0:
104,140,54075,1,0,0:0:0:0:
64,144,54325,1,0,0:0:0:0:
448,144,54575,1,0,0:0:0:0:
208,152,54700,1,0,0:0:0:0:
364,152,54825,6,0,L|456:80,1,100
140,88,55075,2,0,L|44:28,1,100
220,28,55325,2,0,L|264:28,1,25
248,72,55387,2,0,L|288:72,1,25
292,128,55450,2,0,L|320:128,1,25
332,184,55512,2,0,L|376:184,1,25
296,228,55575,2,0,L|252:228,1,25
272,280,55637,2,0,L|224:280,1,25
248,340,55700,2,0,L|204:340,1,25
223,340,55762,1,0,0:0:0:0:
504,348,55825,1,0,0:0:0:0:
52,192,57825,6,0,L|252:192,2,200,0|0|0,0:0|0:0|0:0,0:0:0:0:
252,192,58450,1,0,0:0:0:0:
452,192,58575,2,0,L|252:192,2,200,0|0|0,0:0|0:0|0:0,0:0:0:0:
252,192,59200,1,0,0:0:0:0:
252,192,59325,2,0,L|52:192,2,200,0|0|0,0:0|0:0|0:0,0:0:0:0:
324,192,59887,1,0,0:0:0:0:
328,116,59950,1,0,0:0:0:0:
256,112,60012,1,0,0:0:0:0:
88,112,60075,2,0,P|20:164|4:296,1,200
72,272,60387,5,0,0:0:0:0:
156,276,60450,1,0,0:0:0:0:
240,276,60512,1,0,0:0:0:0:
416,276,60575,2,0,L|488:212,1,50
456,184,60700,2,0,L|392:168,1,50
136,176,60825,2,0,B|132:104|136:64|260:44,1,200
320,48,61137,1,0,0:0:0:0:
328,116,61200,1,0,0:0:0:0:
256,112,61262,1,0,0:0:0:0:
100,116,61325,6,0,L|52:144,1,50
36,204,61450,2,0,L|92:208,1,50
156,220,61575,2,0,L|236:248,1,50
264,256,61700,2,0,L|264:328,1,50
492,316,61825,2,0,P|512:208|488:120,1,200
408,120,62137,1,0,0:0:0:0:
320,120,62200,1,0,0:0:0:0:
236,120,62262,1,0,0:0:0:0:
64,120,62325,6,0,B|16:172|20:208|24:224|24:244|92:288,1,200
24,292,62637,1,0,0:0:0:0:
16,356,62700,1,0,0:0:0:0:
88,356,62762,1,0,0:0:0:0:
324,348,62825,2,0,L|456:244,1,150
156,256,63075,2,0,L|28:168,1,150
404,176,63325,2,0,B|152:160|232:136|344:120|384:56|216:80|152:48,1,350
40,64,63825,6,0,L|0:104,1,50
0,168,63950,2,0,L|60:200,1,50
212,200,64075,2,0,L|416:200,1,200
348,204,64387,1,0,0:0:0:0:
280,204,64450,1,0,0:0:0:0:
200,204,64512,1,0,0:0:0:0:
40,220,64575,2,0,P|8:132|48:48,1,150
328,80,64825,5,0,0:0:0:0:
396,80,64887,1,0,0:0:0:0:
452,120,64950,1,0,0:0:0:0:
392,152,65012,1,0,0:0:0:0:
320,152,65075,2,0,L|104:152,1,200
44,152,65387,1,0,0:0:0:0:
40,88,65450,1,0,0:0:0:0:
116,88,65512,1,0,0:0:0:0:
284,88,65575,2,0,P|392:80|444:104,1,150
244,144,65825,6,0,B|140:144|100:180|92:240,1,200
160,240,66137,1,0,0:0:0:0:
112,276,66200,1,0,0:0:0:0:
176,272,66262,1,0,0:0:0:0:
120,312,66325,1,0,0:0:0:0:
184,312,66387,1,0,0:0:0:0:
124,348,66450,1,0,0:0:0:0:
176,352,66512,1,0,0:0:0:0:
424,348,66575,6,0,L|260:344,1,150
68,348,66825,2,0,P|16:288|0:152,1,200
272,216,67325,2,0,P|376:176|432:92,1,200
24,144,67825,6,0,L|260:144,1,200
156,140,68137,1,0,0:0:0:0:
156,140,68200,1,0,0:0:0:0:
224,144,68262,1,0,0:0:0:0:
408,152,68325,2,0,B|448:216|448:292|444:312,1,150
236,296,68575,1,0,0:0:0:0:
392,300,68825,5,0,0:0:0:0:
460,296,68887,1,0,0:0:0:0:
488,244,68950,1,0,0:0:0:0:
416,240,69012,1,0,0:0:0:0:
356,240,69075,2,0,P|248:248|180:196,1,150
36,224,69325,2,0,L|144:84,1,150
288,108,69575,1,0,0:0:0:0:
148,96,69825,5,0,0:0:0:0:
72,108,69887,1,0,0:0:0:0:
84,164,69950,1,0,0:0:0:0:
160,156,70012,1,0,0:0:0:0:
116,204,70075,2,0,L|308:180,1,150
464,176,70325,2,0,P|488:308|456:340,1,150,0|0,0:0|0:0,0:0:0:0:
288,312,70575,1,0,0:0:0:0:
384,312,70825,1,0,0:0:0:0:
204,316,71075,6,0,L|228:144,1,150
408,172,71325,2,0,L|192:176,1,200
444,44,71825,5,0,0:0:0:0:
372,44,71887,1,0,0:0:0:0:
304,44,71950,1,0,0:0:0:0:
232,48,72012,1,0,0:0:0:0:
160,52,72075,2,0,L|364:52,2,200,0|0|0,0:0|0:0|0:0,0:0:0:0:
508,56,72825,5,0,0:0:0:0:
444,56,72887,1,0,0:0:0:0:
440,120,72950,1,0,0:0:0:0:
504,128,73012,1,0,0:0:0:0:
436,168,73075,2,0,L|264:172,1,150
84,176,73325,2,0,P|24:296|24:336,1,150
272,324,73575,2,0,P|376:272|384:212,1,150
144,252,73825,1,0,0:0:0:0:
304,264,74075,5,0,0:0:0:0:
376,264,74137,1,0,0:0:0:0:
396,208,74200,1,0,0:0:0:0:
332,208,74262,1,0,0:0:0:0:
260,204,74325,2,0,P|356:152|396:88,1,150
56,112,74575,1,0,0:0:0:0:
472,112,74825,1,0,0:0:0:0:
288,116,75075,6,0,L|260:144,1,25
232,132,75137,2,0,L|200:160,1,25
164,148,75200,2,0,L|140:176,1,25
96,168,75262,1,0,0:0:0:0:
316,176,75325,1,0,0:0:0:0:
220,284,75575,6,0,L|232:252,1,25
196,260,75637,2,0,L|184:216,1,25
232,252,75700,2,0,L|252:212,1,25
212,220,75762,1,0,0:0:0:0:
456,188,75825,2,0,L|280:192,1,150
20,200,76075,2,0,L|180:200,1,150
64,144,76325,2,0,L|200:32,1,150
360,52,76575,2,0,L|384:96,3,50,0|0|0|0,0:0|0:0|0:0|0:0,0:0:0:0:
236,96,76825,5,0,0:0:0:0:
72,96,77012,1,0,0:0:0:0:
236,96,77075,1,0,0:0:0:0:
396,100,77262,1,0,0:0:0:0:
144,96,77325,2,0,L|4:8,1,150
432,144,77575,2,0,L|456:176,6,25,0|0|0|0|0|0|0,0:0|0:0|0:0|0:0|0:0|0:0|0:0,0:0:0:0:
224,168,77825,1,0,0:0:0:0:
56,220,78075,6,0,L|280:220,1,200
412,220,78325,1,0,0:0:0:0:
196,224,78450,2,0,L|96:172,2,100,0|0|0,0:0|0:0|0:0,0:0:0:0:
488,236,78700,1,0,0:0:0:0:
288,240,78950,1,0,0:0:0:0:
468,252,79075,2,0,L|56:252,1,400
188,252,79450,1,0,0:0:0:0:
68,252,79575,6,0,L|276:28,1,300
200,104,79825,2,0,L|132:32,1,100
444,104,79950,2,0,L|512:32,1,100
456,28,80075,2,0,L|48:28,1,400
272,44,80575,2,0,L|272:108,6,50,0|0|0|0|0|0|0,0:0|0:0|0:0|0:0|0:0|0:0|0:0,0:0:0:0:
196,92,80825,2,0,L|408:336,1,300
192,316,81075,1,0,0:0:0:0:
104,288,81262,5,0,0:0:0:0:
36,120,81325,2,0,B|-32:216|-40:268|-24:304|28:340|64:372,1,300
352,340,81575,2,0,L|432:124,1,200
252,160,81762,1,0,0:0:0:0:
128,200,81825,6,0,L|296:200,1,150
276,200,82075,2,0,L|452:200,1,150
426,200,82325,2,0,L|276:200,1,150
276,200,82575,2,0,L|112:200,1,150
126,200,82825,2,0,L|16:88,1,150
20,92,83075,2,0,L|184:92,1,150
392,96,83325,5,0,0:0:0:0:
416,96,83356,1,0,0:0:0:0:
441,93,83387,1,0,0:0:0:0:
465,85,83418,1,0,0:0:0:0:
476,72,83450,1,0,0:0:0:0:
120,96,83575,5,0,0:0:0:0:
96,96,83606,1,0,0:0:0:0:
71,93,83637,1,0,0:0:0:0:
47,85,83668,1,0,0:0:0:0:
36,72,83700,1,0,0:0:0:0:
476,44,83825,1,0,0:0:0:0:
340,204,90825,6,0,L|372:168,6,25,0|0|0|0|0|0|0,0:0|0:0|0:0|0:0|0:0|0:0|0:0,0:0:0:0:
172,204,91075,6,0,L|140:168,6,25,0|0|0|0|0|0|0,0:0|0:0|0:0|0:0|0:0|0:0|0:0,0:0:0:0:
400,192,91325,2,0,L|400:144,2,25,0|0|0,0:0|0:0|0:0,0:0:0:0:
328,156,91450,2,0,L|328:112,10,25,0|0|0|0|0|0|0|0|0|0|0,0:0|0:0|0:0|0:0|0:0|0:0|0:0|0:0|0:0|0:0|0:0,0:0:0:0:
136,120,91825,1,0,0:0:0:0:
90,141,91887,1,0,0:0:0:0:
54,175,91950,1,0,0:0:0:0:
31,219,92012,1,0,0:0:0:0:
212,252,92075,5,0,0:0:0:0:
260,243,92137,1,0,0:0:0:0:
303,217,92200,1,0,0:0:0:0:
332,177,92262,1,0,0:0:0:0:
510,187,92325,5,0,0:0:0:0:
460,180,92387,1,0,0:0:0:0:
413,162,92450,1,0,0:0:0:0:
372,134,92512,1,0,0:0:0:0:
174,127,92575,5,0,0:0:0:0:
224,120,92637,1,0,0:0:0:0:
271,102,92700,1,0,0:0:0:0:
312,74,92762,1,0,0:0:0:0:
444,72,92825,5,0,0:0:0:0:
504,64,92887,1,0,0:0:0:0:
500,20,92950,1,0,0:0:0:0:
440,20,93012,1,0,0:0:0:0:
296,20,93075,5,0,0:0:0:0:
246,27,93137,1,0,0:0:0:0:
198,41,93200,1,0,0:0:0:0:
164,76,93262,1,0,0:0:0:0:
32,112,93325,5,0,0:0:0:0:
13,158,93387,1,0,0:0:0:0:
7,207,93450,1,0,0:0:0:0:
14,257,93512,1,0,0:0:0:0:
208,256,93575,5,0,0:0:0:0:
241,219,93637,1,0,0:0:0:0:
255,172,93700,1,0,0:0:0:0:
247,123,93762,1,0,0:0:0:0:
68,196,93825,5,0,0:0:0:0:
55,244,93887,1,0,0:0:0:0:
53,294,93950,1,0,0:0:0:0:
74,338,94012,1,0,0:0:0:0:
312,344,94075,5,0,0:0:0:0:
346,307,94137,1,0,0:0:0:0:
374,266,94200,1,0,0:0:0:0:
396,221,94262,1,0,0:0:0:0:
152,224,94325,5,0,0:0:0:0:
117,188,94387,1,0,0:0:0:0:
95,143,94450,1,0,0:0:0:0:
88,94,94512,1,0,0:0:0:0:
312,224,94575,5,0,0:0:0:0:
376,208,94637,1,0,0:0:0:0:
364,156,94700,1,0,0:0:0:0:
304,164,94762,1,0,0:0:0:0:
212,172,94825,5,0,0:0:0:0:
140,160,94887,1,0,0:0:0:0:
136,104,94950,1,0,0:0:0:0:
208,104,95012,1,0,0:0:0:0:
308,104,95075,5,0,0:0:0:0:
248,104,95137,1,0,0:0:0:0:
184,104,95200,1,0,0:0:0:0:
144,104,95262,1,0,0:0:0:0:
68,108,95325,5,0,0:0:0:0:
0,108,95387,1,0,0:0:0:0:
0,44,95450,1,0,0:0:0:0:
64,44,95512,1,0,0:0:0:0:
136,44,95575,5,0,0:0:0:0:
200,44,95637,1,0,0:0:0:0:
264,44,95700,1,0,0:0:0:0:
328,44,95762,1,0,0:0:0:0:
480,52,95825,6,0,L|496:168,1,100
416,148,96012,1,0,0:0:0:0:
72,176,96075,2,0,L|48:276,1,100
120,272,96262,1,0,0:0:0:0:
396,224,96325,2,0,L|416:328,1,100
332,324,96512,1,0,0:0:0:0:
96,328,96575,6,0,L|40:232,1,100
4,240,96762,1,0,0:0:0:0:
384,324,96825,2,0,L|432:228,1,100
480,236,97012,1,0,0:0:0:0:
154,270,97075,2,0,L|104:184,1,100
44,184,97262,1,0,0:0:0:0:
344,224,97325,2,0,L|404:112,1,100
336,132,97512,1,0,0:0:0:0:
112,136,97575,6,0,L|56:88,1,50
304,128,97700,2,0,L|368:72,1,50
104,80,97825,2,0,L|48:240,1,150
296,224,98075,2,0,L|384:360,1,150
104,352,98325,2,0,L|24:188,1,150
360,228,98575,2,0,L|448:36,1,200
20,64,99325,5,0,0:0:0:0:
472,60,99825,1,0,0:0:0:0:
100,60,100325,1,0,0:0:0:0:
504,56,100825,1,0,0:0:0:0:
184,148,101200,1,0,0:0:0:0:
416,152,101325,1,0,0:0:0:0:
96,208,101575,2,0,L|504:208,1,400
340,148,102012,1,0,0:0:0:0:
448,148,102075,1,0,0:0:0:0:
236,148,102325,5,0,0:0:0:0:
88,144,102575,2,0,L|116:168,1,25
80,200,102637,2,0,L|108:212,1,25
112,256,102700,2,0,L|144:268,1,25
144,324,102762,6,0,L|192:332,1,25,0|0,0:0|0:0,0:0:0:0:
188,376,102825,1,0,0:0:0:0:
448,300,103325,1,0,0:0:0:0:
48,264,103825,5,0,0:0:0:0:
264,244,104075,1,0,0:0:0:0:
436,192,104325,1,0,0:0:0:0:
56,196,104575,1,0,0:0:0:0:
492,192,104825,1,0,0:0:0:0:
8,196,105075,1,0,0:0:0:0:
456,192,105325,1,0,0:0:0:0:
112,196,105575,1,0,0:0:0:0:
376,80,105825,5,0,0:0:0:0:
164,76,105950,1,0,0:0:0:0:
432,76,106075,1,0,0:0:0:0:
76,80,106200,1,0,0:0:0:0:
512,76,106325,1,0,0:0:0:0:
16,80,106450,1,0,0:0:0:0:
436,76,106575,1,0,0:0:0:0:
164,80,106700,1,0,0:0:0:0:
452,320,107325,5,0,0:0:0:0:
427,320,107356,1,0,0:0:0:0:
402,319,107387,1,0,0:0:0:0:
377,318,107418,1,0,0:0:0:0:
352,316,107450,1,0,0:0:0:0:
327,313,107481,1,0,0:0:0:0:
302,310,107512,1,0,0:0:0:0:
278,305,107543,1,0,0:0:0:0:
253,298,107575,1,0,0:0:0:0:
230,290,107606,1,0,0:0:0:0:
207,281,107637,1,0,0:0:0:0:
185,269,107668,1,0,0:0:0:0:
164,254,107700,1,0,0:0:0:0:
146,237,107731,1,0,0:0:0:0:
131,217,107762,1,0,0:0:0:0:
424,216,107825,6,0,L|468:216,21,25,0|0|0|0|0|0|0|0|0|0|0|0|0|0|0|0|0|0|0|0|0|0,0:0|0:0|0:0|0:0|0:0|0:0|0:0|0:0|0:0|0:0|0:0|0:0|0:0|0:0|0:0|0:0|0:0|0:0|0:0|0:0|0:0|0:0,0:0:0:0:
424,216,108512,2,0,L|424:180,1,25
392,188,108575,2,0,L|364:188,3,25,0|0|0|0,0:0|0:0|0:0|0:0,0:0:0:0:
328,188,108700,2,0,L|292:188,2,25,0|0|0,0:0|0:0|0:0,0:0:0:0:
16,192,108825,6,0,L|16:236,20,25,0|0|0|0|0|0|0|0|0|0|0|0|0|0|0|0|0|0|0|0|0,0:0|0:0|0:0|0:0|0:0|0:0|0:0|0:0|0:0|0:0|0:0|0:0|0:0|0:0|0:0|0:0|0:0|0:0|0:0|0:0|0:0,0:0:0:0:
252,196,109575,6,0,L|288:192,6,25,0|0|0|0|0|0|0,0:0|0:0|0:0|0:0|0:0|0:0|0:0,0:0:0:0:
496,204,109825,6,0,L|496:168,22,25,0|0|0|0|0|0|0|0|0|0|0|0|0|0|0|0|0|0|0|0|0|0|0,0:0|0:0|0:0|0:0|0:0|0:0|0:0|0:0|0:0|0:0|0:0|0:0|0:0|0:0|0:0|0:0|0:0|0:0|0:0|0:0|0:0|0:0|0:0,0:0:0:0:
280,220,110575,1,0,0:0:0:0:
255,217,110606,1,0,0:0:0:0:
230,214,110637,1,0,0:0:0:0:
205,210,110668,1,0,0:0:0:0:
180,207,110700,1,0,0:0:0:0:
156,203,110731,1,0,0:0:0:0:
131,199,110762,1,0,0:0:0:0:
392,184,110825,5,0,0:0:0:0:
417,163,110856,1,0,0:0:0:0:
434,136,110887,1,0,0:0:0:0:
433,104,110918,1,0,0:0:0:0:
412,80,110950,1,0,0:0:0:0:
383,66,110981,1,0,0:0:0:0:
351,58,111012,1,0,0:0:0:0:
319,53,111043,1,0,0:0:0:0:
287,50,111075,1,0,0:0:0:0:
254,50,111106,1,0,0:0:0:0:
222,52,111137,1,0,0:0:0:0:
190,56,111168,1,0,0:0:0:0:
158,63,111200,1,0,0:0:0:0:
128,75,111231,1,0,0:0:0:0:
100,92,111262,1,0,0:0:0:0:
78,116,111293,1,0,0:0:0:0:
62,144,111325,1,0,0:0:0:0:
54,175,111356,1,0,0:0:0:0:
54,208,111387,1,0,0:0:0:0:
64,239,111418,1,0,0:0:0:0:
82,265,111450,1,0,0:0:0:0:
107,286,111481,1,0,0:0:0:0:
135,302,111512,1,0,0:0:0:0:
416,308,111575,6,0,L|416:264,6,25,0|0|0|0|0|0|0,0:0|0:0|0:0|0:0|0:0|0:0|0:0,0:0:0:0:
232,296,111825,5,0,0:0:0:0:
207,292,111856,1,0,0:0:0:0:
183,283,111887,1,0,0:0:0:0:
161,271,111918,1,0,0:0:0:0:
142,255,111950,1,0,0:0:0:0:
126,236,111981,1,0,0:0:0:0:
114,215,112012,1,0,0:0:0:0:
332,236,112075,2,0,L|332:192,6,25,0|0|0|0|0|0|0,0:0|0:0|0:0|0:0|0:0|0:0|0:0,0:0:0:0:
464,200,112325,5,0,0:0:0:0:
471,176,112356,1,0,0:0:0:0:
471,151,112387,1,0,0:0:0:0:
461,128,112418,1,0,0:0:0:0:
442,112,112450,1,0,0:0:0:0:
419,103,112481,1,0,0:0:0:0:
400,96,112512,1,0,0:0:0:0:
168,96,112575,2,0,L|168:136,6,25,0|0|0|0|0|0|0,0:0|0:0|0:0|0:0|0:0|0:0|0:0,0:0:0:0:
244,120,112825,1,0,0:0:0:0:
104,144,112950,6,0,L|52:192,1,50
252,164,113075,2,0,L|292:196,1,50
60,236,113200,2,0,L|28:280,1,50
304,272,113325,2,0,L|336:312,1,50
72,320,113450,2,0,L|36:364,1,50
376,348,113575,2,0,L|440:372,1,50
176,356,113700,2,0,L|124:388,1,50
272,348,113825,1,0,0:0:0:0:
444,352,113887,1,0,0:0:0:0:
472,328,113950,6,0,L|472:300,2,25,0|0|0,0:0|0:0|0:0,0:0:0:0:
408,300,114075,1,0,0:0:0:0:
232,312,114137,1,0,0:0:0:0:
168,312,114200,2,0,L|168:288,2,25,0|0|0,0:0|0:0|0:0,0:0:0:0:
56,296,114325,1,0,0:0:0:0:
48,272,114356,1,0,0:0:0:0:
55,249,114387,1,0,0:0:0:0:
78,240,114418,1,0,0:0:0:0:
103,238,114450,1,0,0:0:0:0:
128,238,114481,1,0,0:0:0:0:
153,239,114512,1,0,0:0:0:0:
352,232,114575,5,0,0:0:0:0:
365,211,114606,1,0,0:0:0:0:
379,190,114637,1,0,0:0:0:0:
156,192,114700,1,0,0:0:0:0:
136,175,114731,1,0,0:0:0:0:
117,159,114762,1,0,0:0:0:0:
368,136,114825,1,0,0:0:0:0:
373,111,114856,1,0,0:0:0:0:
378,87,114887,1,0,0:0:0:0:
164,160,114950,5,0,0:0:0:0:
146,142,114981,1,0,0:0:0:0:
133,121,115012,1,0,0:0:0:0:
124,97,115043,1,0,0:0:0:0:
120,73,115075,1,0,0:0:0:0:
125,48,115106,1,0,0:0:0:0:
140,28,115137,1,0,0:0:0:0:
188,64,115200,1,0,0:0:0:0:
360,68,115262,1,0,0:0:0:0:
408,64,115325,2,0,L|404:32,2,25,0|0|0,0:0|0:0|0:0,0:0:0:0:
344,32,115450,1,0,0:0:0:0:
128,40,115512,1,0,0:0:0:0:
224,40,115575,1,0,0:0:0:0:
508,192,115825,6,0,L|508:240,4,25,0|0|0|0|0,0:0|0:0|0:0|0:0|0:0,0:0:0:0:
380,204,116012,1,0,0:0:0:0:
256,204,116043,1,0,0:0:0:0:
132,200,116075,1,0,0:0:0:0:
4,192,116137,6,0,L|4:240,4,25,0|0|0|0|0,0:0|0:0|0:0|0:0|0:0,0:0:0:0:
132,204,116325,1,0,0:0:0:0:
256,204,116356,1,0,0:0:0:0:
380,200,116388,1,0,0:0:0:0:
508,192,116450,6,0,L|508:240,4,25,0|0|0|0|0,0:0|0:0|0:0|0:0|0:0,0:0:0:0:
380,156,116637,1,0,0:0:0:0:
256,148,116668,1,0,0:0:0:0:
132,156,116700,1,0,0:0:0:0:
256,148,116762,5,0,0:0:0:0:
281,148,116793,1,0,0:0:0:0:
306,148,116824,1,0,0:0:0:0:
331,148,116855,1,0,0:0:0:0:
356,148,116887,1,0,0:0:0:0:
380,156,116950,1,0,0:0:0:0:
256,148,116981,1,0,0:0:0:0:
132,156,117013,1,0,0:0:0:0:
4,144,117075,6,0,L|4:108,4,25,0|0|0|0|0,0:0|0:0|0:0|0:0|0:0,0:0:0:0:
132,228,117262,1,0,0:0:0:0:
256,236,117294,1,0,0:0:0:0:
380,228,117325,1,0,0:0:0:0:
256,148,117387,5,0,0:0:0:0:
231,148,117418,1,0,0:0:0:0:
206,148,117449,1,0,0:0:0:0:
181,148,117480,1,0,0:0:0:0:
156,148,117512,1,0,0:0:0:0:
132,228,117575,1,0,0:0:0:0:
256,236,117606,1,0,0:0:0:0:
380,228,117638,1,0,0:0:0:0:
504,164,117700,6,0,L|504:128,4,25,0|0|0|0|0,0:0|0:0|0:0|0:0|0:0,0:0:0:0:
380,228,117887,1,0,0:0:0:0:
256,236,117919,1,0,0:0:0:0:
132,228,117950,1,0,0:0:0:0:
32,288,118012,5,0,0:0:0:0:
22,264,118043,1,0,0:0:0:0:
15,240,118074,1,0,0:0:0:0:
9,216,118105,1,0,0:0:0:0:
6,191,118137,1,0,0:0:0:0:
4,166,118168,1,0,0:0:0:0:
0,144,118199,1,0,0:0:0:0:
0,120,118230,1,0,0:0:0:0:
0,96,118262,1,0,0:0:0:0:
0,68,118293,1,0,0:0:0:0:
0,344,118325,5,0,0:0:0:0:
90,344,118356,1,0,0:0:0:0:
180,344,118387,1,0,0:0:0:0:
271,344,118418,1,0,0:0:0:0:
361,344,118450,1,0,0:0:0:0:
452,344,118481,1,0,0:0:0:0:
496,344,118512,2,0,L|504:292,1,40
512,256,118575,5,0,0:0:0:0:
421,256,118606,1,0,0:0:0:0:
331,256,118637,1,0,0:0:0:0:
240,256,118668,1,0,0:0:0:0:
150,256,118700,1,0,0:0:0:0:
60,256,118731,1,0,0:0:0:0:
16,256,118762,2,0,L|8:204,1,40
0,168,118825,5,0,0:0:0:0:
91,168,118856,1,0,0:0:0:0:
181,168,118887,1,0,0:0:0:0:
272,168,118918,1,0,0:0:0:0:
362,168,118950,1,0,0:0:0:0:
452,168,118981,1,0,0:0:0:0:
496,168,119012,2,0,L|504:116,1,40
512,80,119075,5,0,0:0:0:0:
421,80,119106,1,0,0:0:0:0:
331,80,119137,1,0,0:0:0:0:
240,80,119168,1,0,0:0:0:0:
150,80,119200,1,0,0:0:0:0:
60,80,119231,1,0,0:0:0:0:
16,80,119262,2,0,L|8:28,1,40
0,304,119325,5,0,0:0:0:0:
91,304,119356,1,0,0:0:0:0:
181,304,119387,1,0,0:0:0:0:
272,304,119418,1,0,0:0:0:0:
362,304,119450,1,0,0:0:0:0:
452,304,119481,1,0,0:0:0:0:
496,304,119512,2,0,L|504:356,1,40
512,256,119575,5,0,0:0:0:0:
421,256,119606,1,0,0:0:0:0:
331,256,119637,1,0,0:0:0:0:
240,256,119668,1,0,0:0:0:0:
150,256,119700,1,0,0:0:0:0:
60,256,119731,1,0,0:0:0:0:
16,256,119762,2,0,L|8:308,1,40
0,168,119825,5,0,0:0:0:0:
91,168,119856,1,0,0:0:0:0:
181,168,119887,1,0,0:0:0:0:
272,168,119918,1,0,0:0:0:0:
362,168,119950,1,0,0:0:0:0:
452,168,119981,1,0,0:0:0:0:
496,168,120012,2,0,L|504:220,1,40
512,80,120075,5,0,0:0:0:0:
344,84,120137,1,0,0:0:0:0:
168,84,120200,1,0,0:0:0:0:
0,84,120262,1,0,0:0:0:0:
0,80,120325,5,0,0:0:0:0:
168,84,120387,1,0,0:0:0:0:
344,84,120450,1,0,0:0:0:0:
512,84,120512,1,0,0:0:0:0:
512,80,120575,5,0,0:0:0:0:
344,84,120637,1,0,0:0:0:0:
168,84,120700,1,0,0:0:0:0:
0,84,120762,1,0,0:0:0:0:
48,40,120825,2,0,B|100:84|324:124|392:164|340:156|52:108|48:120|52:168|384:188|360:224|132:216,1,600.000022888185
