osu file format v12

[General]
AudioFilename: MEPHISTO.mp3
AudioLeadIn: 1500
PreviewTime: 60753
Countdown: 0
SampleSet: Soft
StackLeniency: 0.7
Mode: 0
LetterboxInBreaks: 0
EpilepsyWarning: 1
WidescreenStoryboard: 0

[Editor]
Bookmarks: 18340,86116
DistanceSpacing: 1
BeatDivisor: 2
GridSize: 4

[Metadata]
Title:MEPHISTO
TitleUnicode:MEPHISTO
Artist:LeaF
ArtistUnicode:LeaF
Creator:Alumetorz
Version:Standard
Source:BMS
Tags:OF FIGHTERS 2012 BOF Ein neuer Heiliger Krieg Nemis TKSalt Roxas ishimaru94 Spectator ExPew
BeatmapID:282169
BeatmapSetID:106212

[Difficulty]
HPDrainRate:3
CircleSize:3
OverallDifficulty:3
ApproachRate:4
SliderMultiplier:0.9
SliderTickRate:2

[Events]
//Background and Video events
0,0,"bg.png",0,0
//Break Periods
2,77893,82021
//Storyboard Layer 0 (Background)
//Storyboard Layer 1 (Fail)
//Storyboard Layer 2 (Pass)
//Storyboard Layer 3 (Foreground)
//Storyboard Sound Samples
//Background Colour Transformations
3,100,0,0,0

[TimingPoints]
1459,352.941176470588,4,2,1,60,1,0
4282,-100,4,2,1,80,0,0
40988,-133.333333333333,4,2,1,65,0,0
46635,-100,4,2,1,80,0,1
52282,-100,4,2,1,80,0,0
60753,-100,4,2,1,80,0,1
77694,-100,4,2,1,80,0,0
83341,-133.333333333333,4,2,1,40,0,0
86164,-100,4,2,1,80,0,0
97458,-100,4,2,1,80,0,1
119341,-100,4,2,1,80,0,0
121458,-100,4,2,1,15,0,0

[Colours]
Combo1 : 241,48,27
Combo2 : 215,123,40
Combo3 : 222,170,14
Combo4 : 253,187,159

[HitObjects]
96,256,1459,2,0,P|148:268|192:252,1,90,0|2,0:0|0:0,0:0:0:0:
228,180,2164,2,0,P|176:168|132:184,1,90,0|2,0:0|0:0,0:0:0:0:
76,120,2870,1,0,0:0:0:0:
152,72,3223,1,0,0:0:0:0:
240,64,3576,1,0,0:0:0:0:
324,100,3929,1,0,0:0:0:0:
388,36,4282,6,0,P|412:112|340:192,1,180,4|4,1:2|1:2,0:0:0:0:
268,164,5341,1,4,1:2:0:0:
200,220,5694,2,0,P|152:228|104:208,1,90,4|4,1:2|1:2,0:0:0:0:
52,148,6400,2,0,P|54:99|83:56,1,90,4|4,1:2|1:2,0:0:0:0:
164,36,7106,6,0,L|284:24,2,90,4|2|2,1:2|1:2|1:2,0:0:0:0:
156,124,8164,1,2,1:2:0:0:
204,200,8517,2,0,P|256:219|298:208,1,90,2|2,1:2|1:2,0:0:0:0:
344,140,9223,2,0,P|291:120|259:126,1,90,2|2,1:2|1:2,0:0:0:0:
204,200,9929,5,2,1:2:0:0:
136,260,10282,2,0,P|124:312|144:360,1,90,2|2,1:2|1:2,0:0:0:0:
212,304,10988,1,2,1:2:0:0:
276,240,11341,2,0,P|324:228|380:248,1,90,2|2,1:2|1:2,0:0:0:0:
412,312,12047,2,0,P|364:324|325:314,1,90,2|2,1:2|1:2,0:0:0:0:
276,240,12753,6,0,P|258:193|276:132,1,90,0|2,1:0|1:2,0:0:0:0:
332,96,13458,1,2,1:2:0:0:
348,184,13811,1,2,1:2:0:0:
276,240,14164,2,0,L|156:296,1,90,2|2,1:2|1:2,0:0:0:0:
128,216,14870,2,0,L|248:160,1,90,2|2,1:2|1:2,0:0:0:0:
172,96,15576,5,0,1:0:0:0:
252,56,15929,1,2,1:2:0:0:
340,80,16282,1,2,1:2:0:0:
424,48,16635,1,2,1:2:0:0:
504,8,16988,2,0,P|508:84|420:140,1,180,2|2,1:2|1:2,0:0:0:0:
344,172,18047,1,0,1:0:0:0:
256,184,18400,6,0,P|304:252|404:240,1,180,4|0,1:2|1:0,0:0:0:0:
472,292,19458,1,0,1:0:0:0:
396,344,19811,5,0,1:0:0:0:
312,380,20164,1,0,1:0:0:0:
324,292,20517,1,0,1:0:0:0:
240,324,20870,1,0,1:0:0:0:
168,268,21223,6,0,P|156:216|180:152,1,90,0|0,1:0|1:0,0:0:0:0:
236,128,21929,1,0,1:0:0:0:
240,216,22282,1,0,1:0:0:0:
164,180,22635,2,0,P|156:88|232:40,2,180,0|0|6,1:0|1:0|1:2,0:0:0:0:
84,220,24400,5,6,1:2:0:0:
148,284,24753,1,6,1:2:0:0:
236,308,25106,1,6,1:2:0:0:
324,284,25458,1,6,1:2:0:0:
260,220,25811,1,6,1:2:0:0:
236,308,26164,1,6,1:2:0:0:
300,372,26517,2,0,P|364:368|396:332,1,90,6|6,1:2|1:2,0:0:0:0:
392,264,27223,5,6,1:2:0:0:
348,184,27576,1,6,1:2:0:0:
272,136,27929,1,6,1:2:0:0:
184,120,28282,1,6,1:2:0:0:
216,204,28635,1,6,1:2:0:0:
272,136,28988,1,6,1:2:0:0:
240,52,29341,2,0,P|192:32|140:44,1,90,4|4,1:2|1:2,0:0:0:0:
88,96,30047,5,0,1:0:0:0:
120,180,30400,2,0,P|128:248|116:280,1,90,0|0,1:0|1:0,0:0:0:0:
52,324,31106,2,0,P|88:352|164:336,1,90,0|0,1:0|1:0,0:0:0:0:
204,304,31811,1,0,1:0:0:0:
284,344,32164,1,0,1:0:0:0:
348,280,32517,6,0,L|440:272,1,90,0|0,1:0|1:0,0:0:0:0:
464,184,33223,2,0,L|372:192,1,90,0|0,1:0|1:0,0:0:0:0:
296,148,33929,1,0,1:0:0:0:
220,100,34282,2,0,P|167:90|112:113,1,90,0|0,1:0|1:0,0:0:0:0:
172,180,34988,2,0,L|156:288,1,90,0|6,1:0|1:2,0:0:0:0:
84,320,35694,5,6,1:2:0:0:
168,356,36047,1,6,1:2:0:0:
240,300,36400,1,6,1:2:0:0:
328,292,36753,1,6,1:2:0:0:
404,240,37106,1,6,1:2:0:0:
324,204,37458,1,6,1:2:0:0:
328,292,37811,2,0,P|376:328|432:324,1,90,6|6,1:2|1:2,0:0:0:0:
404,240,38517,6,0,P|416:188|400:140,2,90,6|6|6,1:2|1:2|1:2,0:0:0:0:
328,292,39576,1,6,1:2:0:0:
244,328,39929,1,6,1:2:0:0:
250,240,40282,2,0,P|328:200|404:240,1,180,6|4,1:2|1:2,0:0:0:0:
400,68,41870,6,0,P|352:36|292:40,1,101.250003862381,0|0,1:0|1:0,0:0:0:0:
232,96,42929,2,0,P|280:128|322:129,1,101.250003862381,0|0,1:0|1:0,0:0:0:0:
404,144,43811,6,0,L|472:156,1,67.5000025749208,0|6,1:0|1:2,0:0:0:0:
484,224,44517,2,0,L|416:212,1,67.5000025749208,0|4,1:0|1:2,0:0:0:0:
376,264,45223,2,0,L|444:276,1,67.5000025749208,0|4,1:0|1:2,0:0:0:0:
456,344,45929,2,0,L|388:332,1,67.5000025749208,4|0,1:2|1:0,0:0:0:0:
300,340,46635,6,0,P|196:352|152:288,1,180,4|0,1:2|1:0,0:0:0:0:
240,276,47694,1,0,1:0:0:0:
328,248,48047,2,0,P|348:195|345:153,1,90,0|0,1:0|1:0,0:0:0:0:
320,76,48753,1,0,1:0:0:0:
240,32,49106,1,0,1:0:0:0:
164,68,49458,6,0,P|128:136|8:124,1,180,0|0,1:0|1:0,0:0:0:0:
76,64,50517,1,0,1:0:0:0:
164,68,50870,2,0,P|228:80|264:72,1,90,0|0,1:0|1:0,0:0:0:0:
336,44,51576,2,0,P|359:39|423:51,1,90,0|2,1:0|0:0,0:0:0:0:
460,136,52282,5,4,1:2:0:0:
388,300,52988,1,4,1:2:0:0:
256,176,53694,1,4,1:2:0:0:
168,164,54047,1,4,1:2:0:0:
92,212,54400,1,4,1:2:0:0:
64,296,54753,1,4,1:2:0:0:
92,212,55106,6,0,P|76:156|112:100,1,90,4|4,1:2|1:2,0:0:0:0:
160,80,55811,2,0,P|176:136|140:192,1,90,4|4,1:2|1:2,0:0:0:0:
92,212,56517,1,4,1:2:0:0:
64,296,56870,1,4,1:2:0:0:
152,280,57223,2,0,P|216:248|316:320,1,180,4|2,1:2|1:2,0:0:0:0:
256,192,58106,12,0,60400,0:0:0:0:
20,228,60753,6,0,L|40:332,1,90,4|0,1:2|1:0,0:0:0:0:
116,272,61458,2,0,L|96:168,1,90,0|0,1:0|1:0,0:0:0:0:
180,148,62164,2,0,P|236:160|292:132,1,90,2|2,1:2|1:2,0:0:0:0:
312,76,62870,2,0,P|256:64|225:72,1,90,2|2,1:2|1:2,0:0:0:0:
180,148,63576,5,2,1:2:0:0:
212,232,63929,1,0,1:0:0:0:
288,188,64282,2,0,P|332:176|388:200,1,90,2|0,1:2|1:0,0:0:0:0:
420,264,64988,1,2,1:2:0:0:
332,268,65341,1,0,1:0:0:0:
288,188,65694,2,0,P|276:140|292:96,1,90,2|0,1:2|1:0,0:0:0:0:
368,144,66400,6,0,L|464:156,2,90,2|2|2,1:2|1:2|1:2,0:0:0:0:
288,102,67458,1,0,1:0:0:0:
208,144,67811,2,0,L|112:156,2,90,2|2|2,1:2|1:2|1:2,0:0:0:0:
288,188,68870,1,0,1:0:0:0:
368,144,69223,6,0,P|384:204|372:244,1,90,2|2,1:2|1:2,0:0:0:0:
368,320,69929,2,0,L|404:360,2,45,0|0|2,1:0|0:0|1:2,1:0:0:0:
276,292,70635,2,0,P|232:280|176:300,1,90,2|2,1:2|1:2,0:0:0:0:
144,368,71341,1,2,1:2:0:0:
236,368,71694,1,0,1:0:0:0:
190,290,72047,6,0,P|146:206|210:130,1,180,6|6,1:2|1:2,0:0:0:0:
340,48,73458,2,0,P|384:132|320:208,1,180,6|6,1:2|1:2,0:0:0:0:
292,124,74517,1,6,1:2:0:0:
208,88,74870,6,0,P|164:76|112:96,1,90,6|2,1:2|1:2,0:0:0:0:
80,168,75576,2,0,P|124:180|176:160,1,90,6|2,1:2|1:2,0:0:0:0:
208,88,76282,1,6,1:2:0:0:
296,84,76635,1,6,1:2:0:0:
368,136,76988,2,0,P|384:88|364:24,2,90,6|0|4,1:2|1:0|1:2,0:0:0:0:
156,244,83341,6,0,P|232:272|284:232,1,135.000005149842
356,140,84753,2,0,P|280:112|228:152,1,135.000005149842
100,184,86164,6,0,L|84:104,2,45,2|0|6,1:2|1:0|1:2,0:0:0:0:
172,236,86870,2,0,L|188:316,2,45,2|0|6,1:2|1:0|1:2,0:0:0:0:
224,160,87576,2,0,L|208:80,2,45,2|0|6,1:2|1:0|1:2,0:0:0:0:
296,212,88282,2,0,L|312:292,2,45,2|0|6,1:2|1:0|1:2,0:0:0:0:
356,144,88988,6,0,B|404:172|404:172|420:232|392:300,1,180,6|6,1:2|1:2,0:0:0:0:
216,308,90400,2,0,P|160:276|60:340,1,180,6|6,1:2|1:2,0:0:0:0:
148,364,91458,1,6,1:2:0:0:
66,325,91811,6,0,P|52:272|68:216,1,90,6|0,1:2|0:0,0:0:0:0:
132,184,92517,2,0,P|137:150|123:97,1,90,6|0,1:2|0:0,0:0:0:0:
40,60,93223,1,6,1:2:0:0:
123,97,93576,1,6,1:2:0:0:
200,48,93929,2,0,P|252:36|296:56,1,90,6|2,1:2|1:2,0:0:0:0:
256,192,94635,12,2,97106,0:0:0:0:
92,296,97458,6,0,P|156:308|208:280,1,90,6|2,1:2|1:2,0:0:0:0:
228,224,98164,2,0,P|164:212|112:240,1,90,2|2,1:2|1:2,0:0:0:0:
92,296,98870,1,2,1:2:0:0:
40,224,99223,1,2,1:2:0:0:
84,144,99576,1,2,1:2:0:0:
172,128,99929,1,2,1:2:0:0:
260,144,100282,6,0,P|316:156|364:136,1,90,0|0,1:0|1:0,0:0:0:0:
392,72,100988,2,0,P|336:60|288:80,1,90,2|2,1:2|1:2,0:0:0:0:
260,144,101694,1,2,1:2:0:0:
220,224,102047,1,2,1:2:0:0:
140,184,102400,1,2,1:2:0:0:
180,104,102753,1,2,1:2:0:0:
256,56,103106,6,0,P|184:16|92:72,2,180,2|2|2,1:2|1:2|1:2,0:0:0:0:
340,88,104870,1,2,1:2:0:0:
368,172,105223,2,0,P|420:132|428:88,1,90,2|2,1:2|1:2,0:0:0:0:
400,24,105929,5,2,1:2:0:0:
340,88,106282,1,2,1:2:0:0:
368,172,106635,2,0,P|380:232|364:264,1,90,2|2,1:2|1:2,0:0:0:0:
292,304,107341,1,2,1:2:0:0:
288,216,107694,1,2,1:2:0:0:
369,257,108047,2,0,P|423:264|459:252,1,90,2|2,1:2|1:2,0:0:0:0:
456,164,108753,6,0,L|444:68,2,90,6|2|2,1:2|1:2|1:2,0:0:0:0:
368,140,109811,2,0,P|324:132|272:144,1,90,2|2,1:2|1:2,0:0:0:0:
228,212,110517,1,2,1:2:0:0:
152,260,110870,2,0,P|184:292|264:288,1,90,2|2,1:2|1:2,0:0:0:0:
304,256,111576,6,0,B|340:228|340:228|372:176|364:116,2,135,2|0|0,1:2|1:0|1:0,0:0:0:0:
212,256,112988,2,0,B|176:228|176:228|144:176|152:116,2,135,2|0|0,1:2|1:0|1:0,0:0:0:0:
256,176,114400,2,0,B|268:136|244:100|260:36,2,135,2|0|0,1:2|1:0|1:0,0:0:0:0:
212,256,115811,6,0,P|172:272|116:256,1,90,0|6,1:0|1:2,0:0:0:0:
72,192,116517,2,0,P|112:176|168:192,1,90,0|6,1:0|1:2,0:0:0:0:
212,256,117223,6,0,L|232:352,1,90,0|6,1:0|1:2,0:0:0:0:
320,356,117929,2,0,L|300:260,1,90,0|6,1:0|1:2,0:0:0:0:
380,220,118635,2,0,L|400:316,1,90,2|6,1:2|1:2,0:0:0:0:
256,192,119341,12,0,121458,0:0:0:0:
