osu file format v14

[General]
AudioFilename: MEPHISTO.mp3
AudioLeadIn: 1500
PreviewTime: 60753
Countdown: 0
SampleSet: None
StackLeniency: 0.7
Mode: 3
LetterboxInBreaks: 0
EpilepsyWarning: 1
SpecialStyle: 0
WidescreenStoryboard: 1

[Editor]
Bookmarks: 86116,100635,103811
DistanceSpacing: 1.2
BeatDivisor: 4
GridSize: 4
TimelineZoom: 2.3

[Metadata]
Title:MEPHISTO
TitleUnicode:MEPHISTO
Artist:LeaF
ArtistUnicode:LeaF
Creator:[ M o m o ]
Version:LN
Source:BMS
Tags:
BeatmapID:827643
BeatmapSetID:378085

[Difficulty]
HPDrainRate:7
CircleSize:4
OverallDifficulty:8
ApproachRate:2
SliderMultiplier:0.7
SliderTickRate:2

[Events]
//Background and Video events
0,0,"bg.png",0,0
//Break Periods
//Storyboard Layer 0 (Background)
//Storyboard Layer 1 (Fail)
//Storyboard Layer 2 (Pass)
//Storyboard Layer 3 (Foreground)
//Storyboard Sound Samples

[TimingPoints]
1459,352.941176470588,4,2,1,25,1,0
4282,-100,4,2,1,45,0,0
40988,-100,4,2,1,35,0,0
46635,-100,4,2,1,50,0,1
52282,-100,4,2,1,35,0,0
60753,-100,4,2,1,50,0,1
77694,-100,4,2,1,35,0,0
83341,-100,4,2,1,35,0,0
86164,-100,4,2,1,35,0,0
97458,-100,4,2,1,50,0,1
119341,-100,4,2,1,35,0,0

[Colours]
Combo1 : 241,48,27
Combo2 : 215,123,40
Combo3 : 222,170,14
Combo4 : 253,187,159

[HitObjects]
64,192,1459,5,0,0:0:0:0:
448,192,1459,1,0,0:0:0:0:
320,192,1547,1,0,0:0:0:0:
192,192,1635,1,0,0:0:0:0:
448,192,1723,1,0,0:0:0:0:
320,192,1811,1,0,0:0:0:0:
64,192,1811,1,0,0:0:0:0:
192,192,1900,1,0,0:0:0:0:
320,192,1988,1,0,0:0:0:0:
64,192,2076,1,0,0:0:0:0:
192,192,2164,1,0,0:0:0:0:
448,192,2164,1,0,0:0:0:0:
320,192,2253,1,0,0:0:0:0:
64,192,2341,1,0,0:0:0:0:
192,192,2429,1,0,0:0:0:0:
320,192,2517,1,0,0:0:0:0:
448,192,2517,1,0,0:0:0:0:
192,192,2606,1,0,0:0:0:0:
448,192,2694,1,0,0:0:0:0:
320,192,2782,1,0,0:0:0:0:
192,192,2870,1,0,0:0:0:0:
64,192,2870,1,0,0:0:0:0:
192,192,3047,1,0,0:0:0:0:
448,192,3047,128,0,3223:0:0:0:0:
320,192,3223,1,0,0:0:0:0:
64,192,3223,1,0,0:0:0:0:
448,192,3400,1,0,0:0:0:0:
192,192,3400,128,0,3576:0:0:0:0:
320,192,3576,1,0,0:0:0:0:
448,192,3576,1,0,0:0:0:0:
64,192,3753,1,0,0:0:0:0:
320,192,3753,128,0,3929:0:0:0:0:
448,192,3929,1,0,0:0:0:0:
192,192,3929,1,0,0:0:0:0:
448,192,4106,128,0,4282:0:0:0:0:
320,192,4106,1,0,0:0:0:0:
192,192,4282,128,0,4370:0:0:0:0:
64,192,4282,1,0,0:0:0:0:
320,192,4370,128,0,4458:0:0:0:0:
448,192,4458,128,0,4547:0:0:0:0:
64,192,4547,128,0,4635:0:0:0:0:
320,192,4635,128,0,4723:0:0:0:0:
448,192,4635,1,0,0:0:0:0:
192,192,4723,128,0,4811:0:0:0:0:
64,192,4811,128,0,4900:0:0:0:0:
320,192,4900,128,0,4988:0:0:0:0:
448,192,4988,1,0,0:0:0:0:
192,192,4988,128,0,5076:0:0:0:0:
64,192,5076,128,0,5164:0:0:0:0:
320,192,5164,128,0,5253:0:0:0:0:
448,192,5253,128,0,5341:0:0:0:0:
64,192,5341,128,0,5429:0:0:0:0:
192,192,5341,1,0,0:0:0:0:
320,192,5429,128,0,5517:0:0:0:0:
192,192,5517,128,0,5606:0:0:0:0:
448,192,5606,128,0,5694:0:0:0:0:
320,192,5694,128,0,5782:0:0:0:0:
64,192,5694,1,0,0:0:0:0:
192,192,5782,128,0,5870:0:0:0:0:
448,192,5870,128,0,5958:0:0:0:0:
64,192,5958,128,0,6047:0:0:0:0:
192,192,6047,1,0,0:0:0:0:
320,192,6047,128,0,6135:0:0:0:0:
448,192,6135,128,0,6223:0:0:0:0:
192,192,6223,128,0,6311:0:0:0:0:
64,192,6311,128,0,6400:0:0:0:0:
320,192,6311,1,0,0:0:0:0:
320,192,6400,1,0,0:0:0:0:
448,192,6400,128,0,6488:0:0:0:0:
192,192,6488,128,0,6576:0:0:0:0:
64,192,6576,128,0,6664:0:0:0:0:
320,192,6576,1,0,0:0:0:0:
448,192,6664,128,0,6753:0:0:0:0:
320,192,6753,1,0,0:0:0:0:
192,192,6753,128,0,6841:0:0:0:0:
64,192,6841,128,0,6929:0:0:0:0:
320,192,6929,128,0,7017:0:0:0:0:
448,192,7017,128,0,7106:0:0:0:0:
64,192,7106,1,0,0:0:0:0:
192,192,7106,1,0,0:0:0:0:
320,192,7194,1,0,0:0:0:0:
448,192,7282,1,0,0:0:0:0:
192,192,7282,1,0,0:0:0:0:
320,192,7370,1,0,0:0:0:0:
64,192,7370,1,0,0:0:0:0:
192,192,7458,1,0,0:0:0:0:
448,192,7458,1,0,0:0:0:0:
320,192,7547,1,0,0:0:0:0:
64,192,7635,1,0,0:0:0:0:
320,192,7723,1,0,0:0:0:0:
192,192,7811,1,0,0:0:0:0:
448,192,7811,1,0,0:0:0:0:
64,192,7900,1,0,0:0:0:0:
320,192,7988,1,0,0:0:0:0:
448,192,8076,1,0,0:0:0:0:
64,192,8164,1,0,0:0:0:0:
192,192,8164,1,0,0:0:0:0:
320,192,8253,1,0,0:0:0:0:
448,192,8341,1,0,0:0:0:0:
192,192,8429,1,0,0:0:0:0:
320,192,8517,1,0,0:0:0:0:
448,192,8517,1,0,0:0:0:0:
64,192,8606,1,0,0:0:0:0:
320,192,8694,1,0,0:0:0:0:
192,192,8782,1,0,0:0:0:0:
448,192,8870,1,0,0:0:0:0:
320,192,8958,1,0,0:0:0:0:
64,192,9047,1,0,0:0:0:0:
192,192,9135,1,0,0:0:0:0:
320,192,9223,1,0,0:0:0:0:
448,192,9223,1,0,0:0:0:0:
192,192,9311,1,0,0:0:0:0:
448,192,9400,1,0,0:0:0:0:
64,192,9488,1,0,0:0:0:0:
320,192,9576,1,0,0:0:0:0:
448,192,9576,1,0,0:0:0:0:
192,192,9664,1,0,0:0:0:0:
64,192,9753,1,0,0:0:0:0:
448,192,9753,1,0,0:0:0:0:
320,192,9841,1,0,0:0:0:0:
192,192,9929,1,0,0:0:0:0:
64,192,9929,1,0,0:0:0:0:
448,192,10017,1,0,0:0:0:0:
320,192,10106,1,0,0:0:0:0:
64,192,10106,1,0,0:0:0:0:
192,192,10194,1,0,0:0:0:0:
448,192,10194,1,0,0:0:0:0:
320,192,10282,1,0,0:0:0:0:
64,192,10282,1,0,0:0:0:0:
192,192,10370,1,0,0:0:0:0:
448,192,10458,1,0,0:0:0:0:
320,192,10547,1,0,0:0:0:0:
192,192,10635,1,0,0:0:0:0:
64,192,10635,1,0,0:0:0:0:
448,192,10723,1,0,0:0:0:0:
192,192,10811,1,0,0:0:0:0:
320,192,10900,1,0,0:0:0:0:
64,192,10988,1,0,0:0:0:0:
448,192,10988,1,0,0:0:0:0:
192,192,11076,1,0,0:0:0:0:
64,192,11164,1,0,0:0:0:0:
320,192,11253,1,0,0:0:0:0:
192,192,11341,1,0,0:0:0:0:
448,192,11341,1,0,0:0:0:0:
64,192,11429,1,0,0:0:0:0:
320,192,11517,1,0,0:0:0:0:
448,192,11517,1,0,0:0:0:0:
192,192,11606,1,0,0:0:0:0:
64,192,11606,1,0,0:0:0:0:
320,192,11694,1,0,0:0:0:0:
448,192,11694,1,0,0:0:0:0:
192,192,11782,1,0,0:0:0:0:
64,192,11870,1,0,0:0:0:0:
320,192,11958,1,0,0:0:0:0:
192,192,12047,1,0,0:0:0:0:
448,192,12047,128,0,12400:0:0:0:0:
64,192,12047,128,0,12223:0:0:0:0:
320,192,12135,128,0,12223:0:0:0:0:
192,192,12223,128,0,12311:0:0:0:0:
64,192,12311,128,0,12488:0:0:0:0:
320,192,12400,128,0,12753:0:0:0:0:
192,192,12488,128,0,12576:0:0:0:0:
64,192,12576,128,0,12664:0:0:0:0:
448,192,12576,128,0,12753:0:0:0:0:
192,192,12753,128,0,12841:0:0:0:0:
64,192,12841,128,0,12929:0:0:0:0:
320,192,12929,128,0,13017:0:0:0:0:
448,192,13017,128,0,13106:0:0:0:0:
64,192,13106,1,0,0:0:0:0:
192,192,13106,128,0,13194:0:0:0:0:
320,192,13194,128,0,13282:0:0:0:0:
64,192,13282,128,0,13370:0:0:0:0:
448,192,13370,128,0,13458:0:0:0:0:
192,192,13458,1,0,0:0:0:0:
320,192,13458,128,0,13547:0:0:0:0:
64,192,13547,128,0,13635:0:0:0:0:
448,192,13635,128,0,13723:0:0:0:0:
192,192,13723,128,0,13811:0:0:0:0:
64,192,13811,128,0,13900:0:0:0:0:
320,192,13811,1,0,0:0:0:0:
448,192,13900,128,0,13988:0:0:0:0:
320,192,13988,128,0,14076:0:0:0:0:
192,192,14076,128,0,14164:0:0:0:0:
64,192,14164,1,0,0:0:0:0:
448,192,14164,128,0,14253:0:0:0:0:
320,192,14253,128,0,14341:0:0:0:0:
64,192,14341,128,0,14429:0:0:0:0:
192,192,14429,128,0,14517:0:0:0:0:
448,192,14517,1,0,0:0:0:0:
320,192,14517,128,0,14606:0:0:0:0:
64,192,14606,128,0,14694:0:0:0:0:
448,192,14694,128,0,14782:0:0:0:0:
192,192,14782,128,0,14870:0:0:0:0:
320,192,14870,128,0,14958:0:0:0:0:
64,192,14870,1,0,0:0:0:0:
448,192,14958,128,0,15047:0:0:0:0:
192,192,15047,128,0,15135:0:0:0:0:
64,192,15135,128,0,15223:0:0:0:0:
320,192,15223,1,0,0:0:0:0:
448,192,15223,128,0,15311:0:0:0:0:
192,192,15311,128,0,15400:0:0:0:0:
320,192,15400,128,0,15488:0:0:0:0:
64,192,15488,128,0,15576:0:0:0:0:
448,192,15576,1,0,0:0:0:0:
192,192,15576,128,0,15664:0:0:0:0:
320,192,15664,128,0,15753:0:0:0:0:
64,192,15753,128,0,15841:0:0:0:0:
448,192,15841,128,0,15929:0:0:0:0:
192,192,15929,1,0,0:0:0:0:
320,192,15929,128,0,16017:0:0:0:0:
64,192,16017,128,0,16106:0:0:0:0:
448,192,16106,128,0,16194:0:0:0:0:
192,192,16194,128,0,16282:0:0:0:0:
320,192,16282,1,0,0:0:0:0:
64,192,16282,128,0,16370:0:0:0:0:
448,192,16370,128,0,16458:0:0:0:0:
192,192,16458,128,0,16547:0:0:0:0:
320,192,16547,128,0,16635:0:0:0:0:
64,192,16635,1,0,0:0:0:0:
448,192,16635,128,0,16723:0:0:0:0:
192,192,16723,128,0,16811:0:0:0:0:
320,192,16811,128,0,16900:0:0:0:0:
64,192,16900,128,0,16988:0:0:0:0:
448,192,16988,1,0,0:0:0:0:
192,192,16988,128,0,17076:0:0:0:0:
320,192,17076,128,0,17164:0:0:0:0:
64,192,17164,128,0,17253:0:0:0:0:
448,192,17253,128,0,17341:0:0:0:0:
192,192,17341,128,0,17429:0:0:0:0:
320,192,17341,1,0,0:0:0:0:
64,192,17429,128,0,17517:0:0:0:0:
320,192,17517,128,0,17606:0:0:0:0:
448,192,17606,128,0,17694:0:0:0:0:
64,192,17694,1,0,0:0:0:0:
192,192,17694,128,0,17782:0:0:0:0:
320,192,17782,128,0,17870:0:0:0:0:
64,192,17870,128,0,17958:0:0:0:0:
448,192,17958,128,0,18047:0:0:0:0:
64,192,18047,1,0,0:0:0:0:
192,192,18091,1,0,0:0:0:0:
320,192,18135,1,0,0:0:0:0:
448,192,18179,1,0,0:0:0:0:
64,192,18223,1,0,0:0:0:0:
192,192,18267,1,0,0:0:0:0:
320,192,18311,1,0,0:0:0:0:
448,192,18356,1,0,0:0:0:0:
192,192,18400,1,0,0:0:0:0:
320,192,18400,1,0,0:0:0:0:
64,192,18400,128,0,18576:0:0:0:0:
448,192,18488,128,0,18664:0:0:0:0:
192,192,18576,128,0,18753:0:0:0:0:
320,192,18664,128,0,18929:0:0:0:0:
448,192,18753,128,0,19017:0:0:0:0:
64,192,18753,1,0,0:0:0:0:
64,192,18929,128,0,19106:0:0:0:0:
192,192,19017,128,0,19282:0:0:0:0:
448,192,19106,128,0,19282:0:0:0:0:
320,192,19106,1,0,0:0:0:0:
64,192,19282,128,0,19458:0:0:0:0:
320,192,19370,128,0,19635:0:0:0:0:
192,192,19458,128,0,19635:0:0:0:0:
448,192,19458,1,0,0:0:0:0:
448,192,19635,128,0,19811:0:0:0:0:
320,192,19811,128,0,19988:0:0:0:0:
192,192,19811,1,0,0:0:0:0:
64,192,19811,128,0,19988:0:0:0:0:
192,192,19988,128,0,20341:0:0:0:0:
448,192,19988,128,0,20517:0:0:0:0:
320,192,20164,128,0,20341:0:0:0:0:
64,192,20164,1,0,0:0:0:0:
64,192,20341,128,0,20517:0:0:0:0:
192,192,20517,128,0,20694:0:0:0:0:
320,192,20517,1,0,0:0:0:0:
448,192,20694,1,0,0:0:0:0:
320,192,20753,1,0,0:0:0:0:
192,192,20811,1,0,0:0:0:0:
64,192,20870,1,0,0:0:0:0:
448,192,20870,128,0,21400:0:0:0:0:
192,192,21047,128,0,21223:0:0:0:0:
320,192,21047,1,0,0:0:0:0:
320,192,21223,128,0,21576:0:0:0:0:
64,192,21223,128,0,21753:0:0:0:0:
192,192,21400,128,0,21576:0:0:0:0:
448,192,21576,128,0,21929:0:0:0:0:
192,192,21753,128,0,22106:0:0:0:0:
320,192,21929,128,0,22282:0:0:0:0:
64,192,21929,1,0,0:0:0:0:
448,192,22106,128,0,22282:0:0:0:0:
64,192,22194,128,0,22458:0:0:0:0:
192,192,22282,128,0,22635:0:0:0:0:
320,192,22458,128,0,22635:0:0:0:0:
448,192,22635,128,0,22811:0:0:0:0:
64,192,22635,1,0,0:0:0:0:
64,192,22811,128,0,23076:0:0:0:0:
192,192,22811,128,0,22988:0:0:0:0:
320,192,22900,128,0,23164:0:0:0:0:
448,192,22988,128,0,23341:0:0:0:0:
192,192,23076,128,0,23341:0:0:0:0:
64,192,23164,128,0,23341:0:0:0:0:
320,192,23341,128,0,23694:0:0:0:0:
448,192,23606,1,0,0:0:0:0:
64,192,23606,1,0,0:0:0:0:
192,192,23694,128,0,23782:0:0:0:0:
448,192,23694,1,0,0:0:0:0:
64,192,23782,128,0,23870:0:0:0:0:
320,192,23870,128,0,23958:0:0:0:0:
448,192,23958,128,0,24047:0:0:0:0:
64,192,24047,1,0,0:0:0:0:
192,192,24047,128,0,24135:0:0:0:0:
320,192,24135,128,0,24223:0:0:0:0:
448,192,24223,128,0,24311:0:0:0:0:
64,192,24311,128,0,24400:0:0:0:0:
192,192,24400,1,0,0:0:0:0:
320,192,24400,128,0,24488:0:0:0:0:
448,192,24488,128,0,24576:0:0:0:0:
192,192,24576,128,0,24664:0:0:0:0:
64,192,24664,128,0,24753:0:0:0:0:
320,192,24753,1,0,0:0:0:0:
448,192,24753,128,0,24841:0:0:0:0:
192,192,24841,128,0,24929:0:0:0:0:
320,192,24929,128,0,25017:0:0:0:0:
64,192,25017,128,0,25106:0:0:0:0:
192,192,25106,1,0,0:0:0:0:
448,192,25106,128,0,25194:0:0:0:0:
320,192,25194,128,0,25282:0:0:0:0:
64,192,25282,128,0,25370:0:0:0:0:
192,192,25370,128,0,25458:0:0:0:0:
448,192,25458,1,0,0:0:0:0:
320,192,25458,128,0,25547:0:0:0:0:
64,192,25547,128,0,25635:0:0:0:0:
192,192,25635,128,0,25723:0:0:0:0:
448,192,25723,128,0,25811:0:0:0:0:
320,192,25811,1,0,0:0:0:0:
64,192,25811,128,0,25900:0:0:0:0:
192,192,25900,128,0,25988:0:0:0:0:
448,192,25988,128,0,26076:0:0:0:0:
320,192,26076,128,0,26164:0:0:0:0:
64,192,26164,1,0,0:0:0:0:
192,192,26164,128,0,26253:0:0:0:0:
448,192,26253,128,0,26341:0:0:0:0:
64,192,26341,128,0,26429:0:0:0:0:
320,192,26429,128,0,26517:0:0:0:0:
192,192,26517,1,0,0:0:0:0:
448,192,26517,128,0,26606:0:0:0:0:
64,192,26606,128,0,26694:0:0:0:0:
192,192,26694,1,0,0:0:0:0:
320,192,26694,128,0,26782:0:0:0:0:
448,192,26782,128,0,26870:0:0:0:0:
192,192,26870,1,0,0:0:0:0:
64,192,26870,128,0,26958:0:0:0:0:
320,192,26958,128,0,27047:0:0:0:0:
192,192,27047,128,0,27135:0:0:0:0:
448,192,27135,128,0,27223:0:0:0:0:
64,192,27223,1,0,0:0:0:0:
320,192,27223,128,0,27311:0:0:0:0:
192,192,27311,128,0,27400:0:0:0:0:
448,192,27400,128,0,27488:0:0:0:0:
64,192,27488,128,0,27576:0:0:0:0:
192,192,27576,128,0,27664:0:0:0:0:
320,192,27576,1,0,0:0:0:0:
448,192,27664,128,0,27753:0:0:0:0:
320,192,27753,128,0,27841:0:0:0:0:
64,192,27841,128,0,27929:0:0:0:0:
192,192,27929,128,0,28017:0:0:0:0:
448,192,27929,1,0,0:0:0:0:
320,192,28017,128,0,28106:0:0:0:0:
64,192,28106,128,0,28194:0:0:0:0:
448,192,28194,128,0,28282:0:0:0:0:
320,192,28282,1,0,0:0:0:0:
192,192,28282,128,0,28370:0:0:0:0:
448,192,28370,128,0,28458:0:0:0:0:
64,192,28458,128,0,28547:0:0:0:0:
320,192,28547,128,0,28635:0:0:0:0:
192,192,28635,1,0,0:0:0:0:
448,192,28635,128,0,28723:0:0:0:0:
64,192,28723,128,0,28811:0:0:0:0:
320,192,28811,128,0,28900:0:0:0:0:
192,192,28900,128,0,28988:0:0:0:0:
64,192,28988,1,0,0:0:0:0:
448,192,28988,128,0,29076:0:0:0:0:
320,192,29076,128,0,29164:0:0:0:0:
64,192,29164,128,0,29253:0:0:0:0:
192,192,29253,1,0,0:0:0:0:
448,192,29253,128,0,29341:0:0:0:0:
192,192,29341,1,0,0:0:0:0:
64,192,29385,1,0,0:0:0:0:
448,192,29429,1,0,0:0:0:0:
320,192,29473,1,0,0:0:0:0:
192,192,29517,1,0,0:0:0:0:
64,192,29561,1,0,0:0:0:0:
448,192,29606,1,0,0:0:0:0:
320,192,29650,1,0,0:0:0:0:
64,192,29694,1,0,0:0:0:0:
192,192,29694,128,0,30047:0:0:0:0:
448,192,29870,128,0,30047:0:0:0:0:
64,192,30047,128,0,30400:0:0:0:0:
320,192,30135,128,0,30223:0:0:0:0:
448,192,30223,128,0,30400:0:0:0:0:
192,192,30311,128,0,30400:0:0:0:0:
320,192,30400,128,0,30753:0:0:0:0:
64,192,30576,128,0,30929:0:0:0:0:
192,192,30664,128,0,30841:0:0:0:0:
448,192,30753,128,0,31106:0:0:0:0:
320,192,30929,128,0,31458:0:0:0:0:
64,192,31106,128,0,31458:0:0:0:0:
192,192,31106,128,0,31282:0:0:0:0:
448,192,31282,128,0,31635:0:0:0:0:
192,192,31458,128,0,31811:0:0:0:0:
320,192,31635,128,0,31811:0:0:0:0:
64,192,31811,128,0,31988:0:0:0:0:
448,192,31811,1,0,0:0:0:0:
448,192,31988,1,0,0:0:0:0:
320,192,32047,1,0,0:0:0:0:
192,192,32106,1,0,0:0:0:0:
64,192,32164,1,0,0:0:0:0:
320,192,32164,128,0,32341:0:0:0:0:
448,192,32164,128,0,32517:0:0:0:0:
192,192,32341,128,0,32694:0:0:0:0:
64,192,32517,128,0,32694:0:0:0:0:
320,192,32694,128,0,33047:0:0:0:0:
448,192,32870,128,0,33047:0:0:0:0:
64,192,32870,128,0,33223:0:0:0:0:
192,192,33047,128,0,33400:0:0:0:0:
320,192,33223,128,0,33576:0:0:0:0:
448,192,33400,128,0,33753:0:0:0:0:
64,192,33488,128,0,33576:0:0:0:0:
192,192,33576,128,0,33929:0:0:0:0:
320,192,33753,128,0,33929:0:0:0:0:
64,192,33929,128,0,34106:0:0:0:0:
448,192,34106,128,0,34458:0:0:0:0:
320,192,34106,128,0,34194:0:0:0:0:
192,192,34194,128,0,34282:0:0:0:0:
64,192,34282,128,0,34635:0:0:0:0:
320,192,34370,128,0,34458:0:0:0:0:
192,192,34458,128,0,34635:0:0:0:0:
448,192,34635,128,0,34988:0:0:0:0:
320,192,34635,128,0,34988:0:0:0:0:
64,192,34988,128,0,35076:0:0:0:0:
192,192,35076,128,0,35164:0:0:0:0:
320,192,35164,128,0,35253:0:0:0:0:
448,192,35253,128,0,35341:0:0:0:0:
192,192,35341,1,0,0:0:0:0:
64,192,35341,128,0,35429:0:0:0:0:
320,192,35429,128,0,35517:0:0:0:0:
192,192,35517,128,0,35606:0:0:0:0:
448,192,35606,128,0,35694:0:0:0:0:
64,192,35694,1,0,0:0:0:0:
320,192,35694,128,0,35782:0:0:0:0:
192,192,35782,128,0,35870:0:0:0:0:
448,192,35870,128,0,35958:0:0:0:0:
64,192,35958,128,0,36047:0:0:0:0:
192,192,36047,1,0,0:0:0:0:
320,192,36047,128,0,36135:0:0:0:0:
448,192,36135,128,0,36223:0:0:0:0:
192,192,36223,128,0,36311:0:0:0:0:
64,192,36311,128,0,36400:0:0:0:0:
320,192,36400,1,0,0:0:0:0:
448,192,36400,128,0,36488:0:0:0:0:
192,192,36488,128,0,36576:0:0:0:0:
448,192,36576,128,0,36664:0:0:0:0:
64,192,36664,128,0,36753:0:0:0:0:
192,192,36753,1,0,0:0:0:0:
320,192,36753,128,0,36841:0:0:0:0:
64,192,36841,128,0,36929:0:0:0:0:
448,192,36929,128,0,37017:0:0:0:0:
192,192,37017,128,0,37106:0:0:0:0:
320,192,37106,1,0,0:0:0:0:
64,192,37106,128,0,37194:0:0:0:0:
448,192,37194,128,0,37282:0:0:0:0:
320,192,37282,128,0,37370:0:0:0:0:
64,192,37370,128,0,37458:0:0:0:0:
192,192,37458,1,0,0:0:0:0:
448,192,37458,128,0,37547:0:0:0:0:
320,192,37547,128,0,37635:0:0:0:0:
64,192,37635,128,0,37723:0:0:0:0:
192,192,37723,128,0,37811:0:0:0:0:
448,192,37811,1,0,0:0:0:0:
320,192,37811,128,0,37900:0:0:0:0:
64,192,37900,128,0,37988:0:0:0:0:
320,192,37988,128,0,38076:0:0:0:0:
448,192,37988,1,0,0:0:0:0:
192,192,38076,128,0,38164:0:0:0:0:
448,192,38164,1,0,0:0:0:0:
64,192,38164,128,0,38253:0:0:0:0:
320,192,38253,128,0,38341:0:0:0:0:
448,192,38341,128,0,38429:0:0:0:0:
192,192,38429,128,0,38517:0:0:0:0:
320,192,38517,128,0,38606:0:0:0:0:
64,192,38517,1,0,0:0:0:0:
448,192,38606,128,0,38694:0:0:0:0:
64,192,38694,128,0,38782:0:0:0:0:
320,192,38782,128,0,38870:0:0:0:0:
192,192,38870,1,0,0:0:0:0:
64,192,38958,128,0,39047:0:0:0:0:
448,192,39047,128,0,39135:0:0:0:0:
192,192,39135,128,0,39223:0:0:0:0:
320,192,39223,1,0,0:0:0:0:
448,192,39311,128,0,39400:0:0:0:0:
64,192,39400,128,0,39488:0:0:0:0:
192,192,39488,128,0,39576:0:0:0:0:
320,192,39576,1,0,0:0:0:0:
448,192,39576,128,0,39664:0:0:0:0:
64,192,39664,128,0,39753:0:0:0:0:
320,192,39753,128,0,39841:0:0:0:0:
192,192,39841,128,0,39929:0:0:0:0:
64,192,39929,128,0,40017:0:0:0:0:
448,192,39929,1,0,0:0:0:0:
320,192,40017,128,0,40106:0:0:0:0:
448,192,40106,128,0,40194:0:0:0:0:
192,192,40194,128,0,40282:0:0:0:0:
64,192,40282,128,0,40370:0:0:0:0:
320,192,40282,1,0,0:0:0:0:
448,192,40370,128,0,40458:0:0:0:0:
192,192,40458,128,0,40547:0:0:0:0:
448,192,40547,128,0,40635:0:0:0:0:
64,192,40635,1,0,0:0:0:0:
192,192,40679,1,0,0:0:0:0:
320,192,40723,1,0,0:0:0:0:
448,192,40767,1,0,0:0:0:0:
64,192,40811,1,0,0:0:0:0:
192,192,40856,1,0,0:0:0:0:
320,192,40900,1,0,0:0:0:0:
448,192,40944,1,0,0:0:0:0:
64,192,40988,1,0,0:0:0:0:
192,192,40988,1,0,0:0:0:0:
320,192,40988,1,0,0:0:0:0:
64,192,41253,1,0,0:0:0:0:
192,192,41253,1,0,0:0:0:0:
320,192,41341,1,0,0:0:0:0:
448,192,41341,1,0,0:0:0:0:
448,192,41517,1,0,0:0:0:0:
64,192,41517,1,0,0:0:0:0:
64,192,41870,128,0,42047:0:0:0:0:
192,192,41870,128,0,42047:0:0:0:0:
448,192,42135,128,0,42400:0:0:0:0:
320,192,42223,128,0,42576:0:0:0:0:
192,192,42311,128,0,42488:0:0:0:0:
64,192,42400,128,0,42576:0:0:0:0:
448,192,42488,128,0,42664:0:0:0:0:
192,192,42576,128,0,42753:0:0:0:0:
320,192,42664,128,0,42929:0:0:0:0:
448,192,42753,128,0,42929:0:0:0:0:
64,192,42841,128,0,43106:0:0:0:0:
192,192,42929,128,0,43282:0:0:0:0:
320,192,43017,128,0,43194:0:0:0:0:
448,192,43106,128,0,43282:0:0:0:0:
64,192,43194,128,0,43370:0:0:0:0:
320,192,43282,128,0,43458:0:0:0:0:
192,192,43370,128,0,43458:0:0:0:0:
64,192,43458,1,0,0:0:0:0:
448,192,43503,1,0,0:0:0:0:
320,192,43547,1,0,0:0:0:0:
192,192,43591,1,0,0:0:0:0:
64,192,43635,1,0,0:0:0:0:
448,192,43635,1,0,0:0:0:0:
64,192,43723,1,0,0:0:0:0:
448,192,43723,1,0,0:0:0:0:
192,192,43811,1,0,0:0:0:0:
320,192,43811,128,0,44164:0:0:0:0:
64,192,43900,128,0,43988:0:0:0:0:
192,192,43988,128,0,44076:0:0:0:0:
448,192,43988,128,0,44164:0:0:0:0:
64,192,44164,128,0,44517:0:0:0:0:
192,192,44517,128,0,44870:0:0:0:0:
448,192,44606,128,0,44694:0:0:0:0:
320,192,44694,128,0,44782:0:0:0:0:
64,192,44694,128,0,44870:0:0:0:0:
448,192,44870,1,0,0:0:0:0:
320,192,44988,1,0,0:0:0:0:
448,192,44988,1,0,0:0:0:0:
320,192,45106,1,0,0:0:0:0:
448,192,45106,1,0,0:0:0:0:
64,192,45223,1,0,0:0:0:0:
448,192,45223,1,0,0:0:0:0:
320,192,45311,1,0,0:0:0:0:
192,192,45400,1,0,0:0:0:0:
320,192,45488,1,0,0:0:0:0:
192,192,45576,1,0,0:0:0:0:
64,192,45576,1,0,0:0:0:0:
64,192,45694,1,0,0:0:0:0:
192,192,45694,1,0,0:0:0:0:
64,192,45811,1,0,0:0:0:0:
192,192,45811,1,0,0:0:0:0:
64,192,45929,1,0,0:0:0:0:
448,192,45929,1,0,0:0:0:0:
320,192,46017,128,0,46106:0:0:0:0:
192,192,46106,128,0,46194:0:0:0:0:
64,192,46194,128,0,46282:0:0:0:0:
448,192,46282,1,0,0:0:0:0:
320,192,46326,1,0,0:0:0:0:
192,192,46370,1,0,0:0:0:0:
64,192,46414,1,0,0:0:0:0:
320,192,46458,1,0,0:0:0:0:
448,192,46458,1,0,0:0:0:0:
64,192,46635,1,0,0:0:0:0:
192,192,46635,1,0,0:0:0:0:
448,192,46635,1,0,0:0:0:0:
320,192,46723,1,0,0:0:0:0:
64,192,46811,1,0,0:0:0:0:
192,192,46811,1,0,0:0:0:0:
320,192,46900,1,0,0:0:0:0:
448,192,46900,1,0,0:0:0:0:
192,192,46988,1,0,0:0:0:0:
64,192,46988,1,0,0:0:0:0:
320,192,47076,1,0,0:0:0:0:
448,192,47164,1,0,0:0:0:0:
192,192,47253,1,0,0:0:0:0:
64,192,47341,1,0,0:0:0:0:
320,192,47341,1,0,0:0:0:0:
448,192,47429,1,0,0:0:0:0:
192,192,47517,1,0,0:0:0:0:
64,192,47606,1,0,0:0:0:0:
320,192,47694,1,0,0:0:0:0:
448,192,47694,1,0,0:0:0:0:
192,192,47782,1,0,0:0:0:0:
64,192,47782,1,0,0:0:0:0:
320,192,47870,1,0,0:0:0:0:
448,192,47870,1,0,0:0:0:0:
192,192,47958,1,0,0:0:0:0:
64,192,48047,1,0,0:0:0:0:
320,192,48047,1,0,0:0:0:0:
448,192,48135,1,0,0:0:0:0:
192,192,48223,1,0,0:0:0:0:
320,192,48223,1,0,0:0:0:0:
64,192,48311,1,0,0:0:0:0:
448,192,48311,1,0,0:0:0:0:
192,192,48400,1,0,0:0:0:0:
320,192,48400,1,0,0:0:0:0:
64,192,48488,1,0,0:0:0:0:
448,192,48576,1,0,0:0:0:0:
320,192,48664,1,0,0:0:0:0:
192,192,48753,1,0,0:0:0:0:
64,192,48753,1,0,0:0:0:0:
448,192,48841,1,0,0:0:0:0:
320,192,48929,1,0,0:0:0:0:
64,192,48929,1,0,0:0:0:0:
192,192,49017,1,0,0:0:0:0:
320,192,49106,1,0,0:0:0:0:
448,192,49106,1,0,0:0:0:0:
192,192,49194,1,0,0:0:0:0:
64,192,49194,1,0,0:0:0:0:
320,192,49282,1,0,0:0:0:0:
448,192,49282,1,0,0:0:0:0:
64,192,49370,1,0,0:0:0:0:
192,192,49458,1,0,0:0:0:0:
320,192,49458,1,0,0:0:0:0:
448,192,49547,1,0,0:0:0:0:
64,192,49635,1,0,0:0:0:0:
320,192,49723,1,0,0:0:0:0:
192,192,49811,1,0,0:0:0:0:
448,192,49811,1,0,0:0:0:0:
64,192,49900,1,0,0:0:0:0:
320,192,49988,1,0,0:0:0:0:
448,192,50076,1,0,0:0:0:0:
192,192,50164,1,0,0:0:0:0:
64,192,50164,1,0,0:0:0:0:
448,192,50253,1,0,0:0:0:0:
320,192,50341,1,0,0:0:0:0:
192,192,50429,1,0,0:0:0:0:
448,192,50517,1,0,0:0:0:0:
320,192,50517,1,0,0:0:0:0:
64,192,50606,1,0,0:0:0:0:
192,192,50606,1,0,0:0:0:0:
448,192,50694,1,0,0:0:0:0:
320,192,50694,1,0,0:0:0:0:
64,192,50782,1,0,0:0:0:0:
192,192,50870,1,0,0:0:0:0:
448,192,50870,1,0,0:0:0:0:
320,192,50958,1,0,0:0:0:0:
192,192,51047,1,0,0:0:0:0:
64,192,51047,1,0,0:0:0:0:
320,192,51135,1,0,0:0:0:0:
448,192,51135,1,0,0:0:0:0:
192,192,51223,1,0,0:0:0:0:
64,192,51223,1,0,0:0:0:0:
448,192,51311,1,0,0:0:0:0:
192,192,51400,1,0,0:0:0:0:
320,192,51488,1,0,0:0:0:0:
448,192,51576,1,0,0:0:0:0:
64,192,51576,1,0,0:0:0:0:
192,192,51664,1,0,0:0:0:0:
320,192,51753,1,0,0:0:0:0:
192,192,51841,1,0,0:0:0:0:
64,192,51841,1,0,0:0:0:0:
448,192,51929,1,0,0:0:0:0:
320,192,51929,1,0,0:0:0:0:
448,192,52106,1,0,0:0:0:0:
64,192,52106,1,0,0:0:0:0:
192,192,52106,1,0,0:0:0:0:
448,192,52282,1,0,0:0:0:0:
64,192,52282,1,0,0:0:0:0:
320,192,52282,1,0,0:0:0:0:
64,192,52988,1,0,0:0:0:0:
192,192,52988,1,0,0:0:0:0:
448,192,52988,1,0,0:0:0:0:
448,192,53694,1,0,0:0:0:0:
320,192,53694,1,0,0:0:0:0:
64,192,53694,1,0,0:0:0:0:
192,192,54047,1,0,0:0:0:0:
320,192,54047,1,0,0:0:0:0:
448,192,54047,1,0,0:0:0:0:
320,192,54400,1,0,0:0:0:0:
448,192,54400,1,0,0:0:0:0:
64,192,54400,1,0,0:0:0:0:
64,192,54753,1,0,0:0:0:0:
192,192,54753,1,0,0:0:0:0:
320,192,54753,1,0,0:0:0:0:
64,192,55106,1,0,0:0:0:0:
448,192,55106,1,0,0:0:0:0:
192,192,55106,1,0,0:0:0:0:
320,192,55282,1,0,0:0:0:0:
448,192,55282,1,0,0:0:0:0:
192,192,55370,1,0,0:0:0:0:
64,192,55370,1,0,0:0:0:0:
320,192,55458,1,0,0:0:0:0:
448,192,55458,1,0,0:0:0:0:
64,192,55635,1,0,0:0:0:0:
320,192,55635,1,0,0:0:0:0:
192,192,55723,1,0,0:0:0:0:
448,192,55723,1,0,0:0:0:0:
64,192,55811,1,0,0:0:0:0:
320,192,55811,1,0,0:0:0:0:
192,192,55988,1,0,0:0:0:0:
320,192,55988,1,0,0:0:0:0:
448,192,56076,1,0,0:0:0:0:
64,192,56076,1,0,0:0:0:0:
192,192,56164,1,0,0:0:0:0:
320,192,56164,1,0,0:0:0:0:
64,192,56341,1,0,0:0:0:0:
192,192,56341,1,0,0:0:0:0:
320,192,56429,1,0,0:0:0:0:
448,192,56429,1,0,0:0:0:0:
64,192,56517,1,0,0:0:0:0:
192,192,56517,1,0,0:0:0:0:
320,192,56694,1,0,0:0:0:0:
64,192,56694,1,0,0:0:0:0:
192,192,56782,1,0,0:0:0:0:
448,192,56782,1,0,0:0:0:0:
320,192,56870,1,0,0:0:0:0:
64,192,56870,1,0,0:0:0:0:
64,192,57047,1,0,0:0:0:0:
448,192,57047,1,0,0:0:0:0:
192,192,57135,1,0,0:0:0:0:
320,192,57135,1,0,0:0:0:0:
448,192,57223,1,0,0:0:0:0:
64,192,57223,1,0,0:0:0:0:
448,192,57400,1,0,0:0:0:0:
320,192,57400,1,0,0:0:0:0:
64,192,57488,1,0,0:0:0:0:
192,192,57488,1,0,0:0:0:0:
320,192,57576,1,0,0:0:0:0:
448,192,57576,1,0,0:0:0:0:
64,192,57620,1,0,0:0:0:0:
192,192,57664,1,0,0:0:0:0:
320,192,57708,1,0,0:0:0:0:
448,192,57753,1,0,0:0:0:0:
64,192,57753,1,0,0:0:0:0:
192,192,57797,1,0,0:0:0:0:
320,192,57841,1,0,0:0:0:0:
448,192,57885,1,0,0:0:0:0:
192,192,57929,1,0,0:0:0:0:
320,192,57929,1,0,0:0:0:0:
64,192,57929,128,0,59341:0:0:0:0:
448,192,58017,1,0,0:0:0:0:
192,192,58106,1,0,0:0:0:0:
448,192,58194,1,0,0:0:0:0:
192,192,58282,1,0,0:0:0:0:
320,192,58370,1,0,0:0:0:0:
192,192,58458,1,0,0:0:0:0:
448,192,58547,1,0,0:0:0:0:
192,192,58635,1,0,0:0:0:0:
448,192,58723,1,0,0:0:0:0:
192,192,58811,1,0,0:0:0:0:
320,192,58900,1,0,0:0:0:0:
448,192,58988,1,0,0:0:0:0:
192,192,59076,1,0,0:0:0:0:
320,192,59164,1,0,0:0:0:0:
192,192,59253,1,0,0:0:0:0:
448,192,59341,1,0,0:0:0:0:
320,192,59341,1,0,0:0:0:0:
64,192,59429,1,0,0:0:0:0:
192,192,59429,1,0,0:0:0:0:
320,192,59517,1,0,0:0:0:0:
448,192,59517,1,0,0:0:0:0:
192,192,59606,1,0,0:0:0:0:
64,192,59606,1,0,0:0:0:0:
320,192,59694,1,0,0:0:0:0:
448,192,59694,1,0,0:0:0:0:
192,192,59782,1,0,0:0:0:0:
64,192,59782,1,0,0:0:0:0:
320,192,59870,1,0,0:0:0:0:
448,192,59870,1,0,0:0:0:0:
192,192,59958,1,0,0:0:0:0:
64,192,59958,1,0,0:0:0:0:
320,192,60047,1,0,0:0:0:0:
64,192,60047,1,0,0:0:0:0:
192,192,60106,1,0,0:0:0:0:
448,192,60106,1,0,0:0:0:0:
320,192,60164,1,0,0:0:0:0:
64,192,60164,1,0,0:0:0:0:
192,192,60223,1,0,0:0:0:0:
448,192,60223,1,0,0:0:0:0:
320,192,60282,1,0,0:0:0:0:
64,192,60282,1,0,0:0:0:0:
192,192,60341,1,0,0:0:0:0:
448,192,60341,1,0,0:0:0:0:
64,192,60400,1,0,0:0:0:0:
192,192,60444,1,0,0:0:0:0:
320,192,60488,1,0,0:0:0:0:
448,192,60532,1,0,0:0:0:0:
64,192,60576,1,0,0:0:0:0:
192,192,60620,1,0,0:0:0:0:
320,192,60664,1,0,0:0:0:0:
448,192,60708,1,0,0:0:0:0:
320,192,60753,1,0,0:0:0:0:
192,192,60753,1,0,0:0:0:0:
64,192,60753,1,0,0:0:0:0:
448,192,60841,1,0,0:0:0:0:
64,192,60929,1,0,0:0:0:0:
192,192,61017,1,0,0:0:0:0:
320,192,61106,1,0,0:0:0:0:
448,192,61106,1,0,0:0:0:0:
64,192,61194,1,0,0:0:0:0:
320,192,61282,1,0,0:0:0:0:
192,192,61370,1,0,0:0:0:0:
64,192,61458,1,0,0:0:0:0:
448,192,61458,1,0,0:0:0:0:
320,192,61547,1,0,0:0:0:0:
192,192,61635,1,0,0:0:0:0:
448,192,61723,1,0,0:0:0:0:
64,192,61811,1,0,0:0:0:0:
192,192,61811,1,0,0:0:0:0:
320,192,61900,1,0,0:0:0:0:
448,192,61988,1,0,0:0:0:0:
192,192,62076,1,0,0:0:0:0:
64,192,62164,1,0,0:0:0:0:
320,192,62164,1,0,0:0:0:0:
448,192,62253,1,0,0:0:0:0:
320,192,62341,128,0,62517:0:0:0:0:
64,192,62341,1,0,0:0:0:0:
192,192,62429,1,0,0:0:0:0:
64,192,62517,1,0,0:0:0:0:
448,192,62517,1,0,0:0:0:0:
192,192,62606,1,0,0:0:0:0:
320,192,62694,1,0,0:0:0:0:
448,192,62694,128,0,62870:0:0:0:0:
64,192,62782,1,0,0:0:0:0:
192,192,62870,1,0,0:0:0:0:
320,192,62870,1,0,0:0:0:0:
64,192,62958,1,0,0:0:0:0:
320,192,63047,128,0,63223:0:0:0:0:
448,192,63047,1,0,0:0:0:0:
64,192,63135,1,0,0:0:0:0:
192,192,63223,1,0,0:0:0:0:
448,192,63223,1,0,0:0:0:0:
64,192,63311,1,0,0:0:0:0:
448,192,63400,128,0,63576:0:0:0:0:
320,192,63400,1,0,0:0:0:0:
192,192,63488,1,0,0:0:0:0:
320,192,63576,128,0,63753:0:0:0:0:
64,192,63576,128,0,63841:0:0:0:0:
192,192,63664,128,0,64017:0:0:0:0:
448,192,63753,128,0,63929:0:0:0:0:
320,192,63841,128,0,64282:0:0:0:0:
64,192,63929,128,0,64282:0:0:0:0:
448,192,64017,128,0,64106:0:0:0:0:
192,192,64106,128,0,64282:0:0:0:0:
448,192,64194,128,0,64282:0:0:0:0:
64,192,64370,128,0,64635:0:0:0:0:
320,192,64458,128,0,64723:0:0:0:0:
192,192,64547,128,0,64811:0:0:0:0:
448,192,64635,128,0,64988:0:0:0:0:
64,192,64723,128,0,64988:0:0:0:0:
320,192,64811,128,0,64988:0:0:0:0:
192,192,64900,128,0,64988:0:0:0:0:
448,192,65076,128,0,65429:0:0:0:0:
64,192,65164,128,0,65341:0:0:0:0:
192,192,65253,128,0,65517:0:0:0:0:
320,192,65341,128,0,65694:0:0:0:0:
64,192,65429,128,0,65694:0:0:0:0:
448,192,65517,128,0,65694:0:0:0:0:
192,192,65606,128,0,65694:0:0:0:0:
448,192,65782,128,0,66047:0:0:0:0:
64,192,65870,128,0,66135:0:0:0:0:
320,192,65958,128,0,66223:0:0:0:0:
192,192,66047,128,0,66311:0:0:0:0:
448,192,66135,128,0,66400:0:0:0:0:
64,192,66223,128,0,66400:0:0:0:0:
320,192,66311,128,0,66400:0:0:0:0:
192,192,66400,128,0,66488:0:0:0:0:
448,192,66488,128,0,66576:0:0:0:0:
64,192,66576,128,0,66664:0:0:0:0:
320,192,66664,128,0,66753:0:0:0:0:
64,192,66753,128,0,66841:0:0:0:0:
448,192,66753,1,0,0:0:0:0:
448,192,66841,128,0,66929:0:0:0:0:
192,192,66929,128,0,67017:0:0:0:0:
448,192,67017,128,0,67106:0:0:0:0:
64,192,67106,128,0,67370:0:0:0:0:
192,192,67106,1,0,0:0:0:0:
320,192,67194,128,0,67458:0:0:0:0:
192,192,67282,128,0,67723:0:0:0:0:
448,192,67370,128,0,67547:0:0:0:0:
64,192,67458,128,0,67635:0:0:0:0:
320,192,67547,128,0,67811:0:0:0:0:
448,192,67635,128,0,67811:0:0:0:0:
64,192,67723,128,0,67811:0:0:0:0:
192,192,67811,128,0,67900:0:0:0:0:
448,192,67900,128,0,67988:0:0:0:0:
64,192,67988,128,0,68076:0:0:0:0:
448,192,68076,128,0,68164:0:0:0:0:
192,192,68164,128,0,68253:0:0:0:0:
64,192,68164,1,0,0:0:0:0:
448,192,68253,128,0,68341:0:0:0:0:
64,192,68341,128,0,68429:0:0:0:0:
320,192,68429,128,0,68517:0:0:0:0:
448,192,68517,128,0,68694:0:0:0:0:
64,192,68517,1,0,0:0:0:0:
192,192,68606,128,0,68958:0:0:0:0:
320,192,68694,128,0,68870:0:0:0:0:
448,192,68782,128,0,68958:0:0:0:0:
64,192,68870,128,0,69223:0:0:0:0:
320,192,68958,128,0,69135:0:0:0:0:
192,192,69047,128,0,69223:0:0:0:0:
448,192,69135,128,0,69223:0:0:0:0:
320,192,69223,128,0,69311:0:0:0:0:
448,192,69311,128,0,69400:0:0:0:0:
192,192,69400,128,0,69488:0:0:0:0:
64,192,69488,128,0,69576:0:0:0:0:
320,192,69576,128,0,69664:0:0:0:0:
448,192,69576,1,0,0:0:0:0:
192,192,69664,128,0,69753:0:0:0:0:
448,192,69753,128,0,69841:0:0:0:0:
64,192,69841,128,0,69929:0:0:0:0:
320,192,69929,128,0,70017:0:0:0:0:
192,192,69929,1,0,0:0:0:0:
64,192,70017,128,0,70106:0:0:0:0:
448,192,70106,128,0,70194:0:0:0:0:
192,192,70194,128,0,70282:0:0:0:0:
320,192,70282,1,0,0:0:0:0:
64,192,70282,128,0,70635:0:0:0:0:
448,192,70370,1,0,0:0:0:0:
192,192,70458,1,0,0:0:0:0:
320,192,70547,1,0,0:0:0:0:
192,192,70635,1,0,0:0:0:0:
448,192,70635,128,0,70723:0:0:0:0:
320,192,70723,128,0,70811:0:0:0:0:
192,192,70811,128,0,70900:0:0:0:0:
64,192,70900,128,0,70988:0:0:0:0:
448,192,70988,128,0,71341:0:0:0:0:
192,192,71076,1,0,0:0:0:0:
320,192,71164,1,0,0:0:0:0:
64,192,71253,1,0,0:0:0:0:
192,192,71341,1,0,0:0:0:0:
320,192,71341,128,0,71782:0:0:0:0:
64,192,71429,128,0,71694:0:0:0:0:
448,192,71517,128,0,71606:0:0:0:0:
192,192,71606,128,0,72047:0:0:0:0:
448,192,71694,128,0,72047:0:0:0:0:
64,192,71782,128,0,71870:0:0:0:0:
320,192,71870,128,0,71958:0:0:0:0:
64,192,71958,128,0,72047:0:0:0:0:
320,192,72047,1,0,0:0:0:0:
192,192,72135,1,0,0:0:0:0:
64,192,72223,1,0,0:0:0:0:
448,192,72311,1,0,0:0:0:0:
320,192,72311,1,0,0:0:0:0:
192,192,72400,1,0,0:0:0:0:
64,192,72488,1,0,0:0:0:0:
448,192,72488,1,0,0:0:0:0:
320,192,72576,1,0,0:0:0:0:
448,192,72664,1,0,0:0:0:0:
64,192,72753,1,0,0:0:0:0:
192,192,72753,1,0,0:0:0:0:
320,192,72841,1,0,0:0:0:0:
448,192,72929,1,0,0:0:0:0:
192,192,73017,1,0,0:0:0:0:
320,192,73106,1,0,0:0:0:0:
64,192,73106,1,0,0:0:0:0:
448,192,73194,1,0,0:0:0:0:
192,192,73282,1,0,0:0:0:0:
320,192,73370,1,0,0:0:0:0:
192,192,73458,1,0,0:0:0:0:
64,192,73458,1,0,0:0:0:0:
448,192,73547,1,0,0:0:0:0:
320,192,73635,1,0,0:0:0:0:
192,192,73635,1,0,0:0:0:0:
64,192,73723,1,0,0:0:0:0:
320,192,73811,1,0,0:0:0:0:
192,192,73900,1,0,0:0:0:0:
448,192,73900,1,0,0:0:0:0:
64,192,73988,1,0,0:0:0:0:
320,192,74076,1,0,0:0:0:0:
448,192,74164,1,0,0:0:0:0:
64,192,74164,1,0,0:0:0:0:
192,192,74253,1,0,0:0:0:0:
320,192,74341,1,0,0:0:0:0:
64,192,74429,1,0,0:0:0:0:
192,192,74517,1,0,0:0:0:0:
448,192,74517,1,0,0:0:0:0:
320,192,74606,1,0,0:0:0:0:
64,192,74694,1,0,0:0:0:0:
448,192,74782,1,0,0:0:0:0:
320,192,74870,1,0,0:0:0:0:
192,192,74870,1,0,0:0:0:0:
64,192,74958,1,0,0:0:0:0:
320,192,75047,1,0,0:0:0:0:
448,192,75047,1,0,0:0:0:0:
192,192,75135,1,0,0:0:0:0:
64,192,75223,1,0,0:0:0:0:
448,192,75223,1,0,0:0:0:0:
320,192,75311,1,0,0:0:0:0:
192,192,75400,1,0,0:0:0:0:
64,192,75400,1,0,0:0:0:0:
320,192,75488,1,0,0:0:0:0:
448,192,75576,1,0,0:0:0:0:
64,192,75576,1,0,0:0:0:0:
192,192,75664,1,0,0:0:0:0:
320,192,75753,1,0,0:0:0:0:
64,192,75753,1,0,0:0:0:0:
192,192,75841,1,0,0:0:0:0:
448,192,75929,1,0,0:0:0:0:
320,192,75929,1,0,0:0:0:0:
192,192,76017,1,0,0:0:0:0:
64,192,76106,1,0,0:0:0:0:
320,192,76106,1,0,0:0:0:0:
448,192,76194,1,0,0:0:0:0:
64,192,76282,1,0,0:0:0:0:
192,192,76282,1,0,0:0:0:0:
320,192,76370,1,0,0:0:0:0:
448,192,76458,1,0,0:0:0:0:
64,192,76458,1,0,0:0:0:0:
192,192,76547,1,0,0:0:0:0:
320,192,76635,1,0,0:0:0:0:
448,192,76635,1,0,0:0:0:0:
192,192,76723,1,0,0:0:0:0:
64,192,76811,1,0,0:0:0:0:
320,192,76811,1,0,0:0:0:0:
448,192,76900,1,0,0:0:0:0:
192,192,76988,1,0,0:0:0:0:
64,192,76988,1,0,0:0:0:0:
320,192,77076,1,0,0:0:0:0:
448,192,77076,1,0,0:0:0:0:
192,192,77164,1,0,0:0:0:0:
64,192,77164,1,0,0:0:0:0:
448,192,77223,1,0,0:0:0:0:
320,192,77282,1,0,0:0:0:0:
192,192,77341,1,0,0:0:0:0:
64,192,77341,1,0,0:0:0:0:
448,192,77385,1,0,0:0:0:0:
320,192,77429,1,0,0:0:0:0:
192,192,77473,1,0,0:0:0:0:
64,192,77517,1,0,0:0:0:0:
448,192,77517,1,0,0:0:0:0:
320,192,77561,1,0,0:0:0:0:
192,192,77606,1,0,0:0:0:0:
64,192,77650,1,0,0:0:0:0:
320,192,77694,1,0,0:0:0:0:
448,192,77694,1,0,0:0:0:0:
192,192,77694,1,0,0:0:0:0:
448,192,78047,1,0,0:0:0:0:
320,192,78047,1,0,0:0:0:0:
320,192,78400,1,0,0:0:0:0:
192,192,78400,1,0,0:0:0:0:
64,192,78753,1,0,0:0:0:0:
192,192,78753,1,0,0:0:0:0:
320,192,79106,1,0,0:0:0:0:
448,192,79106,1,0,0:0:0:0:
64,192,79282,128,0,79458:0:0:0:0:
320,192,79458,1,0,0:0:0:0:
192,192,79458,1,0,0:0:0:0:
64,192,79635,128,0,79811:0:0:0:0:
192,192,79811,1,0,0:0:0:0:
448,192,79811,1,0,0:0:0:0:
320,192,79988,128,0,80164:0:0:0:0:
448,192,80164,1,0,0:0:0:0:
192,192,80164,1,0,0:0:0:0:
320,192,80341,128,0,80517:0:0:0:0:
64,192,80517,1,0,0:0:0:0:
448,192,80517,1,0,0:0:0:0:
192,192,80606,1,0,0:0:0:0:
320,192,80694,1,0,0:0:0:0:
448,192,80782,1,0,0:0:0:0:
320,192,80870,1,0,0:0:0:0:
192,192,80958,1,0,0:0:0:0:
320,192,81047,1,0,0:0:0:0:
192,192,81135,1,0,0:0:0:0:
64,192,81223,1,0,0:0:0:0:
448,192,81223,1,0,0:0:0:0:
320,192,81311,1,0,0:0:0:0:
192,192,81400,1,0,0:0:0:0:
320,192,81488,1,0,0:0:0:0:
64,192,81576,1,0,0:0:0:0:
192,192,81576,1,0,0:0:0:0:
320,192,81664,1,0,0:0:0:0:
448,192,81753,1,0,0:0:0:0:
64,192,81841,1,0,0:0:0:0:
320,192,81929,1,0,0:0:0:0:
192,192,81929,1,0,0:0:0:0:
448,192,82017,1,0,0:0:0:0:
192,192,82106,1,0,0:0:0:0:
64,192,82194,1,0,0:0:0:0:
320,192,82282,1,0,0:0:0:0:
448,192,82282,1,0,0:0:0:0:
192,192,82370,1,0,0:0:0:0:
64,192,82458,1,0,0:0:0:0:
320,192,82547,1,0,0:0:0:0:
192,192,82635,1,0,0:0:0:0:
64,192,82635,1,0,0:0:0:0:
448,192,82723,1,0,0:0:0:0:
192,192,82811,1,0,0:0:0:0:
320,192,82900,1,0,0:0:0:0:
64,192,82988,1,0,0:0:0:0:
192,192,82988,1,0,0:0:0:0:
448,192,83076,1,0,0:0:0:0:
320,192,83164,1,0,0:0:0:0:
192,192,83253,1,0,0:0:0:0:
64,192,83341,1,0,0:0:0:0:
320,192,83341,1,0,0:0:0:0:
448,192,83429,1,0,0:0:0:0:
64,192,83517,1,0,0:0:0:0:
320,192,83606,1,0,0:0:0:0:
192,192,83694,1,0,0:0:0:0:
448,192,83782,1,0,0:0:0:0:
320,192,83870,1,0,0:0:0:0:
64,192,83958,1,0,0:0:0:0:
192,192,84047,1,0,0:0:0:0:
320,192,84047,1,0,0:0:0:0:
448,192,84135,1,0,0:0:0:0:
320,192,84223,1,0,0:0:0:0:
192,192,84311,1,0,0:0:0:0:
448,192,84400,1,0,0:0:0:0:
64,192,84400,1,0,0:0:0:0:
320,192,84488,1,0,0:0:0:0:
192,192,84576,1,0,0:0:0:0:
320,192,84664,1,0,0:0:0:0:
64,192,84753,1,0,0:0:0:0:
192,192,84753,1,0,0:0:0:0:
448,192,84841,1,0,0:0:0:0:
192,192,84929,1,0,0:0:0:0:
320,192,85017,1,0,0:0:0:0:
192,192,85106,1,0,0:0:0:0:
64,192,85106,1,0,0:0:0:0:
448,192,85194,1,0,0:0:0:0:
192,192,85282,1,0,0:0:0:0:
320,192,85370,1,0,0:0:0:0:
64,192,85458,1,0,0:0:0:0:
192,192,85458,1,0,0:0:0:0:
448,192,85547,1,0,0:0:0:0:
320,192,85635,1,0,0:0:0:0:
192,192,85723,1,0,0:0:0:0:
320,192,85811,1,0,0:0:0:0:
448,192,85811,1,0,0:0:0:0:
192,192,85900,1,0,0:0:0:0:
64,192,85988,1,0,0:0:0:0:
320,192,86076,1,0,0:0:0:0:
448,192,86164,1,0,0:0:0:0:
64,192,86164,1,0,0:0:0:0:
192,192,86253,1,0,0:0:0:0:
320,192,86341,1,0,0:0:0:0:
448,192,86341,1,0,0:0:0:0:
192,192,86429,1,0,0:0:0:0:
64,192,86429,1,0,0:0:0:0:
320,192,86517,1,0,0:0:0:0:
448,192,86517,1,0,0:0:0:0:
192,192,86606,1,0,0:0:0:0:
64,192,86694,1,0,0:0:0:0:
320,192,86782,1,0,0:0:0:0:
192,192,86870,1,0,0:0:0:0:
64,192,86870,1,0,0:0:0:0:
448,192,86958,1,0,0:0:0:0:
320,192,87047,1,0,0:0:0:0:
64,192,87047,1,0,0:0:0:0:
192,192,87135,1,0,0:0:0:0:
448,192,87135,1,0,0:0:0:0:
320,192,87223,1,0,0:0:0:0:
64,192,87223,1,0,0:0:0:0:
64,192,87576,1,0,0:0:0:0:
192,192,87576,1,0,0:0:0:0:
320,192,87664,1,0,0:0:0:0:
448,192,87753,1,0,0:0:0:0:
64,192,87753,1,0,0:0:0:0:
192,192,87841,1,0,0:0:0:0:
320,192,87841,1,0,0:0:0:0:
448,192,87929,1,0,0:0:0:0:
64,192,87929,1,0,0:0:0:0:
448,192,88282,1,0,0:0:0:0:
320,192,88282,1,0,0:0:0:0:
192,192,88370,1,0,0:0:0:0:
64,192,88458,1,0,0:0:0:0:
320,192,88458,1,0,0:0:0:0:
192,192,88547,1,0,0:0:0:0:
448,192,88547,1,0,0:0:0:0:
320,192,88635,1,0,0:0:0:0:
64,192,88635,1,0,0:0:0:0:
192,192,88723,1,0,0:0:0:0:
448,192,88811,1,0,0:0:0:0:
64,192,88811,1,0,0:0:0:0:
192,192,88856,1,0,0:0:0:0:
320,192,88900,1,0,0:0:0:0:
448,192,88944,1,0,0:0:0:0:
320,192,88988,1,0,0:0:0:0:
192,192,88988,1,0,0:0:0:0:
64,192,88988,1,0,0:0:0:0:
192,192,89253,1,0,0:0:0:0:
448,192,89253,1,0,0:0:0:0:
320,192,89253,1,0,0:0:0:0:
64,192,89429,1,0,0:0:0:0:
192,192,89429,1,0,0:0:0:0:
320,192,89429,1,0,0:0:0:0:
320,192,89606,1,0,0:0:0:0:
448,192,89606,1,0,0:0:0:0:
192,192,89694,1,0,0:0:0:0:
64,192,89694,128,0,89958:0:0:0:0:
320,192,89782,128,0,90047:0:0:0:0:
192,192,89870,128,0,90223:0:0:0:0:
448,192,89958,128,0,90135:0:0:0:0:
64,192,90047,128,0,90400:0:0:0:0:
320,192,90135,128,0,90400:0:0:0:0:
448,192,90223,128,0,90400:0:0:0:0:
192,192,90311,128,0,90400:0:0:0:0:
64,192,90664,1,0,0:0:0:0:
192,192,90664,1,0,0:0:0:0:
448,192,90664,1,0,0:0:0:0:
192,192,90841,1,0,0:0:0:0:
320,192,90841,1,0,0:0:0:0:
448,192,90841,1,0,0:0:0:0:
64,192,91017,1,0,0:0:0:0:
192,192,91017,1,0,0:0:0:0:
320,192,91106,1,0,0:0:0:0:
448,192,91106,128,0,91458:0:0:0:0:
64,192,91458,128,0,91811:0:0:0:0:
192,192,91458,1,0,0:0:0:0:
320,192,91811,1,0,0:0:0:0:
448,192,91811,1,0,0:0:0:0:
192,192,92076,1,0,0:0:0:0:
64,192,92076,1,0,0:0:0:0:
192,192,92253,1,0,0:0:0:0:
64,192,92253,1,0,0:0:0:0:
320,192,92429,1,0,0:0:0:0:
448,192,92429,1,0,0:0:0:0:
192,192,92517,1,0,0:0:0:0:
64,192,92517,1,0,0:0:0:0:
64,192,92782,1,0,0:0:0:0:
320,192,92782,1,0,0:0:0:0:
64,192,92958,1,0,0:0:0:0:
320,192,92958,1,0,0:0:0:0:
192,192,93135,1,0,0:0:0:0:
448,192,93135,1,0,0:0:0:0:
320,192,93223,1,0,0:0:0:0:
64,192,93223,1,0,0:0:0:0:
320,192,93488,1,0,0:0:0:0:
192,192,93488,1,0,0:0:0:0:
64,192,93576,1,0,0:0:0:0:
448,192,93576,1,0,0:0:0:0:
448,192,93841,1,0,0:0:0:0:
64,192,93841,1,0,0:0:0:0:
320,192,93929,1,0,0:0:0:0:
192,192,93929,1,0,0:0:0:0:
192,192,94047,1,0,0:0:0:0:
320,192,94047,1,0,0:0:0:0:
192,192,94164,1,0,0:0:0:0:
320,192,94164,1,0,0:0:0:0:
192,192,94282,1,0,0:0:0:0:
320,192,94282,1,0,0:0:0:0:
192,192,94458,1,0,0:0:0:0:
320,192,94458,1,0,0:0:0:0:
192,192,94635,128,0,96047:0:0:0:0:
320,192,94635,128,0,96047:0:0:0:0:
64,192,96047,1,0,0:0:0:0:
448,192,96091,1,0,0:0:0:0:
320,192,96135,1,0,0:0:0:0:
192,192,96179,1,0,0:0:0:0:
64,192,96223,1,0,0:0:0:0:
448,192,96267,1,0,0:0:0:0:
320,192,96311,1,0,0:0:0:0:
192,192,96356,1,0,0:0:0:0:
64,192,96400,1,0,0:0:0:0:
448,192,96444,1,0,0:0:0:0:
320,192,96488,1,0,0:0:0:0:
192,192,96532,1,0,0:0:0:0:
64,192,96576,1,0,0:0:0:0:
448,192,96620,1,0,0:0:0:0:
320,192,96664,1,0,0:0:0:0:
192,192,96708,1,0,0:0:0:0:
64,192,96753,1,0,0:0:0:0:
448,192,96797,1,0,0:0:0:0:
320,192,96841,1,0,0:0:0:0:
192,192,96885,1,0,0:0:0:0:
64,192,96929,1,0,0:0:0:0:
448,192,96973,1,0,0:0:0:0:
320,192,97017,1,0,0:0:0:0:
192,192,97061,1,0,0:0:0:0:
448,192,97106,1,0,0:0:0:0:
64,192,97106,128,0,97458:0:0:0:0:
192,192,97194,1,0,0:0:0:0:
320,192,97282,1,0,0:0:0:0:
448,192,97370,1,0,0:0:0:0:
192,192,97458,1,0,0:0:0:0:
320,192,97458,128,0,97811:0:0:0:0:
64,192,97547,128,0,97635:0:0:0:0:
448,192,97635,128,0,97723:0:0:0:0:
192,192,97723,128,0,97811:0:0:0:0:
64,192,97811,128,0,97988:0:0:0:0:
448,192,97811,128,0,97988:0:0:0:0:
320,192,97900,128,0,98164:0:0:0:0:
192,192,97988,128,0,98076:0:0:0:0:
448,192,98076,128,0,98164:0:0:0:0:
64,192,98164,128,0,98341:0:0:0:0:
192,192,98164,128,0,98517:0:0:0:0:
320,192,98253,128,0,98341:0:0:0:0:
448,192,98341,128,0,98429:0:0:0:0:
64,192,98429,128,0,98606:0:0:0:0:
320,192,98517,128,0,98782:0:0:0:0:
448,192,98517,1,0,0:0:0:0:
192,192,98606,128,0,98694:0:0:0:0:
448,192,98694,128,0,98870:0:0:0:0:
64,192,98782,128,0,99047:0:0:0:0:
320,192,98870,1,0,0:0:0:0:
192,192,98870,128,0,99047:0:0:0:0:
448,192,99047,128,0,99223:0:0:0:0:
320,192,99047,128,0,99223:0:0:0:0:
64,192,99223,128,0,99400:0:0:0:0:
192,192,99223,1,0,0:0:0:0:
448,192,99311,128,0,99576:0:0:0:0:
320,192,99400,128,0,99488:0:0:0:0:
192,192,99488,128,0,99576:0:0:0:0:
64,192,99576,128,0,99929:0:0:0:0:
192,192,99576,1,0,0:0:0:0:
320,192,99576,128,0,99753:0:0:0:0:
192,192,99753,128,0,99841:0:0:0:0:
448,192,99753,128,0,99929:0:0:0:0:
320,192,99929,128,0,100017:0:0:0:0:
192,192,99929,128,0,100106:0:0:0:0:
64,192,100017,128,0,100194:0:0:0:0:
448,192,100106,128,0,100282:0:0:0:0:
192,192,100194,128,0,100282:0:0:0:0:
320,192,100282,1,0,0:0:0:0:
64,192,100370,1,0,0:0:0:0:
192,192,100458,1,0,0:0:0:0:
448,192,100458,1,0,0:0:0:0:
320,192,100547,1,0,0:0:0:0:
64,192,100547,1,0,0:0:0:0:
192,192,100635,1,0,0:0:0:0:
448,192,100635,1,0,0:0:0:0:
320,192,100723,1,0,0:0:0:0:
64,192,100811,1,0,0:0:0:0:
320,192,100900,1,0,0:0:0:0:
192,192,100988,1,0,0:0:0:0:
64,192,100988,1,0,0:0:0:0:
448,192,101076,1,0,0:0:0:0:
64,192,101164,1,0,0:0:0:0:
192,192,101253,1,0,0:0:0:0:
320,192,101341,1,0,0:0:0:0:
448,192,101341,1,0,0:0:0:0:
64,192,101429,1,0,0:0:0:0:
320,192,101517,1,0,0:0:0:0:
192,192,101606,1,0,0:0:0:0:
448,192,101694,1,0,0:0:0:0:
64,192,101694,1,0,0:0:0:0:
320,192,101782,1,0,0:0:0:0:
192,192,101870,1,0,0:0:0:0:
64,192,101870,1,0,0:0:0:0:
320,192,101958,1,0,0:0:0:0:
192,192,102047,1,0,0:0:0:0:
448,192,102047,1,0,0:0:0:0:
64,192,102135,1,0,0:0:0:0:
320,192,102223,1,0,0:0:0:0:
448,192,102311,1,0,0:0:0:0:
64,192,102400,1,0,0:0:0:0:
192,192,102400,1,0,0:0:0:0:
320,192,102488,1,0,0:0:0:0:
448,192,102576,1,0,0:0:0:0:
64,192,102576,1,0,0:0:0:0:
192,192,102664,1,0,0:0:0:0:
64,192,102753,1,0,0:0:0:0:
448,192,102753,1,0,0:0:0:0:
320,192,102841,1,0,0:0:0:0:
192,192,102929,1,0,0:0:0:0:
64,192,102929,1,0,0:0:0:0:
320,192,103017,1,0,0:0:0:0:
448,192,103106,1,0,0:0:0:0:
64,192,103106,128,0,103194:0:0:0:0:
320,192,103194,128,0,103282:0:0:0:0:
64,192,103282,128,0,103370:0:0:0:0:
448,192,103370,128,0,103458:0:0:0:0:
64,192,103458,128,0,103547:0:0:0:0:
192,192,103458,1,0,0:0:0:0:
320,192,103547,128,0,103635:0:0:0:0:
192,192,103635,128,0,103723:0:0:0:0:
64,192,103723,128,0,103811:0:0:0:0:
448,192,103811,128,0,103900:0:0:0:0:
320,192,103811,1,0,0:0:0:0:
192,192,103900,128,0,103988:0:0:0:0:
448,192,103988,128,0,104076:0:0:0:0:
64,192,104076,128,0,104164:0:0:0:0:
320,192,104164,128,0,104253:0:0:0:0:
448,192,104164,1,0,0:0:0:0:
192,192,104253,128,0,104341:0:0:0:0:
64,192,104341,128,0,104429:0:0:0:0:
448,192,104429,128,0,104517:0:0:0:0:
192,192,104517,128,0,104606:0:0:0:0:
64,192,104517,1,0,0:0:0:0:
448,192,104606,128,0,104694:0:0:0:0:
64,192,104694,128,0,104782:0:0:0:0:
320,192,104782,128,0,104870:0:0:0:0:
448,192,104870,128,0,104958:0:0:0:0:
64,192,104870,1,0,0:0:0:0:
192,192,104958,128,0,105047:0:0:0:0:
448,192,105047,128,0,105135:0:0:0:0:
64,192,105135,128,0,105223:0:0:0:0:
192,192,105223,128,0,105400:0:0:0:0:
320,192,105223,128,0,105488:0:0:0:0:
448,192,105311,128,0,105576:0:0:0:0:
64,192,105400,128,0,105576:0:0:0:0:
192,192,105488,128,0,105753:0:0:0:0:
320,192,105576,128,0,105841:0:0:0:0:
64,192,105664,128,0,105841:0:0:0:0:
448,192,105664,128,0,105929:0:0:0:0:
192,192,105841,128,0,105929:0:0:0:0:
64,192,105929,1,0,0:0:0:0:
320,192,105929,1,0,0:0:0:0:
192,192,106017,1,0,0:0:0:0:
320,192,106106,1,0,0:0:0:0:
448,192,106106,1,0,0:0:0:0:
192,192,106194,1,0,0:0:0:0:
64,192,106194,1,0,0:0:0:0:
448,192,106282,1,0,0:0:0:0:
320,192,106282,1,0,0:0:0:0:
192,192,106370,1,0,0:0:0:0:
64,192,106458,1,0,0:0:0:0:
320,192,106547,1,0,0:0:0:0:
192,192,106635,1,0,0:0:0:0:
448,192,106635,128,0,106900:0:0:0:0:
64,192,106723,128,0,106988:0:0:0:0:
320,192,106811,128,0,107164:0:0:0:0:
192,192,106900,128,0,107076:0:0:0:0:
448,192,106988,128,0,107253:0:0:0:0:
64,192,107076,128,0,107253:0:0:0:0:
192,192,107164,128,0,107341:0:0:0:0:
320,192,107253,128,0,107341:0:0:0:0:
448,192,107341,1,0,0:0:0:0:
64,192,107341,1,0,0:0:0:0:
192,192,107429,1,0,0:0:0:0:
320,192,107517,1,0,0:0:0:0:
64,192,107517,1,0,0:0:0:0:
192,192,107606,1,0,0:0:0:0:
448,192,107606,1,0,0:0:0:0:
320,192,107694,1,0,0:0:0:0:
64,192,107694,1,0,0:0:0:0:
192,192,107782,1,0,0:0:0:0:
448,192,107870,1,0,0:0:0:0:
320,192,107958,1,0,0:0:0:0:
192,192,108047,1,0,0:0:0:0:
64,192,108047,128,0,108311:0:0:0:0:
320,192,108135,128,0,108488:0:0:0:0:
192,192,108223,128,0,108400:0:0:0:0:
448,192,108311,128,0,108576:0:0:0:0:
64,192,108400,128,0,108664:0:0:0:0:
192,192,108488,128,0,108664:0:0:0:0:
320,192,108576,128,0,108753:0:0:0:0:
448,192,108664,128,0,108753:0:0:0:0:
64,192,108753,1,0,0:0:0:0:
192,192,108753,1,0,0:0:0:0:
448,192,108841,1,0,0:0:0:0:
192,192,108929,1,0,0:0:0:0:
64,192,108929,128,0,109017:0:0:0:0:
320,192,109017,1,0,0:0:0:0:
448,192,109106,1,0,0:0:0:0:
192,192,109106,128,0,109194:0:0:0:0:
64,192,109194,1,0,0:0:0:0:
192,192,109282,1,0,0:0:0:0:
448,192,109282,128,0,109370:0:0:0:0:
320,192,109370,1,0,0:0:0:0:
64,192,109458,1,0,0:0:0:0:
192,192,109458,128,0,109547:0:0:0:0:
448,192,109547,1,0,0:0:0:0:
64,192,109635,1,0,0:0:0:0:
320,192,109635,128,0,109723:0:0:0:0:
192,192,109723,1,0,0:0:0:0:
320,192,109811,1,0,0:0:0:0:
448,192,109811,128,0,109900:0:0:0:0:
64,192,109900,1,0,0:0:0:0:
448,192,109988,1,0,0:0:0:0:
192,192,109988,128,0,110076:0:0:0:0:
320,192,110076,1,0,0:0:0:0:
192,192,110164,1,0,0:0:0:0:
64,192,110164,128,0,110341:0:0:0:0:
320,192,110253,128,0,110517:0:0:0:0:
448,192,110341,128,0,110958:0:0:0:0:
64,192,110429,128,0,110694:0:0:0:0:
192,192,110429,128,0,110606:0:0:0:0:
320,192,110606,128,0,110870:0:0:0:0:
192,192,110694,128,0,111400:0:0:0:0:
64,192,110782,128,0,111047:0:0:0:0:
320,192,110958,128,0,111135:0:0:0:0:
448,192,111047,128,0,111311:0:0:0:0:
64,192,111135,128,0,111223:0:0:0:0:
320,192,111223,128,0,111488:0:0:0:0:
64,192,111311,128,0,111488:0:0:0:0:
448,192,111400,128,0,111576:0:0:0:0:
192,192,111488,128,0,111576:0:0:0:0:
64,192,111576,1,0,0:0:0:0:
320,192,111576,1,0,0:0:0:0:
192,192,111664,1,0,0:0:0:0:
320,192,111753,1,0,0:0:0:0:
64,192,111753,1,0,0:0:0:0:
448,192,111841,1,0,0:0:0:0:
192,192,111841,1,0,0:0:0:0:
64,192,111929,1,0,0:0:0:0:
320,192,111929,1,0,0:0:0:0:
192,192,112017,1,0,0:0:0:0:
448,192,112106,1,0,0:0:0:0:
192,192,112194,1,0,0:0:0:0:
320,192,112282,1,0,0:0:0:0:
64,192,112282,1,0,0:0:0:0:
448,192,112370,1,0,0:0:0:0:
192,192,112458,1,0,0:0:0:0:
320,192,112547,1,0,0:0:0:0:
448,192,112547,1,0,0:0:0:0:
64,192,112635,1,0,0:0:0:0:
192,192,112635,1,0,0:0:0:0:
320,192,112723,1,0,0:0:0:0:
448,192,112811,1,0,0:0:0:0:
192,192,112900,1,0,0:0:0:0:
320,192,112988,1,0,0:0:0:0:
64,192,112988,1,0,0:0:0:0:
192,192,113076,1,0,0:0:0:0:
448,192,113164,1,0,0:0:0:0:
320,192,113164,1,0,0:0:0:0:
64,192,113253,1,0,0:0:0:0:
192,192,113253,1,0,0:0:0:0:
448,192,113341,1,0,0:0:0:0:
320,192,113341,1,0,0:0:0:0:
64,192,113429,1,0,0:0:0:0:
192,192,113517,1,0,0:0:0:0:
320,192,113606,1,0,0:0:0:0:
64,192,113694,1,0,0:0:0:0:
192,192,113694,1,0,0:0:0:0:
448,192,113782,1,0,0:0:0:0:
192,192,113870,1,0,0:0:0:0:
320,192,113958,1,0,0:0:0:0:
64,192,113958,1,0,0:0:0:0:
192,192,114047,1,0,0:0:0:0:
448,192,114047,1,0,0:0:0:0:
320,192,114135,1,0,0:0:0:0:
64,192,114223,1,0,0:0:0:0:
192,192,114223,1,0,0:0:0:0:
320,192,114311,1,0,0:0:0:0:
448,192,114400,1,0,0:0:0:0:
192,192,114400,1,0,0:0:0:0:
64,192,114488,1,0,0:0:0:0:
448,192,114576,1,0,0:0:0:0:
320,192,114576,1,0,0:0:0:0:
192,192,114664,1,0,0:0:0:0:
64,192,114664,1,0,0:0:0:0:
448,192,114753,1,0,0:0:0:0:
320,192,114753,1,0,0:0:0:0:
64,192,114841,1,0,0:0:0:0:
320,192,114929,1,0,0:0:0:0:
192,192,115017,1,0,0:0:0:0:
320,192,115106,1,0,0:0:0:0:
448,192,115106,1,0,0:0:0:0:
64,192,115194,1,0,0:0:0:0:
192,192,115282,1,0,0:0:0:0:
64,192,115370,1,0,0:0:0:0:
320,192,115370,1,0,0:0:0:0:
192,192,115458,1,0,0:0:0:0:
448,192,115458,1,0,0:0:0:0:
320,192,115547,1,0,0:0:0:0:
192,192,115635,1,0,0:0:0:0:
64,192,115635,1,0,0:0:0:0:
320,192,115723,1,0,0:0:0:0:
64,192,115811,1,0,0:0:0:0:
448,192,115811,1,0,0:0:0:0:
64,192,115988,1,0,0:0:0:0:
192,192,115988,1,0,0:0:0:0:
320,192,116076,1,0,0:0:0:0:
448,192,116076,1,0,0:0:0:0:
192,192,116164,1,0,0:0:0:0:
64,192,116164,1,0,0:0:0:0:
448,192,116253,1,0,0:0:0:0:
320,192,116341,1,0,0:0:0:0:
192,192,116429,1,0,0:0:0:0:
64,192,116517,1,0,0:0:0:0:
448,192,116517,1,0,0:0:0:0:
192,192,116606,1,0,0:0:0:0:
320,192,116606,1,0,0:0:0:0:
448,192,116694,1,0,0:0:0:0:
64,192,116694,1,0,0:0:0:0:
320,192,116870,1,0,0:0:0:0:
448,192,116870,1,0,0:0:0:0:
192,192,116958,1,0,0:0:0:0:
64,192,117047,1,0,0:0:0:0:
448,192,117135,1,0,0:0:0:0:
64,192,117223,1,0,0:0:0:0:
320,192,117223,1,0,0:0:0:0:
448,192,117400,1,0,0:0:0:0:
320,192,117400,1,0,0:0:0:0:
64,192,117488,1,0,0:0:0:0:
192,192,117488,1,0,0:0:0:0:
448,192,117576,1,0,0:0:0:0:
320,192,117576,1,0,0:0:0:0:
192,192,117664,1,0,0:0:0:0:
448,192,117753,1,0,0:0:0:0:
64,192,117753,1,0,0:0:0:0:
320,192,117841,1,0,0:0:0:0:
64,192,117929,1,0,0:0:0:0:
192,192,117929,1,0,0:0:0:0:
320,192,118017,1,0,0:0:0:0:
448,192,118017,1,0,0:0:0:0:
64,192,118106,1,0,0:0:0:0:
192,192,118106,1,0,0:0:0:0:
448,192,118282,1,0,0:0:0:0:
320,192,118282,1,0,0:0:0:0:
192,192,118370,1,0,0:0:0:0:
64,192,118458,1,0,0:0:0:0:
448,192,118458,1,0,0:0:0:0:
320,192,118547,1,0,0:0:0:0:
192,192,118635,1,0,0:0:0:0:
64,192,118635,1,0,0:0:0:0:
64,192,118811,1,0,0:0:0:0:
192,192,118811,1,0,0:0:0:0:
320,192,118900,1,0,0:0:0:0:
448,192,118900,1,0,0:0:0:0:
192,192,118988,1,0,0:0:0:0:
64,192,118988,1,0,0:0:0:0:
192,192,119164,1,0,0:0:0:0:
448,192,119164,1,0,0:0:0:0:
320,192,119341,1,0,0:0:0:0:
64,192,119341,128,0,121458:0:0:0:0:
448,192,119341,128,0,121458:0:0:0:0:
