osu file format v12

[General]
AudioFilename: I_leaf.mp3
AudioLeadIn: 1000
PreviewTime: 77275
Countdown: 0
SampleSet: Soft
StackLeniency: 0.7
Mode: 0
LetterboxInBreaks: 0
EpilepsyWarning: 1

[Editor]
Bookmarks: 19101,28224,31474,32724,37489,55489,110333
DistanceSpacing: 2
BeatDivisor: 4
GridSize: 4

[Metadata]
Title:I
TitleUnicode:I
Artist:LeaF
ArtistUnicode:LeaF
Creator:Maddy
Version:Terror
Source:BMS
Tags:of Fighters PROGRESSIVE IDM RLC -kevincela- RikiH_
BeatmapID:264090
BeatmapSetID:99244

[Difficulty]
HPDrainRate:7
CircleSize:4
OverallDifficulty:8
ApproachRate:10
SliderMultiplier:1.7
SliderTickRate:1

[Events]
//Background and Video events
0,0,"I.jpg",0,0
Video,-600,"bga.flv"
//Break Periods
//Storyboard Layer 0 (Background)
//Storyboard Layer 1 (Fail)
//Storyboard Layer 2 (Pass)
//Storyboard Layer 3 (Foreground)
//Storyboard Sound Samples
//Background Colour Transformations
3,100,0,0,0

[TimingPoints]
557,272.727272727273,3,2,0,75,1,0
2738,1090.90909090909,4,2,0,75,1,0
19101,250,4,2,0,40,1,0
20101,-100,4,2,0,55,0,0
21851,1090.90909090909,4,2,0,55,1,0
22123,250,4,2,0,55,1,0
22873,1090.90909090909,4,2,0,55,1,0
23282,250,4,2,0,55,1,0
23657,1090.90909090909,4,2,0,55,1,0
24202,250,4,2,0,55,1,0
26202,1090.90909090909,4,2,0,55,1,0
26474,250,4,2,0,55,1,0
27224,250,4,2,0,55,1,0
35724,260.869565217391,4,2,0,55,1,0
35984,272.727272727273,4,2,0,55,1,0
36256,285.714285714286,4,2,0,55,1,0
36541,300,4,2,0,55,1,0
36841,315.789473684211,4,2,0,55,1,0
37156,333.333333333333,4,2,0,55,1,0
37489,272.727272727273,4,2,0,55,1,0
38034,272.727272727273,4,2,0,55,1,0
38034,-133.333333333333,4,2,0,55,0,0
55489,266.666666666667,7,2,0,55,1,0
62955,260.869565217391,7,2,0,55,1,0
70259,300,4,2,0,55,1,0
71459,285.714285714286,4,2,0,35,1,0
72316,272.727272727273,4,2,0,15,1,0
73406,260.869565217391,4,2,0,5,1,0
74188,250,4,2,0,55,1,0
75188,240,4,2,0,55,1,0
75908,230.769230769231,4,2,0,55,1,0
75908,-200,4,2,0,55,0,0
76831,222.222222222222,4,2,0,55,1,0
76831,-200,4,2,0,55,0,0
77719,214.285714285714,4,2,0,55,1,0
77719,-100,4,2,0,55,0,1
80504,923.076923076923,4,2,0,55,1,0
80965,214.285714285714,4,2,0,55,1,0
80965,-100,4,2,0,55,0,1
83750,923.076923076923,4,2,0,55,1,0
84211,214.285714285714,4,2,0,55,1,0
84211,-100,4,2,0,55,0,1
87425,214.285714285714,4,2,0,55,1,1
90639,1090.90909090909,4,2,0,55,1,0
92820,1090.90909090909,4,2,0,55,1,0
101548,214.285714285714,4,2,0,55,1,0
102405,-80,4,2,0,55,0,1
115267,214.285714285714,4,2,0,55,1,0
115267,-200,4,2,0,55,0,0
118695,-100,4,2,0,55,0,0
119767,923.076923076923,4,2,0,55,1,0
120228,214.285714285714,4,2,0,55,1,0
120656,923.076923076923,4,2,0,55,1,0
121117,214.285714285714,4,2,0,55,1,0
121331,923.076923076923,4,2,0,55,1,0
121792,214.285714285714,4,2,0,55,1,0
122649,923.076923076923,4,2,0,55,1,0
123110,214.285714285714,4,2,0,55,1,0
123324,923.076923076923,4,2,0,55,1,0
123670,214.285714285714,4,2,0,55,1,0
123991,923.076923076923,4,2,0,55,1,0
124452,214.285714285714,4,2,0,55,1,0
124880,-200,4,2,0,65,0,0
125309,-133.333333333333,4,2,0,55,0,0
125737,-133.333333333333,4,2,0,55,0,0
125952,923.076923076923,4,2,0,55,1,0
126298,214.285714285714,4,2,0,55,1,0
126619,923.076923076923,4,2,0,55,1,0
126965,214.285714285714,4,2,0,55,1,0
127072,923.076923076923,4,2,0,55,1,0
127418,214.285714285714,4,2,0,55,1,0
127953,923.076923076923,4,2,0,55,1,0
128414,214.285714285714,4,2,0,55,1,0
128628,923.076923076923,4,2,0,55,1,0
129320,214.285714285714,4,2,0,55,1,0
129534,923.076923076923,4,2,0,55,1,0
129880,214.285714285714,4,2,0,55,1,0
130201,923.076923076923,4,2,0,55,1,0
130547,214.285714285714,4,2,0,55,1,0
131082,923.076923076923,4,2,0,55,1,0
131428,214.285714285714,4,2,0,55,1,0
131535,923.076923076923,4,2,0,55,1,0
131881,214.285714285714,4,2,0,55,1,0
132421,214.285714285714,4,2,0,55,1,0
132421,-200,4,2,0,55,0,0
132635,-200,4,2,0,40,0,0
132849,-133.333333333333,4,2,0,25,0,0
133063,-133.333333333333,4,2,0,15,0,0
133278,-133.333333333333,4,2,0,30,0,0
133706,-133.333333333333,4,2,0,55,0,0
134135,857.142857142857,4,2,0,55,1,0
134295,214.285714285714,4,2,0,55,1,0
134348,857.142857142857,4,2,0,55,1,0
134508,214.285714285714,4,2,0,55,1,0
134561,857.142857142857,4,2,0,55,1,0
134721,214.285714285714,4,2,0,55,1,0
134774,857.142857142857,4,2,0,55,1,0
134988,214.285714285714,4,2,0,55,1,0
135416,-80,4,2,0,55,0,1
151059,1000,4,2,0,55,1,0
152934,250,4,2,0,55,1,0
153059,250,4,2,0,55,1,0

[Colours]
Combo1 : 222,244,66
Combo2 : 55,244,173
Combo3 : 37,73,241
Combo4 : 185,200,190
Combo5 : 95,243,114
Combo6 : 62,143,225
SliderBorder : 100,200,255

[HitObjects]
300,324,557,1,8,1:2:0:0:
300,196,693,1,0,1:0:0:0:
410,260,829,2,0,L|436:260,2,21.25,0|0|0,1:0|1:0|1:0,1:0:0:0:
336,260,966,21,8,1:2:0:0:
226,196,1102,1,0,1:0:0:0:
336,132,1238,2,0,L|356:112,2,21.25,0|0|0,1:0|1:0|1:0,1:0:0:0:
300,196,1375,21,8,1:2:0:0:
190,132,1511,1,0,1:0:0:0:
300,68,1647,2,0,L|316:40,2,21.25,0|0|0,1:0|1:0|1:0,1:0:0:0:
260,132,1784,21,8,1:2:0:0:
150,196,1920,1,0,1:0:0:0:
260,260,2057,2,0,L|280:280,2,21.25,0|0|0,1:0|1:0|1:0,1:0:0:0:
226,196,2193,21,8,1:2:0:0:
116,260,2329,1,0,1:0:0:0:
226,324,2466,2,0,L|232:352,6,21.25,0|0|0|0|0|0|0,1:0|1:0|1:0|1:0|1:0|1:0|1:0,1:0:0:0:
188,260,2738,21,4,1:0:0:0:
104,112,3283,1,2,0:0:0:0:
104,112,3828,2,0,P|144:128|186:129,1,85,2|2,0:0|0:0,0:0:0:0:
356,116,4919,1,2,0:0:0:0:
156,268,6010,1,2,0:0:0:0:
300,328,7101,22,0,L|308:244,1,85,2|2,0:0|0:0,0:0:0:0:
144,192,8192,2,0,L|136:276,1,85,2|2,0:0|0:0,0:0:0:0:
136,284,9283,1,2,0:0:0:0:
376,100,10374,1,2,0:0:0:0:
60,220,11465,22,0,P|96:208|152:208,1,85,2|2,0:0|0:0,0:0:0:0:
272,96,12556,2,0,P|236:108|180:108,1,85,2|2,0:0|0:0,0:0:0:0:
180,108,13647,1,2,0:0:0:0:
332,276,14737,1,2,0:0:0:0:
64,68,15828,22,0,L|56:160,1,85,2|2,0:0|0:0,0:0:0:0:
208,232,16919,2,0,L|216:140,1,85,2|2,0:0|0:0,0:0:0:0:
216,140,18010,1,2,0:0:0:0:
396,232,19101,22,0,L|388:264,14,21.25,0|0|0|0|0|0|0|0|0|0|0|0|0|0|0,1:0|1:0|1:0|1:0|1:0|1:0|1:0|1:0|1:0|1:0|1:0|1:0|1:0|1:0|1:0,0:0:0:0:
400,200,19601,1,0,1:0:0:0:
392,168,19663,1,0,1:0:0:0:
368,144,19726,1,0,1:0:0:0:
336,136,19788,1,0,1:0:0:0:
300,140,19851,2,0,P|272:148|240:148,2,56.6666666666667,0|0|0,1:0|1:0|1:0,0:0:0:0:
264,72,20101,21,4,1:2:0:0:
328,208,20226,1,0,0:0:0:0:
176,192,20351,2,0,P|160:152|168:108,1,85,0|0,1:0|0:0,0:0:0:0:
240,240,20601,2,0,P|204:268|156:268,1,85,0|0,1:0|0:0,0:0:0:0:
84,256,20851,1,0,1:0:0:0:
208,344,20976,1,0,0:0:0:0:
356,304,21101,22,0,L|368:220,1,85,0|0,1:0|0:0,0:0:0:0:
264,72,21351,2,0,L|252:156,1,85,0|0,1:0|0:0,0:0:0:0:
160,280,21601,1,0,1:0:0:0:
96,140,21726,1,0,0:0:0:0:
264,292,21851,6,0,L|284:332,1,42.5,0|0,0:0|1:0,0:0:0:0:
391,178,22248,5,0,0:0:0:0:
244,244,22373,1,0,1:0:0:0:
429,263,22498,1,0,0:0:0:0:
298,168,22623,1,0,1:0:0:0:
374,338,22748,1,0,0:0:0:0:
472,192,22873,70,0,P|468:152|452:120,1,63.75,0|0,1:0|1:0,0:0:0:0:
336,252,23407,37,0,1:0:0:0:
396,92,23532,1,0,1:0:0:0:
252,196,23657,38,0,P|212:192|172:168,1,85,0|0,0:0|1:0,0:0:0:0:
44,176,24327,69,0,0:0:0:0:
136,100,24452,1,0,1:0:0:0:
112,264,24577,1,0,0:0:0:0:
56,96,24702,1,0,1:0:0:0:
192,272,24827,1,0,0:0:0:0:
32,252,24952,1,0,1:0:0:0:
164,196,25077,22,0,P|204:196|248:216,1,85,0|0,0:0|1:0,0:0:0:0:
340,340,25327,1,0,0:0:0:0:
404,212,25452,1,0,1:0:0:0:
272,288,25577,1,0,0:0:0:0:
476,272,25702,21,0,1:0:0:0:
320,188,25827,1,0,0:0:0:0:
420,328,25952,1,0,1:0:0:0:
244,208,26077,1,0,0:0:0:0:
400,169,26202,38,0,P|403:187|404:212,1,42.5,0|0,0:0|1:0,0:0:0:0:
320,188,26599,69,0,0:0:0:0:
476,116,26724,1,0,1:0:0:0:
276,80,26849,1,0,0:0:0:0:
440,36,26974,1,0,1:0:0:0:
240,160,27099,22,0,P|236:204|264:252,1,85,0|0,0:0|1:0,0:0:0:0:
320,188,27349,1,0,0:0:0:0:
172,92,27474,1,0,1:0:0:0:
72,228,27599,1,0,0:0:0:0:
320,304,27724,22,0,L|344:316,4,21.25,0|0|0|0|0,1:0|1:0|1:0|1:0|1:0,0:0:0:0:
80,52,27974,2,0,L|56:64,4,21.25,0|0|0|0|0,1:0|1:0|1:0|1:0|1:0,0:0:0:0:
168,264,28224,21,4,1:2:0:0:
256,240,28349,1,0,0:0:0:0:
236,324,28474,1,0,1:0:0:0:
168,264,28599,21,0,0:0:0:0:
320,188,28724,1,0,1:0:0:0:
328,356,28849,1,0,0:0:0:0:
160,344,28974,1,0,1:0:0:0:
256,240,29099,1,0,0:0:0:0:
400,232,29224,22,0,P|440:236|488:256,1,85,0|0,1:0|0:0,0:0:0:0:
328,272,29474,1,0,1:0:0:0:
192,184,29599,1,0,0:0:0:0:
320,188,29724,1,0,1:0:0:0:
328,272,29849,1,0,0:0:0:0:
112,216,29974,1,0,1:0:0:0:
292,84,30099,1,0,0:0:0:0:
388,136,30224,22,0,P|404:180|396:224,1,85,0|0,1:0|0:0,0:0:0:0:
328,272,30474,1,0,1:0:0:0:
480,216,30599,1,0,0:0:0:0:
428,64,30724,1,0,1:0:0:0:
396,224,30849,1,0,0:0:0:0:
488,356,30974,1,0,1:0:0:0:
328,272,31099,1,0,0:0:0:0:
284,100,31224,22,0,P|284:56|312:16,1,85,0|0,1:0|0:0,0:0:0:0:
500,44,31474,2,0,P|500:88|472:128,1,85,0|0,1:0|0:0,0:0:0:0:
168,176,31724,2,0,P|168:132|180:88,1,85,0|0,1:0|0:0,0:0:0:0:
512,200,31974,2,0,P|511:243|500:288,1,85,0|0,1:0|0:0,0:0:0:0:
256,312,32224,21,0,1:0:0:0:
128,256,32349,1,0,0:0:0:0:
256,312,32474,2,0,L|344:324,1,85,0|0,1:0|0:0,0:0:0:0:
128,256,32724,2,0,L|40:244,1,85,0|0,1:0|0:0,0:0:0:0:
256,48,32974,1,0,1:0:0:0:
336,196,33099,22,0,P|296:208|256:197,1,85,0|0,0:0|1:0,0:0:0:0:
172,48,33349,1,0,0:0:0:0:
172,196,33474,1,0,1:0:0:0:
128,120,33599,1,0,0:0:0:0:
256,196,33724,2,0,P|247:236|219:268,1,85,0|0,1:0|0:0,0:0:0:0:
84,192,33974,2,0,P|56:160|48:112,1,85,0|0,1:0|0:0,0:0:0:0:
132,272,34224,21,0,1:0:0:0:
216,120,34349,1,0,0:0:0:0:
216,272,34474,2,0,L|200:360,1,85,0|0,1:0|0:0,0:0:0:0:
300,124,34724,2,0,L|316:36,1,85,0|0,1:0|0:0,0:0:0:0:
296,272,34974,1,0,1:0:0:0:
216,120,35099,22,0,L|200:32,1,85,0|0,0:0|1:0,0:0:0:0:
345,220,35349,1,0,0:0:0:0:
508,220,35474,1,0,1:0:0:0:
380,308,35599,1,0,0:0:0:0:
427,158,35724,22,0,L|432:137,6,21.25,0|0|0|0|0|0|0,1:0|1:0|1:0|1:0|1:0|1:0|1:0,0:0:0:0:
344,220,35984,22,0,L|338:240,6,21.25,0|0|0|0|0|0|0,1:0|1:0|1:0|1:0|1:0|1:0|1:0,1:0:0:0:
296,108,36256,22,0,L|301:87,6,21.25,0|0|0|0|0|0|0,1:0|1:0|1:0|1:0|1:0|1:0|1:0,0:0:0:0:
224,208,36541,22,0,L|218:228,6,21.25,0|0|0|0|0|0|0,1:0|1:0|1:0|1:0|1:0|1:0|1:0,0:0:0:0:
144,72,36841,22,0,L|149:51,6,21.25,0|0|0|0|0|0|0,1:0|1:0|1:0|1:0|1:0|1:0|1:0,0:0:0:0:
40,192,37156,22,0,L|34:212,6,21.25,0|0|0|0|0|0|0,1:0|1:0|1:0|1:0|1:0|1:0|1:0,0:0:0:0:
0,32,37489,1,4,1:2:0:0:
0,32,37761,1,4,1:2:0:0:
120,152,38034,22,0,P|184:164|248:140,1,127.500004863739,2|0,0:0|0:0,0:0:0:0:
332,52,38443,2,0,P|328:112|352:180,1,127.500004863739,2|0,0:0|0:0,0:0:0:0:
432,272,38852,2,0,P|368:260|304:284,1,127.500004863739,2|0,0:0|0:0,0:0:0:0:
220,372,39261,2,0,P|224:312|200:244,1,127.500004863739,2|0,0:0|0:0,0:0:0:0:
120,152,39670,2,0,P|91:133|60:124,1,63.7500024318696,2|0,0:0|0:0,0:0:0:0:
204,248,39943,2,0,P|232:266|264:276,1,63.7500024318696,2|0,0:0|0:0,0:0:0:0:
388,288,40216,22,0,L|520:280,1,127.500004863739,2|0,0:0|0:0,0:0:0:0:
380,136,40625,2,0,L|248:144,1,127.500004863739,2|0,0:0|0:0,0:0:0:0:
320,216,41034,2,0,L|452:208,1,127.500004863739,2|0,0:0|0:0,0:0:0:0:
312,64,41443,2,0,L|180:72,1,127.500004863739,2|0,0:0|0:0,0:0:0:0:
88,156,41852,2,0,L|92:92,1,63.7500024318696,2|0,0:0|0:0,0:0:0:0:
196,256,42125,2,0,L|192:192,1,63.7500024318696,2|0,0:0|0:0,0:0:0:0:
128,304,42398,22,0,P|184:336|252:316,1,127.500004863739,2|0,0:0|0:0,0:0:0:0:
256,150,42807,2,0,P|200:118|132:138,1,127.500004863739,2|0,0:0|0:0,0:0:0:0:
344,238,43216,2,0,P|408:242|460:194,1,127.500004863739,2|0,0:0|0:0,0:0:0:0:
392,44,43625,2,0,P|327:39|275:87,1,127.500004863739,2|0,0:0|0:0,0:0:0:0:
240,228,44034,2,0,P|231:256|212:288,1,63.7500024318696,2|0,0:0|0:0,0:0:0:0:
180,152,44307,2,0,P|179:120|168:88,1,63.7500024318696,2|0,0:0|0:0,0:0:0:0:
140,232,44579,22,0,P|76:248|20:216,1,127.500004863739,2|0,0:0|0:0,0:0:0:0:
180,300,44989,2,0,P|244:284|300:316,1,127.500004863739,2|0,0:0|0:0,0:0:0:0:
73,290,45398,2,0,L|88:164,1,127.500004863739,2|0,0:0|0:0,0:0:0:0:
248,228,45807,2,0,L|233:354,1,127.500004863739,2|0,0:0|0:0,0:0:0:0:
161,249,46216,2,0,L|169:177,1,63.7500024318696,2|0,0:0|0:0,0:0:0:0:
332,220,46489,2,0,L|324:292,1,63.7500024318696,2|0,0:0|0:0,0:0:0:0:
240,152,46761,22,0,B|292:160|296:124|368:144,1,127.500004863739,6|0,0:2|0:0,0:0:0:0:
417,328,47170,2,0,P|436:276|420:208,1,127.500004863739,2|0,0:0|0:0,0:0:0:0:
178,87,47579,2,0,P|159:139|175:207,1,127.500004863739,2|0,0:0|0:0,0:0:0:0:
356,264,47988,2,0,B|304:256|300:292|228:272,1,127.500004863739,2|0,0:0|0:0,0:0:0:0:
104,264,48397,2,0,P|64:272|32:284,1,63.7500024318696,2|2,0:0|0:0,0:0:0:0:
104,164,48670,2,0,P|144:172|176:184,1,63.7500024318696,2|2,0:0|0:0,0:0:0:0:
256,320,48943,22,0,L|388:308,1,127.500004863739,2|0,0:0|0:0,0:0:0:0:
276,240,49352,2,0,L|144:228,1,127.500004863739,2|0,0:0|0:0,0:0:0:0:
256,160,49761,2,0,L|388:148,1,127.500004863739,2|0,0:0|0:0,0:0:0:0:
276,80,50170,2,0,L|144:68,1,127.500004863739,2|0,0:0|0:0,0:0:0:0:
368,140,50579,2,0,L|440:124,1,63.7500024318696,2|0,0:0|0:0,0:0:0:0:
144,196,50852,2,0,L|72:180,1,63.7500024318696,2|0,0:0|0:0,0:0:0:0:
382,313,51124,22,0,P|326:345|258:325,1,127.500004863739,2|0,0:0|0:0,0:0:0:0:
254,159,51533,2,0,P|310:127|378:147,1,127.500004863739,2|0,0:0|0:0,0:0:0:0:
166,247,51942,2,0,P|101:251|49:203,1,127.500004863739,2|0,0:0|0:0,0:0:0:0:
118,53,52351,2,0,P|182:48|234:96,1,127.500004863739,2|0,0:0|0:0,0:0:0:0:
270,237,52760,2,0,P|278:265|298:297,1,63.7500024318696,2|2,0:0|0:0,0:0:0:0:
330,161,53033,2,0,P|331:129|342:97,1,63.7500024318696,2|2,0:0|0:0,0:0:0:0:
488,244,53306,22,0,P|424:232|360:256,1,127.500004863739,2|0,0:0|0:0,0:0:0:0:
276,344,53715,2,0,P|280:284|256:216,1,127.500004863739,2|0,0:0|0:0,0:0:0:0:
176,124,54124,2,0,P|240:136|304:112,1,127.500004863739,2|0,0:0|0:0,0:0:0:0:
388,24,54533,2,0,P|384:84|408:152,1,127.500004863739,2|0,0:0|0:0,0:0:0:0:
280,124,54943,2,0,P|272:88|276:56,1,63.7500024318696,6|0,0:2|0:0,0:0:0:0:
332,192,55215,2,0,L|344:208,4,15.9375006079674,0|0|0|0|0,1:0|1:0|1:0|1:0|1:0,0:0:0:0:
252,228,55489,21,4,1:2:0:0:
172,196,55622,2,0,L|176:104,1,85,2|0,0:0|1:0,0:0:0:0:
252,228,55889,2,0,L|248:320,1,85,2|0,0:0|1:0,0:0:0:0:
92,144,56155,2,0,L|112:56,1,85,2|0,0:0|1:0,0:0:0:0:
348,256,56422,22,0,L|328:344,1,85,2|0,0:0|1:0,0:0:0:0:
336,172,56689,2,0,L|316:84,1,85,2|0,0:0|1:0,0:0:0:0:
416,200,56955,1,0,0:0:0:0:
268,224,57089,1,0,1:0:0:0:
416,200,57222,1,0,0:0:0:0:
268,224,57355,21,2,1:2:0:0:
408,88,57489,1,2,0:0:0:0:
275,318,57622,1,0,1:0:0:0:
188,353,57755,1,0,0:0:0:0:
128,281,57889,1,0,1:0:0:0:
177,202,58022,1,0,0:0:0:0:
268,224,58155,21,2,1:2:0:0:
88,200,58289,1,2,0:0:0:0:
268,224,58422,1,0,1:0:0:0:
268,224,58489,1,0,1:0:0:0:
268,224,58555,1,0,1:0:0:0:
360,248,58689,1,0,1:0:0:0:
420,176,58823,1,0,0:0:0:0:
371,97,58955,2,0,P|344:80|320:72,2,56.6666666666667,2|2|2,1:2|0:0|0:0,0:0:0:0:
256,112,59222,21,6,1:2:0:0:
228,140,59311,1,2,0:2:0:0:
192,152,59400,1,2,0:2:0:0:
152,156,59489,1,2,1:2:0:0:
112,148,59577,1,2,0:2:0:0:
80,128,59666,1,2,0:2:0:0:
56,96,59755,21,2,1:2:0:0:
96,104,59844,1,2,0:2:0:0:
128,128,59933,1,2,0:2:0:0:
152,156,60022,1,2,1:2:0:0:
156,196,60111,1,2,0:2:0:0:
148,236,60200,1,2,0:2:0:0:
128,268,60289,2,2,P|105:291|80:304,2,56.6666666666667,2|2|2,1:2|0:2|0:2,1:2:0:0:
224,228,60555,2,2,P|230:196|225:168,2,56.6666666666667,2|2|2,1:2|0:2|0:2,1:2:0:0:
208,316,60822,21,0,1:0:0:0:
300,228,60955,1,0,0:0:0:0:
344,348,61089,1,2,1:2:0:0:
132,348,61222,1,2,0:0:0:0:
372,272,61355,2,0,P|416:272|456:292,1,85,0|0,1:0|0:0,0:0:0:0:
208,316,61622,2,0,P|164:316|124:296,1,85,0|0,1:0|0:0,0:0:0:0:
300,228,61889,21,0,1:0:0:0:
300,228,61955,1,0,1:0:0:0:
300,228,62022,1,0,1:0:0:0:
248,140,62155,1,0,1:0:0:0:
300,52,62289,1,0,0:0:0:0:
400,68,62422,2,0,L|436:76,4,21.25,0|0|0|0|0,1:0|1:0|1:0|1:0|1:0,0:0:0:0:
208,216,62689,2,0,L|172:224,4,21.25,0|0|0|0|0,1:0|1:0|1:0|1:0|1:0,0:0:0:0:
424,172,62955,21,4,1:2:0:0:
400,280,63085,1,0,0:0:0:0:
332,192,63215,1,0,1:0:0:0:
479,238,63346,2,0,P|492:280|484:320,1,85,2|0,0:0|1:0,0:0:0:0:
256,236,63607,2,0,P|243:194|251:154,1,85,2|0,0:0|1:0,0:0:0:0:
388,92,63868,22,0,L|472:100,1,85,2|0,0:0|1:0,0:0:0:0:
160,120,64128,2,0,L|76:112,1,85,2|0,0:0|1:0,0:0:0:0:
332,192,64389,1,0,0:0:0:0:
232,88,64520,1,0,1:0:0:0:
120,188,64650,1,0,0:0:0:0:
220,292,64781,21,2,1:2:0:0:
160,120,64911,1,2,0:0:0:0:
340,96,65041,2,0,P|384:92|428:104,1,85,0|0,1:0|1:0,0:0:0:0:
504,252,65302,1,0,1:0:0:0:
296,164,65433,2,0,P|248:168|208:184,1,85,0|0,1:0|1:0,0:0:0:0:
432,316,65694,22,0,L|520:332,1,85,0|0,1:0|1:0,0:0:0:0:
120,188,65955,2,0,L|32:204,1,85,0|0,1:0|1:0,0:0:0:0:
340,304,66215,1,0,1:0:0:0:
256,156,66346,1,0,1:0:0:0:
172,304,66476,1,0,1:0:0:0:
392,240,66607,21,4,1:2:0:0:
172,304,66737,2,0,P|128:300|84:288,1,85,2|0,0:0|1:0,0:0:0:0:
392,240,66998,2,0,P|436:236|480:224,1,85,2|0,0:0|1:0,0:0:0:0:
172,184,67259,1,2,0:0:0:0:
72,168,67389,1,0,1:0:0:0:
344,128,67520,1,2,0:0:0:0:
444,112,67650,21,0,1:0:0:0:
392,240,67781,1,2,0:0:0:0:
268,188,67911,1,0,1:0:0:0:
312,60,68041,1,2,0:0:0:0:
304,264,68172,2,0,L|300:352,1,85,0|0,1:0|0:0,0:0:0:0:
206,154,68433,21,0,1:0:0:0:
207,137,68498,1,0,1:0:0:0:
208,120,68563,1,0,1:0:0:0:
200,280,68694,1,0,1:0:0:0:
108,148,68824,1,0,0:0:0:0:
264,204,68955,1,0,1:0:0:0:
104,248,69085,1,0,0:0:0:0:
144,72,69215,22,0,L|132:48,4,21.25,0|0|0|0|0,1:0|1:0|1:0|1:0|1:0,0:0:0:0:
264,204,69476,1,0,1:0:0:0:
420,132,69607,1,0,0:0:0:0:
476,292,69737,2,0,L|472:328,4,21.25,0|0|0|0|0,1:0|1:0|1:0|1:0|1:0,0:0:0:0:
108,148,69998,2,0,L|112:112,4,21.25,0|0|0|0|0,1:0|1:0|1:0|1:0|1:0,0:0:0:0:
296,212,70259,21,6,0:2:0:0:
256,192,70334,12,0,73927,0:0:0:0:
180,272,74188,22,0,P|256:304|332:268,1,170,0|0,1:0|1:0,1:0:0:0:
332,112,74688,2,0,P|256:80|180:116,1,170,0|0,1:0|1:0,0:0:0:0:
88,192,75188,1,0,1:0:0:0:
312,192,75428,1,0,1:0:0:0:
196,192,75668,1,0,1:0:0:0:
424,192,75908,22,0,L|456:224,1,42.5,0|0,1:0|1:0,0:0:0:0:
57,222,76138,2,0,L|88:192,1,42.5,0|0,1:0|1:0,0:0:0:0:
356,272,76369,2,0,L|340:320,1,42.5,0|0,1:0|1:0,0:0:0:0:
156,112,76600,2,0,L|172:64,1,42.5,0|0,1:0|1:0,0:0:0:0:
140,312,76831,22,0,L|156:264,1,42.5,0|0,1:0|1:0,0:0:0:0:
56,164,77053,1,0,1:0:0:0:
316,148,77275,5,8,1:0:0:0:
280,236,77386,1,0,1:0:0:0:
508,332,77497,1,8,1:0:0:0:
448,200,77608,1,8,1:0:0:0:
336,312,77719,21,4,1:2:0:0:
324,228,77826,1,0,1:0:0:0:
340,144,77933,2,0,P|346:107|368:56,1,85,0|0,1:0|1:0,1:0:0:0:
448,76,78147,1,0,1:0:0:0:
452,88,78201,1,0,1:0:0:0:
456,100,78254,1,0,1:0:0:0:
460,112,78308,1,0,1:0:0:0:
464,124,78361,1,0,1:0:0:0:
448,200,78469,1,0,1:0:0:0:
420,280,78576,21,0,1:0:0:0:
336,312,78683,1,0,1:0:0:0:
256,280,78790,1,0,1:0:0:0:
256,280,78844,1,0,1:0:0:0:
256,280,78897,2,0,P|240:240|240:192,1,85,0|0,1:0|1:0,1:0:0:0:
256,116,79111,1,0,1:0:0:0:
340,144,79219,1,0,1:0:0:0:
340,144,79272,1,0,1:0:0:0:
340,144,79326,1,0,1:0:0:0:
320,60,79433,22,0,P|280:36|224:32,1,85,0|0,1:0|1:0,1:0:0:0:
404,84,79647,1,0,1:0:0:0:
420,168,79754,2,0,P|412:192|396:212,3,42.5,0|0|0|0,1:0|1:0|1:0|1:0,1:0:0:0:
364,228,79969,21,0,1:0:0:0:
392,344,80076,1,0,1:0:0:0:
264,372,80183,1,0,1:0:0:0:
236,256,80290,1,0,1:0:0:0:
314,300,80397,21,2,0:0:0:0:
314,300,80965,21,4,1:2:0:0:
236,256,81072,1,0,1:0:0:0:
384,168,81179,1,0,1:0:0:0:
306,212,81286,1,0,1:0:0:0:
244,156,81393,2,0,L|196:164,3,42.5,0|0|0|0,1:0|1:0|1:0|1:0,1:0:0:0:
168,136,81607,1,0,1:0:0:0:
144,220,81715,1,0,1:0:0:0:
80,156,81822,22,0,L|88:68,1,85,0|0,1:0|1:0,1:0:0:0:
168,300,82036,2,0,L|160:388,1,85,0|0,1:0|1:0,1:0:0:0:
144,220,82250,1,0,1:0:0:0:
168,136,82357,1,0,1:0:0:0:
216,64,82465,1,0,1:0:0:0:
216,64,82518,1,0,1:0:0:0:
216,64,82572,1,0,1:0:0:0:
300,44,82679,22,0,P|337:54|392:56,1,85,0|0,1:0|1:0,1:0:0:0:
464,36,82893,1,0,1:0:0:0:
440,116,83000,2,0,L|452:168,3,42.5,0|0|0|0,1:0|1:0|1:0|1:0,1:0:0:0:
460,200,83215,21,0,1:0:0:0:
336,168,83322,1,0,1:0:0:0:
296,288,83429,1,0,1:0:0:0:
416,332,83536,1,0,1:0:0:0:
380,248,83643,21,2,0:0:0:0:
380,248,84211,21,4,1:2:0:0:
296,288,84318,1,0,1:0:0:0:
296,288,84371,1,0,1:0:0:0:
296,288,84425,2,0,L|208:272,1,85,0|0,1:0|1:0,1:0:0:0:
228,152,84639,2,0,L|316:168,1,85,0|0,1:0|1:0,1:0:0:0:
384,124,84853,1,0,1:0:0:0:
136,192,84961,1,0,1:0:0:0:
256,72,85068,22,0,P|208:68|168:88,1,85,0|0,1:0|1:0,1:0:0:0:
264,364,85282,2,0,P|312:368|352:348,1,85,0|0,1:0|1:0,1:0:0:0:
380,248,85496,1,0,1:0:0:0:
312,164,85603,1,0,1:0:0:0:
212,212,85711,2,0,L|188:256,3,42.5,0|0|0|0,1:0|1:0|1:0|1:0,1:0:0:0:
188,292,85925,21,0,1:0:0:0:
136,192,86032,1,0,1:0:0:0:
188,92,86139,1,0,1:0:0:0:
188,92,86193,1,0,1:0:0:0:
188,92,86246,1,0,1:0:0:0:
324,92,86353,1,0,1:0:0:0:
376,192,86460,1,0,1:0:0:0:
324,292,86567,1,0,1:0:0:0:
324,292,86621,1,0,1:0:0:0:
324,292,86674,1,0,1:0:0:0:
256,220,86782,22,0,L|256:128,1,85,0|0,1:0|1:0,1:0:0:0:
464,160,86996,2,0,L|464:252,1,85,4|0,1:2|1:0,1:0:0:0:
324,292,87211,2,0,L|288:288,4,21.25,0|0|0|0|0,1:0|1:0|1:0|1:0|1:0,1:0:0:0:
348,212,87425,21,4,1:2:0:0:
332,128,87532,1,0,0:0:0:0:
264,76,87639,1,0,1:0:0:0:
180,68,87746,1,0,0:0:0:0:
108,112,87853,2,0,P|84:148|88:200,1,85,0|0,1:0|0:0,0:0:0:0:
332,128,88067,2,0,P|356:92|352:40,1,85,0|0,1:0|0:0,0:0:0:0:
240,332,88282,21,4,1:2:0:0:
156,324,88389,1,0,0:2:0:0:
88,272,88496,1,0,1:0:0:0:
68,188,88603,1,0,0:0:0:0:
108,112,88710,2,0,P|136:88|188:80,1,85,0|0,1:0|0:0,0:0:0:0:
156,328,88925,2,0,P|128:352|76:360,1,85,0|0,1:0|0:0,0:0:0:0:
348,212,89139,22,0,L|340:300,1,85,4|0,1:2|1:0,0:0:0:0:
264,272,89353,2,0,L|272:184,1,85,4|0,1:2|1:0,0:0:0:0:
432,180,89568,2,0,L|424:268,1,85,4|0,1:2|1:0,0:0:0:0:
184,296,89782,2,0,L|192:208,1,85,4|0,1:2|1:0,0:0:0:0:
256,156,89996,22,0,P|248:100|208:24,1,127.5,4|4,1:2|1:2,0:0:0:0:
308,256,90318,2,0,P|360:277|446:280,1,127.5,4|4,1:2|1:2,0:0:0:0:
192,248,90639,1,4,1:2:0:0:
256,192,90707,12,0,92275,1:0:0:0:
256,192,92411,5,0,1:0:0:0:
256,192,92548,1,0,1:0:0:0:
256,192,92684,1,0,1:0:0:0:
256,192,92820,22,0,L|252:144,1,42.5,2|2,0:0|0:0,0:0:0:0:
168,168,93366,2,2,L|172:216,1,42.5
320,260,93911,22,0,L|359:244,1,42.5,2|2,1:2|0:0,0:0:0:0:
416,308,94457,2,0,L|376:323,1,42.5,2|2,0:0|0:0,0:0:0:0:
164,328,95002,22,0,L|136:280,1,42.5,2|2,1:2|0:0,0:0:0:0:
348,56,95548,2,0,L|376:104,1,42.5,2|2,1:2|0:0,0:0:0:0:
101,247,96093,22,0,L|107:192,1,42.5,2|2,1:2|0:0,0:0:0:0:
410,136,96639,2,0,L|404:191,1,42.5,2|2,1:2|0:0,0:0:0:0:
256,192,97184,21,2,1:2:0:0:
204,124,97457,1,2,0:0:0:0:
120,120,97729,2,0,P|95:124|64:136,1,42.5,2|2,0:0|0:0,0:0:0:0:
112,208,98275,22,0,P|136:203|168:192,1,42.5,2|2,1:2|0:0,0:0:0:0:
204,124,98820,1,2,0:0:0:0:
256,256,99093,1,2,0:0:0:0:
308,124,99366,22,0,L|304:68,1,42.5,2|2,1:2|0:0,0:0:0:0:
400,236,99911,2,0,L|404:188,1,42.5,2|2,1:2|0:0,0:0:0:0:
476,352,100457,22,0,L|484:308,1,42.5,2|2,1:2|0:0,0:0:0:0:
496,228,101002,1,0,1:0:0:0:
496,228,101139,1,0,1:0:0:0:
496,228,101275,1,0,1:0:0:0:
287,288,101976,5,8,1:2:0:0:
174,132,102083,1,0,1:0:0:0:
357,192,102190,1,8,1:2:0:0:
174,251,102298,1,0,1:0:0:0:
287,95,102405,22,0,P|396:88|472:160,1,212.5,8|0,1:2|1:0,0:0:0:0:
256,192,102726,1,0,0:0:0:0:
96,176,102833,2,0,P|85:126|80:68,1,106.25,0|0,1:0|0:0,0:0:0:0:
174,251,103048,2,0,P|168:304|158:359,1,106.25,0|0,1:0|0:0,0:0:0:0:
174,132,103262,22,0,B|220:88|220:88|288:128|368:84,1,212.5,0|0,1:0|1:0,0:0:0:0:
428,32,103583,1,0,0:0:0:0:
292,32,103690,2,0,P|296:144|380:176,1,212.5,0|0,1:0|1:0,0:0:0:0:
464,156,104012,1,0,0:0:0:0:
340,256,104119,22,0,P|288:240|240:208,1,106.25,0|0,1:0|0:0,0:0:0:0:
64,200,104333,2,0,P|116:216|164:248,1,106.25,0|0,1:0|0:0,0:0:0:0:
296,332,104548,2,0,P|400:320|420:220,1,212.5,0|0,1:0|1:0,0:0:0:0:
360,148,104869,1,0,0:0:0:0:
256,156,104976,22,0,L|140:164,1,106.25,0|0,1:0|0:0,0:0:0:0:
12,284,105190,2,0,L|128:276,1,106.25,0|0,1:0|0:0,0:0:0:0:
328,204,105405,2,0,P|340:156|324:100,1,106.25,0|0,1:0|0:0,0:0:0:0:
72,64,105619,2,0,P|60:112|76:168,1,106.25,0|0,1:0|0:0,0:0:0:0:
400,240,105833,22,0,L|512:220,1,106.25,0|0,1:0|0:0,0:0:0:0:
185,315,106048,2,0,L|73:295,1,106.25,0|0,1:0|0:0,0:0:0:0:
276,244,106262,2,0,B|296:132|216:144|252:40,1,212.5,0|0,1:0|1:0,0:0:0:0:
360,312,106690,22,0,P|408:320|468:292,1,106.25,0|0,1:0|0:0,0:0:0:0:
152,312,106905,2,0,P|104:320|44:292,1,106.25,0|0,1:0|0:0,0:0:0:0:
448,150,107119,2,0,P|436:200|400:240,1,106.25,0|0,1:0|0:0,0:0:0:0:
112,240,107333,2,0,P|76:200|64:136,1,106.25,0|0,1:0|0:0,0:0:0:0:
340,60,107547,22,0,P|364:104|360:172,1,106.25,0|0,1:0|0:0,0:0:0:0:
147,159,107762,2,0,P|148:104|172:60,1,106.25,0|0,1:0|0:0,0:0:0:0:
324,244,107976,2,0,P|407:235|441:112,1,212.5,0|0,1:0|1:0,0:0:0:0:
188,244,108405,2,0,P|104:235|65:126,1,212.5,0|0,1:0|1:0,0:0:0:0:
312,324,108833,22,0,L|424:332,1,106.25,0|0,1:0|0:0,0:0:0:0:
200,324,109047,2,0,L|88:332,1,106.25,0|0,1:0|0:0,0:0:0:0:
408,252,109262,2,0,P|460:272|516:272,1,106.25,0|0,1:0|0:0,0:0:0:0:
104,252,109476,2,0,P|52:272|-4:272,1,106.25,0|0,1:0|0:0,0:0:0:0:
372,176,109690,22,0,P|424:172|473:200,1,106.25,0|0,1:0|0:0,0:0:0:0:
140,176,109905,2,0,P|88:172|39:200,1,106.25,0|0,1:0|0:0,0:0:0:0:
308,120,110119,2,0,P|338:77|352:24,1,106.25,0|0,1:0|0:0,0:0:0:0:
204,120,110333,2,0,P|173:77|160:24,1,106.25,0|0,1:0|0:0,0:0:0:0:
256,184,110547,21,0,1:0:0:0:
256,196,110601,1,0,1:0:0:0:
256,208,110655,1,0,1:0:0:0:
256,220,110708,1,0,1:0:0:0:
256,232,110762,2,0,P|248:264|180:288,1,106.25,0|0,1:0|0:0,0:0:0:0:
140,176,110976,1,0,1:0:0:0:
140,164,111030,1,0,1:0:0:0:
140,152,111084,1,0,1:0:0:0:
140,140,111137,1,0,1:0:0:0:
140,128,111191,2,0,P|148:96|216:72,1,106.25,0|0,1:0|0:0,0:0:0:0:
344,48,111405,22,0,P|424:116|400:216,1,212.5,0|0,1:0|1:0,0:0:0:0:
396,232,111690,1,0,1:0:0:0:
388,252,111762,1,0,1:0:0:0:
380,272,111833,2,0,P|364:324|388:372,1,106.25,0|0,1:0|0:0,0:0:0:0:
460,320,112047,2,0,L|496:216,1,106.25,0|0,1:0|0:0,0:0:0:0:
276,340,112262,22,0,P|220:336|164:308,1,106.25,0|0,1:0|0:0,0:0:0:0:
108,212,112476,2,0,P|112:156|140:100,1,106.25,0|0,1:0|0:0,0:0:0:0:
236,44,112690,2,0,P|292:48|348:76,1,106.25,0|0,1:0|0:0,0:0:0:0:
404,172,112904,2,0,P|400:228|372:284,1,106.25,0|0,1:0|0:0,0:0:0:0:
248,360,113119,22,0,P|187:345|129:302,1,106.25,0|0,1:0|0:0,0:0:0:0:
86,184,113333,2,0,P|101:123|144:65,1,106.25,0|0,1:0|0:0,0:0:0:0:
262,22,113547,2,0,P|323:37|381:80,1,106.25,0|0,1:0|0:0,0:0:0:0:
424,198,113761,2,0,P|409:259|366:317,1,106.25,0|0,1:0|0:0,0:0:0:0:
160,320,113976,22,0,P|192:220|128:128,1,212.5,0|0,1:0|0:0,0:0:0:0:
120,124,114262,1,0,1:0:0:0:
104,112,114333,1,0,1:0:0:0:
88,100,114405,22,0,P|68:64|92:8,1,106.25,0|0,1:0|0:0,0:0:0:0:
420,8,114619,2,0,P|444:64|424:100,1,106.25,0|0,1:0|0:0,0:0:0:0:
200,204,114833,2,0,L|80:188,1,106.25,0|0,1:0|0:0,0:0:0:0:
312,204,115047,2,0,L|432:188,1,106.25,0|0,1:0|0:0,0:0:0:0:
256,288,115267,6,0,B|216:280|216:300|168:296,1,85,0|0,1:0|0:0,0:0:0:0:
256,96,115695,2,0,B|296:104|296:84|344:88,1,85,0|0,1:0|0:0,0:0:0:0:
476,192,116124,21,0,1:0:0:0:
396,232,116231,1,0,0:0:0:0:
396,232,116285,1,0,0:0:0:0:
396,232,116338,1,0,0:0:0:0:
312,204,116445,1,0,0:0:0:0:
228,200,116552,22,0,L|136:224,1,85,0|0,1:0|0:0,0:0:0:0:
472,280,116981,1,0,1:0:0:0:
256,96,117195,1,0,1:0:0:0:
40,280,117410,1,0,1:0:0:0:
112,236,117517,1,0,1:0:0:0:
116,320,117624,2,0,L|88:356,1,42.5,0|0,1:0|0:0,0:0:0:0:
128,152,117838,22,0,P|172:160|212:160,1,85,0|0,1:0|1:0,0:0:0:0:
472,36,118267,1,0,1:0:0:0:
444,116,118374,2,0,L|452:212,1,85,0|0,1:0|0:0,0:0:0:0:
460,344,118695,21,4,1:2:0:0:
412,272,118802,1,0,0:0:0:0:
372,348,118910,21,4,1:2:0:0:
280,228,119017,1,0,0:0:0:0:
412,192,119124,21,4,1:2:0:0:
332,160,119231,1,0,0:0:0:0:
208,272,119338,21,4,1:2:0:0:
260,116,119445,1,0,0:0:0:0:
284,316,119552,21,4,1:2:0:0:
280,228,119660,1,0,0:0:0:0:
140,156,119767,6,0,P|96:144|48:152,1,85,2|0,0:0|1:0,0:0:0:0:
92,224,120335,5,0,0:0:0:0:
108,64,120442,1,0,1:0:0:0:
268,80,120549,1,0,0:0:0:0:
252,240,120656,70,0,L|244:328,1,85,2|0,0:0|1:0,0:0:0:0:
336,224,121224,37,0,0:0:0:0:
344,108,121331,38,0,L|352:20,1,85,2|0,0:0|1:0,0:0:0:0:
423,195,121899,69,0,0:0:0:0:
282,195,122006,1,0,1:0:0:0:
282,54,122113,1,0,0:0:0:0:
423,54,122220,1,0,1:0:0:0:
452,124,122327,21,0,0:0:0:0:
252,124,122434,1,0,1:0:0:0:
352,24,122542,1,0,0:0:0:0:
352,224,122649,70,0,B|352:264|336:264|348:312,1,85,2|0,0:0|1:0,0:0:0:0:
428,280,123217,5,0,0:0:0:0:
264,292,123324,70,0,L|192:280,1,63.75,2|0,0:0|1:0,0:0:0:0:
32,252,123777,37,0,0:0:0:0:
60,84,123884,1,0,1:0:0:0:
236,108,123991,38,0,P|268:136|260:192,1,85,2|0,0:0|1:0,0:0:0:0:
156,144,124559,69,0,0:0:0:0:
196,224,124666,1,0,1:0:0:0:
376,136,124773,1,0,0:0:0:0:
336,68,124880,22,0,L|352:44,7,21.25,2|2|2|2|2|2|2|2,0:0|0:0|0:0|0:0|0:0|0:0|0:0|0:0,0:0:0:0:
376,136,125309,2,0,L|352:168,7,31.8750012159348,2|2|2|2|2|2|2|2,0:0|0:0|0:0|0:0|0:0|0:0|0:0|0:0,0:0:0:0:
416,68,125737,21,0,1:0:0:0:
284,192,125844,1,0,0:0:0:0:
476,312,125952,38,0,P|440:312|400:304,1,63.75,2|0,0:0|1:0,0:0:0:0:
296,284,126405,69,0,0:0:0:0:
448,236,126512,1,0,1:0:0:0:
272,364,126619,6,0,P|236:362|200:348,1,63.75,2|2,0:0|0:0,0:0:0:0:
292,116,127072,2,0,P|327:117|364:132,1,63.75,2|0,0:0|1:0,0:0:0:0:
364,208,127525,5,0,0:0:0:0:
456,128,127632,1,0,1:0:0:0:
380,36,127739,1,0,0:0:0:0:
292,116,127846,1,0,1:0:0:0:
408,288,127953,70,0,P|368:296|320:288,1,85,2|0,0:0|1:0,0:0:0:0:
228,256,128521,37,0,0:0:0:0:
384,372,128628,38,0,L|516:352,1,127.5,2|0,0:0|1:0,0:0:0:0:
492,260,129427,69,0,0:0:0:0:
256,364,129534,6,0,L|192:352,1,63.75,2|0,0:0|1:0,0:0:0:0:
128,272,129987,5,0,0:0:0:0:
256,156,130094,1,0,1:0:0:0:
388,276,130201,70,0,P|388:312|372:340,1,63.75,2|0,0:0|1:0,0:0:0:0:
256,252,130654,37,0,0:0:0:0:
512,292,130761,1,0,1:0:0:0:
316,292,130868,1,0,0:0:0:0:
460,172,130975,1,0,1:0:0:0:
436,60,131082,38,0,P|405:48|368:48,1,63.75,2|2,0:0|0:0,0:0:0:0:
112,192,131535,2,0,P|142:203|180:204,1,63.75,2|0,0:0|1:0,0:0:0:0:
256,144,131988,69,0,0:0:0:0:
288,240,132095,1,0,1:0:0:0:
252,336,132202,1,0,0:0:0:0:
368,264,132309,1,0,1:0:0:0:
388,128,132421,22,0,L|380:96,3,21.25,2|2|2|2,1:2|0:0|0:0|0:0,0:0:0:0:
468,168,132635,2,0,L|476:200,3,21.25,2|2|2|2,1:2|0:0|0:0|0:0,0:0:0:0:
392,212,132849,22,0,L|384:248,3,31.8750012159348,2|2|2|2,1:2|0:0|0:0|0:0,0:0:0:0:
460,80,133063,2,0,L|468:44,3,31.8750012159348,2|2|2|2,1:2|0:0|0:0|0:0,0:0:0:0:
312,296,133278,2,0,P|452:300|464:204,1,255.000009727478,2|2,0:0|0:0,0:0:0:0:
384,152,133813,1,0,0:0:0:0:
284,180,133921,1,2,0:0:0:0:
184,168,134028,1,0,0:0:0:0:
92,116,134135,22,0,L|88:132,1,10.625,0|0,1:0|0:0,0:0:0:0:
264,216,134348,2,0,L|264:200,1,10.625,0|0,1:0|0:0,0:0:0:0:
368,32,134561,2,0,L|364:48,1,10.625,0|0,1:0|0:0,0:0:0:0:
488,300,134774,2,0,L|484:284,1,10.625,0|0,1:0|0:0,0:0:0:0:
338,251,134988,5,8,1:2:0:0:
155,192,135095,1,0,1:2:0:0:
338,132,135202,1,8,1:2:0:0:
225,288,135310,1,8,1:2:0:0:
225,95,135416,22,0,P|116:88|40:152,1,212.5,8|0,1:2|1:0,0:0:0:0:
256,192,135738,1,0,0:0:0:0:
460,132,135845,2,0,P|468:82|472:24,1,106.25,0|0,1:0|0:0,0:0:0:0:
376,216,136059,2,0,P|376:276|384:332,1,106.25,0|0,1:0|0:0,0:0:0:0:
344,100,136273,22,0,B|265:106|265:106|184:116|164:200,1,212.5,0|0,1:0|1:0,0:0:0:0:
225,288,136595,1,0,0:0:0:0:
88,152,136702,2,0,P|112:104|260:28,1,212.5,0|0,1:0|1:0,0:0:0:0:
416,48,137023,1,0,0:0:0:0:
460,212,137130,22,0,L|444:324,1,106.25,0|0,1:0|0:0,0:0:0:0:
225,288,137345,2,0,L|241:176,1,106.25,0|0,1:0|0:0,0:0:0:0:
440,240,137559,2,0,L|424:352,1,106.25,0|0,1:0|0:0,0:0:0:0:
205,316,137774,2,0,L|221:204,1,106.25,0|0,1:0|0:0,0:0:0:0:
415,126,137988,22,0,P|374:97|320:96,1,106.25,0|0,1:0|0:0,0:0:0:0:
268,233,138202,2,0,P|309:262|364:264,1,106.25,0|0,1:0|0:0,0:0:0:0:
446,135,138416,22,0,P|421:106|360:80,1,106.25,0|0,1:0|0:0,0:0:0:0:
249,235,138630,2,0,P|274:264|336:291,1,106.25,0|0,1:0|0:0,0:0:0:0:
480,144,138845,22,0,P|457:106|392:65,1,106.25,0|0,1:0|0:0,0:0:0:0:
239,222,139059,2,0,P|261:259|326:300,1,106.25,0|0,1:0|0:0,0:0:0:0:
464,40,139273,2,0,B|352:24|368:100|248:68,1,212.5,0|0,1:0|0:0,0:0:0:0:
48,340,139702,22,0,L|32:228,1,106.25,0|0,1:0|0:0,0:0:0:0:
479,234,139916,2,0,L|464:340,1,106.25,0|0,1:0|0:0,0:0:0:0:
144,312,140130,2,0,P|132:256|152:200,1,106.25,0|0,1:0|0:0,0:0:0:0:
366,210,140345,2,0,P|380:256|368:312,1,106.25,0|0,1:0|0:0,0:0:0:0:
68,148,140559,22,0,L|184:132,1,106.25,0|0,1:0|0:0,0:0:0:0:
444,148,140773,2,0,L|328:132,1,106.25,0|0,1:0|0:0,0:0:0:0:
32,72,140988,22,0,L|252:44,1,212.5,0|0,1:0|0:0,0:0:0:0:
480,312,141416,2,0,L|260:340,1,212.5,0|0,1:0|0:0,0:0:0:0:
128,216,141845,22,0,P|180:208|236:224,1,106.25,4|0,1:2|0:0,0:0:0:0:
388,172,142059,2,0,P|336:180|280:164,1,106.25,0|0,1:0|0:0,0:0:0:0:
224,36,142273,2,0,P|232:88|216:144,1,106.25,0|0,1:0|0:0,0:0:0:0:
300,352,142487,2,0,P|292:300|308:244,1,106.25,0|0,1:0|0:0,0:0:0:0:
308,92,142702,22,0,L|420:80,1,106.25,0|0,1:0|0:0,0:0:0:0:
144,140,142916,2,0,L|32:128,1,106.25,0|0,1:0|0:0,0:0:0:0:
368,236,143130,2,0,L|480:224,1,106.25,0|0,1:0|0:0,0:0:0:0:
108,304,143344,2,0,L|-4:292,1,106.25,0|0,1:0|0:0,0:0:0:0:
188,228,143559,21,0,1:0:0:0:
200,232,143613,1,0,1:0:0:0:
212,236,143666,1,0,1:0:0:0:
224,240,143720,1,0,1:0:0:0:
232,244,143773,2,0,P|276:284|276:348,1,106.25,0|0,1:0|0:0,0:0:0:0:
336,160,143988,1,0,1:0:0:0:
329,148,144042,1,0,1:0:0:0:
323,137,144095,1,0,1:0:0:0:
317,126,144149,1,0,1:0:0:0:
314,118,144202,2,0,P|309:58|352:11,1,106.25,0|0,1:0|0:0,0:0:0:0:
424,92,144416,22,0,P|428:232|376:272,1,212.5,0|0,1:0|1:0,0:0:0:0:
360,276,144702,1,0,1:0:0:0:
340,272,144773,1,0,1:0:0:0:
320,264,144845,2,0,P|264:252|208:272,1,106.25,0|0,1:0|0:0,0:0:0:0:
64,208,145059,2,0,P|120:220|176:200,1,106.25,0|0,1:0|0:0,0:0:0:0:
280,48,145273,22,0,P|330:71|373:118,1,106.25,4|0,1:2|0:0,0:0:0:0:
390,227,145487,2,0,P|366:277|319:320,1,106.25,0|0,1:0|0:0,0:0:0:0:
211,338,145701,2,0,P|160:314|117:267,1,106.25,0|0,1:0|0:0,0:0:0:0:
100,158,145915,2,0,P|123:107|170:64,1,106.25,0|0,1:0|0:0,0:0:0:0:
284,29,146130,22,0,P|341:55|389:108,1,106.25,4|0,1:2|0:0,0:0:0:0:
410,233,146344,2,0,P|383:290|330:338,1,106.25,0|0,1:0|0:0,0:0:0:0:
206,358,146558,2,0,P|148:331|100:278,1,106.25,0|0,1:0|0:0,0:0:0:0:
81,154,146772,2,0,P|107:96|160:48,1,106.25,0|0,1:0|0:0,0:0:0:0:
286,16,146987,22,0,P|347:44|399:101,1,106.25,4|0,1:2|0:0,0:0:0:0:
421,236,147201,2,0,P|393:297|336:349,1,106.25,0|0,1:0|0:0,0:0:0:0:
202,370,147415,2,0,P|140:342|88:285,1,106.25,0|0,1:0|0:0,0:0:0:0:
67,151,147629,2,0,P|95:89|152:37,1,106.25,0|0,1:0|0:0,0:0:0:0:
288,3,147845,22,0,P|354:33|410:95,1,106.25,4|0,1:2|0:0,0:0:0:0:
434,239,148059,2,0,P|403:305|342:361,1,106.25,0|0,1:0|0:0,0:0:0:0:
198,383,148273,2,0,P|131:353|76:292,1,106.25,0|0,1:0|0:0,0:0:0:0:
53,148,148487,2,0,P|84:81|145:25,1,106.25,0|0,1:0|0:0,0:0:0:0:
408,24,148702,22,0,P|456:48|484:112,1,106.25,4|0,1:2|0:0,0:0:0:0:
481,291,148916,2,0,P|456:336|408:360,1,106.25,0|0,1:0|0:0,0:0:0:0:
104,360,149130,2,0,P|56:336|30:291,1,106.25,0|0,1:0|0:0,0:0:0:0:
30,92,149344,2,0,P|56:48|104:24,1,106.25,0|0,1:0|0:0,0:0:0:0:
421,8,149559,22,0,P|474:34|504:104,1,106.25,4|0,1:2|0:0,0:0:0:0:
502,300,149773,2,0,P|474:349|421:375,1,106.25,0|0,1:0|1:0,0:0:0:0:
404,372,149934,1,0,1:0:0:0:
380,364,149987,2,0,P|328:340|276:336,1,106.25,0|0,1:0|0:0,0:0:0:0:
72,228,150202,2,0,P|124:252|176:256,1,106.25,0|0,1:0|0:0,0:0:0:0:
339,256,150416,22,0,P|388:252|440:228,1,106.25,0|0,1:0|0:0,0:0:0:0:
148,164,150630,2,0,P|96:144|52:112,1,106.25,0|0,1:0|0:0,0:0:0:0:
364,164,150845,2,0,P|416:144|460:112,1,106.25,0|0,1:0|0:0,0:0:0:0:
256,216,151059,21,4,0:0:0:0:
256,192,151121,12,0,152934,0:0:0:0:
256,192,153059,21,6,1:2:0:0:
