osu file format v14

[General]
AudioFilename: Evanescent.mp3
AudioLeadIn: 0
PreviewTime: 87946
Countdown: 0
SampleSet: Soft
StackLeniency: 0.7
Mode: 0
LetterboxInBreaks: 0
WidescreenStoryboard: 1

[Editor]
Bookmarks: 7578,17682,27788,27946,34103,35999,42946,45472,50525,52893,60630,63156,65683,70735,75788,88420,98525,108630,118735
DistanceSpacing: 1.1
BeatDivisor: 4
GridSize: 4
TimelineZoom: 4.599997

[Metadata]
Title:Evanescent
TitleUnicode:Evanescent
Artist:LeaF
ArtistUnicode:LeaF
Creator:Krah
Version:Kin's Beginner
Source:BMS
Tags:post drum n bass and drum'n'bass sengoku sen-goku sen goku optie Spectator CLSW Crystal Cherry Blossom dialgadu77 sayaka- sayaka Nozhomi Kin Secretpipe
BeatmapID:652945
BeatmapSetID:176646

[Difficulty]
HPDrainRate:2
CircleSize:3
OverallDifficulty:2
ApproachRate:3
SliderMultiplier:0.899999999999999
SliderTickRate:2

[Events]
//Background and Video events
Video,-350,"Evanescent-HD~2.avi"
0,0,"evanescent.jpg",0,0
//Break Periods
//Storyboard Layer 0 (Background)
//Storyboard Layer 1 (Fail)
//Storyboard Layer 2 (Pass)
//Storyboard Layer 3 (Foreground)
//Storyboard Sound Samples

[TimingPoints]
2525,315.789473684211,4,2,10,5,1,0
7577,-100,4,2,10,60,0,0
8525,-100,4,2,5,60,0,0
8840,-100,4,2,10,60,0,0
11209,-100,4,2,5,60,0,0
11446,-100,4,2,10,60,0,0
21314,-100,4,2,5,60,0,0
21551,-100,4,2,10,60,0,0
41525,-100,4,2,5,60,0,0
41840,-100,4,2,10,60,0,0
50525,-100,4,2,11,70,0,0
60314,-100,4,2,10,80,0,0
69314,-100,4,2,5,60,0,0
69630,-100,4,2,10,60,0,0
70735,-100,4,2,10,60,0,0
74840,-100,4,2,11,60,0,0
75788,-100,4,2,10,60,0,0
87946,-100,4,2,1,60,0,0
88419,-100,4,2,10,70,0,1
89367,-100,4,2,5,70,0,1
89682,-100,4,2,10,70,0,1
92051,-100,4,2,5,70,0,1
92367,-100,4,2,10,70,0,1
102156,-100,4,3,5,70,0,1
102393,-100,4,2,10,70,0,1
108630,-100,4,2,10,70,0,0
110840,-100,4,2,5,70,0,0
111156,-100,4,2,10,70,0,1
112261,-100,4,2,5,70,0,1
112498,-100,4,2,10,70,0,1
118735,-100,4,2,10,70,0,0
119998,-100,4,2,10,50,0,0
121261,-100,4,2,10,30,0,0
122525,-100,4,2,10,10,0,0
124972,-100,4,3,5,5,0,0

[Colours]
Combo1 : 231,224,99
Combo2 : 82,85,199
Combo3 : 226,125,65
Combo4 : 129,66,132
Combo5 : 84,208,81

[HitObjects]
168,52,7577,5,2,0:0:0:0:
256,92,7893,2,0,P|328:104|404:88,2,135,8|8|2,0:0|0:0|0:0,0:0:0:0:
172,148,9156,2,0,B|164:192|164:192|168:240,1,89.9999999999999,8|2,0:0|0:0,0:0:0:0:
216,324,9788,1,8,0:0:0:0:
288,256,10103,5,2,0:0:0:0:
288,256,10419,2,0,B|320:224|320:224|365:217|365:217|396:184,2,135,8|8|2,0:0|0:0|0:0,0:0:0:0:
216,324,11682,2,0,P|140:352|56:288,1,180,8|0,0:0|0:0,0:0:0:0:
148,252,12630,5,6,0:0:0:0:
192,164,12946,2,0,B|184:76|184:76|200:16,2,135,8|8|2,0:0|0:0|0:0,0:0:0:0:
244,248,14209,1,8,0:0:0:0:
340,264,14525,2,0,P|388:252|420:220,1,89.9999999999999,2|8,0:0|0:0,0:0:0:0:
448,132,15156,5,2,0:0:0:0:
356,96,15472,2,0,P|396:44|464:32,2,135,8|8|6,0:0|0:0|0:0,0:0:0:0:
328,192,16735,2,0,B|314:235|314:235|229:265|229:265|216:312,1,180,8|6,0:0|0:0,0:0:0:0:
148,380,17682,1,0,0:0:0:0:
128,284,17998,2,0,B|152:196|152:196|152:144,2,135,8|8|2,0:0|0:0|0:0,0:0:0:0:
52,348,19261,6,0,B|12:312|28:252|28:252|52:172,1,180,0|8,0:0|0:0,0:0:0:0:
84,88,20209,1,2,0:0:0:0:
168,140,20525,2,0,P|236:160|308:128,2,135,0|8|2,0:0|0:0|0:0,0:0:0:0:
232,64,21788,2,0,L|224:248,1,180,8|0,0:0|0:0,0:0:0:0:
160,320,22735,5,2,0:0:0:0:
84,256,23051,2,0,P|60:200|96:124,2,135,8|8|2,0:0|0:0|0:0,0:0:0:0:
164,196,24314,2,0,B|208:184|208:184|296:200|296:200|344:188,1,180,8|8,0:0|1:2,0:0:0:0:
436,204,25261,6,0,P|452:276|432:340,2,135,2|2|8,0:0|0:0|0:0,0:0:0:0:
396,112,26525,2,0,B|372:73|372:73|333:52|333:52|312:9,2,135,6|6|6,0:0|0:0|0:0,0:0:0:0:
344,196,27788,6,0,P|248:240|168:116,1,270
264,140,29051,2,0,B|253:161|253:161|238:175|238:175|227:197|227:197|212:211|212:211|201:232|201:232|185:248|185:248|175:268|175:268|159:283|159:283|149:304|149:304|133:319|133:319|123:340|123:340|106:356,1,270
28,296,30314,2,0,B|0:248|0:152|56:72|148:72|216:76|216:76|232:60|232:60|256:60|256:60|292:32|344:32|384:48|384:48|384:104|432:136,1,629.999999999999
488,52,32840,6,0,P|380:60|368:208,1,270
428,272,34103,2,0,B|406:281|406:281|385:282|385:282|363:293|363:293|342:294|342:294|321:303|321:303|298:306|298:306|278:315|278:315|256:317|256:317|235:327|235:327|213:328|213:328|192:338|192:338|169:340,1,270
76,312,35367,2,0,P|40:224|124:140,1,225,0|6,0:0|0:0,0:0:0:0:
256,208,36630,6,0,P|344:232|428:212,1,180,6|8,0:0|0:0,0:0:0:0:
348,32,37893,5,6,0:0:0:0:
280,104,38209,2,0,B|192:88|192:88|140:92,2,135,8|8|2,0:0|0:0|0:0,0:0:0:0:
376,124,39472,1,8,0:0:0:0:
428,208,39788,2,0,P|432:252|424:304,1,89.9999999999999,2|8,0:0|0:0,0:0:0:0:
352,360,40419,5,2,0:0:0:0:
276,296,40735,2,0,P|216:312|144:296,2,135,8|8|2,0:0|0:0|0:0,0:0:0:0:
368,260,41998,2,0,B|376:216|376:216|372:160,1,89.9999999999999,8|2,0:0|0:0,0:0:0:0:
360,72,42630,1,0,0:0:0:0:
360,72,42946,5,2,0:0:0:0:
284,132,43261,2,0,P|224:140|136:124,2,135,8|8|2,0:0|0:0|0:0,0:0:0:0:
372,170,44525,2,0,B|376:216|376:216|368:260,1,89.9999999999999,8|2,0:0|0:0,0:0:0:0:
328,352,45156,1,0,0:0:0:0:
256,284,45472,5,6,0:0:0:0:
184,352,45788,2,0,P|156:272|220:192,1,180,8|8,0:0|0:0,0:0:0:0:
304,188,46735,2,0,B|325:198|342:212|342:212|364:210|388:213,1,89.9999999999999,0|8,0:0|0:0,0:0:0:0:
416,120,47367,2,0,B|394:109|377:95|377:95|355:97|331:94,1,89.9999999999999,6|8,0:0|0:0,0:0:0:0:
236,116,47998,2,0,B|192:120|192:120|156:148|156:148|108:152,1,135,6|2,0:0|0:0,0:0:0:0:
256,296,50209,5,8,1:2:0:0:
255,296,50525,2,0,P|344:312|432:298,1,180,2|8,0:0|0:0,0:0:0:0:
432,100,51788,2,0,P|344:84|248:100,1,180,2|8,0:0|0:0,0:0:0:0:
172,152,52735,2,0,B|168:172|168:172|172:192|172:192|168:212|168:212|172:232|172:232|168:252,1,89.9999999999999,2|8,0:0|0:0,0:0:0:0:
224,324,53367,6,0,P|305:287|392:302,1,180,0|8,0:0|0:0,0:0:0:0:
488,272,54314,2,0,P|512:192|492:96,1,180,8|8,0:0|0:0,0:0:0:0:
300,48,55577,6,0,P|256:56|212:48,1,89.9999999999999,2|8,0:0|0:0,0:0:0:0:
136,112,56209,2,0,P|108:184|156:268,1,180,0|2,0:0|0:0,0:0:0:0:
356,267,57472,2,0,P|403:194|376:112,1,180,8|8,0:0|0:0,0:0:0:0:
288,68,58419,6,0,P|244:76|192:68,1,89.9999999999999,2|8,0:0|0:0,0:0:0:0:
104,36,59051,2,0,B|100:52|100:52|104:68|104:68|100:84|100:84|104:100|104:100|100:116|100:116|104:132,1,89.9999999999999,2|8,0:0|0:0,0:0:0:0:
130,218,59682,2,0,B|170:247|174:294|174:294|183:300|183:300|186:310|186:310|222:298|266:302,1,180,8|8,0:0|0:0,0:0:0:0:
348,336,60630,1,0,0:0:0:0:
356,308,62525,6,0,L|364:204,1,89.9999999999999,2|0,0:0|0:0,0:0:0:0:
380,120,63156,2,0,P|444:136|512:120,2,135,2|2|8,0:0|0:0|0:0,0:0:0:0:
292,72,64419,2,0,B|248:76|248:76|200:68,1,89.9999999999999,2|8,0:0|0:0,0:0:0:0:
48,192,65367,5,8,0:0:0:0:
64,288,65682,1,0,0:0:0:0:
140,224,65998,2,0,P|208:212|284:228,2,135,8|8|2,0:0|0:0|0:0,0:0:0:0:
64,288,67261,6,0,P|44:248|44:200,1,89.9999999999999,8|2,0:0|0:0,0:0:0:0:
56,104,67893,2,0,P|100:100|148:80,1,89.9999999999999,8|2,0:0|0:0,0:0:0:0:
232,48,68525,2,0,B|260:47|290:58|310:88|310:88|336:80|365:88,2,135,8|8|2,0:0|0:0|0:0,0:0:0:0:
232,148,69788,2,0,P|208:236|128:264,1,180,8|0,0:0|0:0,0:0:0:0:
132,164,70735,6,0,P|156:76|236:48,1,180,2|2,0:0|0:0,0:0:0:0:
388,172,71998,2,0,P|364:260|284:288,1,180,2|2,0:0|0:0,0:0:0:0:
256,192,73261,12,6,74525,0:0:0:0:
328,136,75788,6,0,L|480:124,2,135,6|6|6,0:0|0:0|0:0,0:0:0:0:
188,84,77209,2,0,P|180:156|208:220,1,135,6|6,0:0|0:0,0:0:0:0:
272,284,77998,2,0,B|360:272|360:272|416:288,2,135,6|6|6,0:0|0:0|0:0,0:0:0:0:
76,252,79577,6,0,P|40:172|88:96,1,180,6|6,0:0|0:0,0:0:0:0:
172,56,80525,1,6,0:0:0:0:
256,112,80840,2,0,B|300:104|300:104|388:124|388:124|432:116,1,180,6|6,0:0|0:0,0:0:0:0:
432,316,82103,6,0,B|388:308|388:308|300:328|300:328|212:312,1,225,6|6,0:0|0:0,0:0:0:0:
72,256,83367,2,0,P|36:172|80:84,1,180,6|6,0:0|0:0,0:0:0:0:
256,192,84630,12,0,87156,0:0:0:0:
200,120,88419,5,2,0:0:0:0:
300,128,88735,2,0,L|448:136,2,135,8|8|2,0:0|0:0|0:0,0:0:0:0:
240,208,89998,2,0,P|232:292|308:352,1,180,8|8,0:0|0:0,0:0:0:0:
328,256,90946,1,2,0:0:0:0:
420,224,91261,2,0,P|428:160|412:80,2,135,8|8|2,0:0|0:0|0:0,0:0:0:0:
396,320,92525,6,0,P|320:300|216:320,1,180,8|0,0:0|0:0,0:0:0:0:
140,372,93472,1,0,0:0:0:0:
80,296,93788,2,0,P|60:260|76:168,2,135,8|8|2,0:0|0:0|0:0,0:0:0:0:
152,228,95051,2,0,B|196:216|196:216|240:224|240:224|276:204|336:208,1,180,0|8,0:0|0:0,0:0:0:0:
416,252,95998,5,2,0:0:0:0:
484,180,96314,2,0,P|508:124|480:44,2,135,8|8|6,0:0|0:0|0:0,0:0:0:0:
408,116,97577,2,0,B|364:120|364:120|276:100|276:100|224:104,1,180,8|6,0:0|0:0,0:0:0:0:
132,116,98525,1,6,0:0:0:0:
68,192,98840,2,0,P|36:148|44:64,2,135,8|8|2,0:0|0:0|0:0,0:0:0:0:
160,232,100103,6,0,B|184:232|204:228|204:228|224:240|248:240|248:240|272:228|316:228|344:244,1,180,0|8,0:0|0:0,0:0:0:0:
400,316,101051,1,2,0:0:0:0:
432,224,101367,2,0,B|448:136|448:136|440:80,2,135,0|8|2,0:0|0:0|0:0,0:0:0:0:
335,239,102630,2,0,B|291:232|291:232|248:251|202:240|202:240|156:264,1,180,8|0,0:0|0:0,0:0:0:0:
80,316,103577,5,2,0:0:0:0:
72,216,103893,2,0,P|48:160|68:80,2,135,8|8|2,0:0|0:0|0:0,0:0:0:0:
164,260,105156,6,0,B|208:252|208:252|248:272|248:272|288:256|336:260,1,180,8|8,0:0|1:2,0:0:0:0:
432,280,106103,1,0,0:0:0:0:
484,196,106419,2,0,P|500:136|460:60,2,135,8|8|6,0:0|0:0|0:0,0:0:0:0:
400,140,107682,2,0,B|356:144|356:144|268:120|268:120|220:124,1,180,0|2,0:0|0:0,0:0:0:0:
124,136,108630,6,0,P|68:176|168:304,1,270,6|8,0:0|0:0,0:0:0:0:
256,192,109893,12,6,111156,0:0:0:0:
100,112,112419,6,0,P|156:132|240:116,1,135,2|2,0:0|0:0,0:0:0:0:
308,60,113209,2,0,L|316:204,1,135,10|2,0:0|0:0,0:0:0:0:
352,288,113998,2,0,P|420:304|488:288,2,135,8|8|2,0:0|0:0|0:0,0:0:0:0:
256,272,115261,2,0,B|212:284|212:284|168:284|168:284|128:308|80:296,1,180,8|8,0:0|1:2,0:0:0:0:
112,200,116209,5,2,0:0:0:0:
180,128,116525,2,0,P|136:104|52:120,2,135,0|8|0,0:0|0:0|0:0,0:0:0:0:
232,212,117788,2,0,B|276:208|276:208|360:240|360:240|412:236,1,180,12|6,0:0|0:0,0:0:0:0:
256,192,118735,12,2,124972,0:0:0:0:
