osu file format v14

[General]
AudioFilename: Evanescent.mp3
AudioLeadIn: 0
PreviewTime: 87946
Countdown: 0
SampleSet: Soft
StackLeniency: 0.7
Mode: 2
LetterboxInBreaks: 0
WidescreenStoryboard: 1

[Editor]
Bookmarks: 7578,27788,35999,43104,44051,48630,50525,60630,65683,70735,75788,87472,88420,94735,104209,108630,118735
DistanceSpacing: 2
BeatDivisor: 4
GridSize: 16
TimelineZoom: 2.3

[Metadata]
Title:Evanescent
TitleUnicode:Evanescent
Artist:LeaF
ArtistUnicode:LeaF
Creator:Krah
Version:Crystal's Deluge
Source:BMS
Tags:post drum n bass and drum'n'bass sengoku sen-goku sen goku optie Spectator CLSW Crystal Cherry Blossom dialgadu77 sayaka- sayaka Nozhomi Kin Secretpipe
BeatmapID:427249
BeatmapSetID:176646

[Difficulty]
HPDrainRate:7
CircleSize:4
OverallDifficulty:9.6
ApproachRate:9.6
SliderMultiplier:2.2
SliderTickRate:2

[Events]
//Background and Video events
Video,-350,"Evanescent-HD~2.avi"
0,0,"evanescent.jpg",0,0
//Break Periods
//Storyboard Layer 0 (Background)
//Storyboard Layer 1 (Fail)
//Storyboard Layer 2 (Pass)
//Storyboard Layer 3 (Foreground)
//Storyboard Sound Samples

[TimingPoints]
2525,315.789473684211,4,2,5,20,1,0
2840,-100,4,2,5,23,0,0
3156,-100,4,2,5,26,0,0
3472,-100,4,2,5,29,0,0
3788,-100,4,2,5,32,0,0
4103,-100,4,2,5,35,0,0
4419,-100,4,2,5,38,0,0
4735,-100,4,2,5,41,0,0
5051,-100,4,2,5,44,0,0
5367,-100,4,2,5,47,0,0
5682,-100,4,2,5,50,0,0
5998,-100,4,2,5,53,0,0
6314,-100,4,2,5,56,0,0
6630,-100,4,2,5,5,0,0
6788,-100,4,2,5,59,0,0
6946,-100,4,2,5,62,0,0
7261,-100,4,2,5,65,0,0
7577,-100,4,2,5,70,0,0
11209,-100,4,3,5,70,0,0
11525,-100,4,2,5,70,0,0
12314,-50,4,2,5,70,0,0
12630,-100,4,2,5,70,0,0
14841,-66.6666666666667,4,2,5,70,0,0
14999,-100,4,2,5,70,0,0
21314,-100,4,3,5,70,0,0
21393,-100,4,2,5,70,0,0
22419,-50,4,2,5,70,0,0
22735,-100,4,2,5,70,0,0
23999,-100,4,2,5,70,0,0
30235,-100,4,2,5,5,0,0
30314,-100,4,2,5,70,0,0
30354,-100,4,2,5,5,0,0
30630,-100,4,2,5,70,0,0
30670,-100,4,2,5,5,0,0
30946,-100,4,2,5,70,0,0
30985,-100,4,2,5,5,0,0
31262,-100,4,2,5,70,0,0
31301,-100,4,2,5,5,0,0
31578,-100,4,2,5,70,0,0
32051,-100,4,2,5,5,0,0
32209,-50,4,2,5,70,0,0
32367,-50,4,2,5,5,0,0
32840,-100,4,2,5,5,0,0
32841,-100,4,2,5,70,0,0
32880,-100,4,2,5,5,0,0
33156,-100,4,2,5,70,0,0
33196,-100,4,2,5,5,0,0
33472,-100,4,2,5,70,0,0
33512,-100,4,2,5,5,0,0
33788,-100,4,2,5,70,0,0
33828,-100,4,2,5,5,0,0
34104,-100,4,2,5,70,0,0
35446,-100,4,2,5,5,0,0
36156,-100,4,2,5,70,0,0
39156,-83.3333333333333,4,2,5,70,0,0
41525,-83.3333333333333,4,3,5,70,0,0
41683,-83.3333333333333,4,2,5,70,0,0
42630,-50,4,2,5,70,0,0
42946,-83.3333333333333,4,2,5,70,0,0
43893,-66.6666666666667,4,2,5,70,0,0
44209,-83.3333333333333,4,2,5,70,0,0
45156,-66.6666666666667,4,2,5,70,0,0
45472,-83.3333333333333,4,2,5,70,0,0
50209,-50,4,2,5,70,0,0
50525,-83.3333333333333,4,1,5,40,0,0
55578,-83.3333333333333,4,2,5,70,0,0
55893,-83.3333333333333,4,1,5,40,0,0
57788,-83.3333333333333,4,1,5,5,0,0
58104,-83.3333333333333,4,1,5,40,0,0
60630,-100,4,2,5,40,0,0
63630,-100,4,1,5,40,0,0
63709,-100,4,2,5,40,0,0
69314,-100,4,3,5,60,0,0
69630,-100,4,2,5,40,0,0
70420,-50,4,2,5,70,0,0
70735,-100,4,3,5,70,0,0
70893,-100,4,2,5,50,0,0
71051,-100,4,3,5,70,0,0
71209,-100,4,2,5,50,0,0
71367,-100,4,3,5,70,0,0
71525,-100,4,2,5,50,0,0
71683,-100,4,3,5,70,0,0
71841,-100,4,2,5,50,0,0
71999,-100,4,3,5,70,0,0
72156,-100,4,2,5,50,0,0
72314,-100,4,3,5,70,0,0
72472,-100,4,2,5,50,0,0
72630,-100,4,3,5,70,0,0
72788,-100,4,2,5,50,0,0
72946,-100,4,3,5,70,0,0
73104,-100,4,2,5,50,0,0
73262,-100,4,3,5,70,0,0
74525,-100,4,1,5,60,0,0
74630,-100,4,2,5,60,0,0
75788,-100,4,1,5,60,0,0
83998,-66.6666666666667,4,1,5,60,0,0
83999,-66.6666666666667,4,1,5,70,0,0
84630,-83.3333333333333,4,1,5,70,0,0
85656,-83.3333333333333,4,2,5,70,0,0
86209,-100,4,2,5,70,0,0
88420,-100,4,2,5,70,0,1
93156,-50,4,2,5,70,0,1
94735,-100,4,2,5,70,0,1
97104,-100,4,3,5,70,0,1
97262,-100,4,2,5,70,0,1
103261,-50,4,2,5,70,0,1
103578,-100,4,2,5,70,0,1
108630,-100,4,2,5,70,0,0
110367,-66.6666666666667,4,2,5,70,0,0
110525,-100,4,2,5,70,0,0
111156,-83.3333333333333,4,2,5,70,0,1
118735,-133.333333333333,4,2,5,70,0,0
124735,-133.333333333333,4,2,5,10,0,0
124893,-133.333333333333,4,2,5,70,0,0

[Colours]
Combo1 : 231,224,99
Combo2 : 82,85,199
Combo3 : 226,125,65
Combo4 : 129,66,132
Combo5 : 84,208,81

[HitObjects]
256,192,2525,12,0,6630,0:0:0:0:
256,80,6788,6,0,L|336:80,1,55
80,80,6946,2,0,L|0:80,1,55
432,80,7103,2,0,L|512:80,1,55
256,112,7261,2,0,L|176:112,1,55,0|0,0:0|0:0,0:0:0:0:
432,128,7419,2,0,L|496:128,1,55,0|0,0:0|0:0,0:0:0:0:
160,112,7577,5,8,0:0:0:0:
105,112,7655,1,0,0:0:0:0:
50,112,7734,1,0,0:0:0:0:
384,64,7893,1,2,0:0:0:0:
272,64,8051,1,8,0:0:0:0:
217,64,8129,1,0,0:0:0:0:
162,64,8208,1,0,0:0:0:0:
384,64,8367,2,0,P|448:96|304:192,1,330,0|8,0:0|0:0,0:0:0:0:
376,208,8919,5,0,0:0:0:0:
431,208,8998,1,2,0:0:0:0:
144,208,9156,1,2,0:0:0:0:
256,160,9314,1,6,0:0:0:0:
311,160,9392,1,0,0:0:0:0:
144,160,9472,2,0,P|80:160|128:128,1,165,8|0,0:0|0:0,0:0:0:0:
192,96,9788,2,0,L|48:96,1,110,8|0,0:0|0:0,0:0:0:0:
320,96,10103,5,10,0:0:0:0:
265,96,10181,1,0,0:0:0:0:
210,96,10260,1,0,0:0:0:0:
368,48,10419,1,0,0:0:0:0:
105,96,10577,1,10,0:0:0:0:
160,96,10655,1,0,0:0:0:0:
215,96,10734,1,0,0:0:0:0:
64,48,10893,2,0,P|128:112|48:208,1,220,0|2,0:0|0:0,0:0:0:0:
112,208,11288,1,0,0:0:0:0:
272,208,11367,6,0,L|256:144,1,55,2|0,0:0|0:0,0:0:0:0:
192,160,11525,2,0,L|176:96,1,55,0|0,0:0|0:0,0:0:0:0:
336,144,11682,2,0,L|352:80,1,55,0|0,0:0|0:0,0:0:0:0:
192,176,11840,2,0,L|176:112,1,55
112,128,11998,2,0,L|96:64,1,55
400,128,12156,2,0,L|416:64,1,55
224,80,12314,2,0,L|-32:80,1,220,6|0,0:0|0:0,0:0:0:0:
288,80,12630,5,8,0:0:0:0:
343,80,12708,1,0,0:0:0:0:
398,80,12787,1,2,0:0:0:0:
176,80,12946,1,8,0:0:0:0:
288,208,13103,1,8,0:0:0:0:
233,208,13181,1,0,0:0:0:0:
178,208,13260,1,0,0:0:0:0:
400,208,13419,1,8,0:0:0:0:
176,144,13577,2,0,L|192:208,1,55,2|0,0:0|0:0,0:0:0:0:
480,160,13735,2,0,L|464:224,1,55,2|0,0:0|0:0,0:0:0:0:
176,224,13893,5,8,0:0:0:0:
121,224,13971,1,0,0:0:0:0:
66,224,14050,1,2,0:0:0:0:
400,224,14209,1,2,0:0:0:0:
288,272,14367,1,8,0:0:0:0:
233,272,14445,1,0,0:0:0:0:
176,272,14525,2,0,L|352:272,1,165,8|0,0:0|0:0,0:0:0:0:
176,208,14840,2,0,P|128:176|176:128,1,110,0|0,0:0|0:0,0:0:0:0:
384,112,15156,5,8,0:0:0:0:
329,112,15234,1,0,0:0:0:0:
274,112,15313,1,2,0:0:0:0:
416,64,15472,1,8,0:0:0:0:
272,176,15630,1,8,0:0:0:0:
217,176,15708,1,0,0:0:0:0:
162,176,15787,1,2,0:0:0:0:
320,128,15946,2,0,L|80:128,1,220,8|2,0:0|0:0,0:0:0:0:
80,160,16340,1,2,0:0:0:0:
336,160,16419,6,0,L|368:80,1,55,8|0,0:0|0:0,0:0:0:0:
176,144,16577,2,0,L|144:64,1,55,8|0,0:0|0:0,0:0:0:0:
336,64,16735,1,8,0:0:0:0:
416,288,16893,2,0,L|448:208,1,55,8|0,0:0|0:0,0:0:0:0:
96,288,17051,2,0,L|64:208,1,55,8|0,0:0|0:0,0:0:0:0:
416,192,17209,1,8,0:0:0:0:
304,192,17367,2,0,P|224:160|240:80,1,165,4|0,0:0|0:0,0:0:0:0:
304,80,17682,5,8,0:0:0:0:
249,80,17760,1,0,0:0:0:0:
194,80,17839,1,0,0:0:0:0:
48,80,17998,1,10,0:0:0:0:
391,128,18156,1,2,0:0:0:0:
336,128,18234,1,0,0:0:0:0:
281,128,18313,1,8,0:0:0:0:
432,80,18472,1,8,0:0:0:0:
192,112,18630,2,0,P|208:192|352:176,1,220,2|2,0:0|0:0,0:0:0:0:
272,224,19025,5,2,0:0:0:0:
224,240,19103,1,2,0:0:0:0:
384,240,19261,1,2,0:0:0:0:
112,240,19419,1,8,0:0:0:0:
167,240,19497,1,0,0:0:0:0:
222,240,19576,1,0,0:0:0:0:
64,192,19735,1,0,0:0:0:0:
336,144,19893,2,0,L|448:144,1,110,2|0,0:0|0:0,0:0:0:0:
176,96,20209,6,0,L|112:96,2,55,8|0|2,0:0|0:0|0:0,0:0:0:0:
336,64,20525,1,8,0:0:0:0:
176,64,20682,2,0,L|112:64,2,55,0|0|0,0:0|0:0|0:0,0:0:0:0:
416,96,20998,1,0,0:0:0:0:
256,112,21156,2,0,L|352:208,1,110,2|2,0:0|0:0,0:0:0:0:
384,192,21393,1,0,0:0:0:0:
480,224,21472,5,0,0:0:0:0:
416,224,21551,1,0,0:0:0:0:
192,224,21630,1,0,0:0:0:0:
248,224,21709,1,0,0:0:0:0:
312,224,21788,1,0,0:0:0:0:
32,160,21946,1,0,0:0:0:0:
96,160,22025,1,0,0:0:0:0:
320,160,22104,1,0,0:0:0:0:
264,160,22183,1,0,0:0:0:0:
200,160,22262,1,0,0:0:0:0:
480,80,22419,2,0,L|240:80,1,220,4|2,0:0|0:0,0:0:0:0:
32,48,22735,5,8,0:0:0:0:
87,48,22813,1,0,0:0:0:0:
142,48,22892,1,0,0:0:0:0:
304,48,23051,1,0,0:0:0:0:
146,112,23209,1,8,0:0:0:0:
201,112,23287,1,0,0:0:0:0:
256,112,23366,1,0,0:0:0:0:
418,112,23525,1,0,0:0:0:0:
144,160,23682,2,0,L|128:224,1,55,0|0,0:0|0:0,0:0:0:0:
384,160,23840,2,0,L|368:224,1,55
144,224,23998,5,8,0:0:0:0:
89,224,24076,1,0,0:0:0:0:
34,224,24155,1,2,0:0:0:0:
256,224,24314,1,8,0:0:0:0:
144,288,24472,1,0,0:0:0:0:
199,288,24550,1,0,0:0:0:0:
254,288,24629,1,8,0:0:0:0:
32,288,24788,1,2,0:0:0:0:
368,288,24946,2,0,L|240:288,1,110,8|0,0:0|0:0,0:0:0:0:
480,176,25261,6,0,L|400:176,1,55,8|0,0:0|0:0,0:0:0:0:
368,128,25419,2,0,L|304:128,1,55,2|0,0:0|0:0,0:0:0:0:
480,80,25577,1,8,0:0:0:0:
368,128,25735,2,0,L|288:128,1,55,8|0,0:0|0:0,0:0:0:0:
256,80,25893,2,0,L|192:80,1,55,2|0,0:0|0:0,0:0:0:0:
368,32,26051,1,8,0:0:0:0:
256,32,26209,2,0,L|368:32,1,110,0|0,0:0|0:0,0:0:0:0:
384,64,26446,1,0,0:0:0:0:
32,80,26525,6,0,L|64:128,1,55,0|0,0:0|0:0,0:0:0:0:
208,128,26682,2,0,L|176:176,1,55
96,176,26840,1,0,0:0:0:0:
384,192,26998,2,0,L|416:240,1,55
128,240,27156,2,0,L|96:192,1,55
312,240,27313,1,0,0:0:0:0:
200,176,27472,2,0,L|328:176,1,110,2|0,0:0|0:0,0:0:0:0:
32,176,27788,6,0,P|96:256|416:224,2,440,8|0|0,0:0|0:0|0:0,0:0:0:0:
48,128,29130,5,0,0:0:0:0:
128,128,29209,1,0,0:0:0:0:
144,176,29288,1,0,0:0:0:0:
224,176,29367,1,0,0:0:0:0:
240,128,29446,1,0,0:0:0:0:
320,128,29525,1,0,0:0:0:0:
336,176,29603,1,0,0:0:0:0:
416,176,29682,1,0,0:0:0:0:
432,128,29761,1,0,0:0:0:0:
64,176,29840,1,0,0:0:0:0:
48,128,29919,1,0,0:0:0:0:
416,96,29998,2,0,L|432:272,1,165,0|0,0:0|0:0,0:0:0:0:
48,208,30314,6,0,L|32:256,7,27.5,0|0|0|0|0|0|0|0,0:0|0:0|0:0|0:0|0:0|0:0|0:0|0:0,0:0:0:0:
96,240,30630,2,0,L|112:288,7,27.5,0|0|0|0|0|0|0|0,0:0|0:0|0:0|0:0|0:0|0:0|0:0|0:0,0:0:0:0:
160,272,30946,6,0,L|144:320,7,27.5,0|0|0|0|0|0|0|0,0:0|0:0|0:0|0:0|0:0|0:0|0:0|0:0,0:0:0:0:
208,304,31261,2,0,L|224:352,7,27.5,0|0|0|0|0|0|0|0,0:0|0:0|0:0|0:0|0:0|0:0|0:0|0:0,0:0:0:0:
272,336,31577,6,0,L|288:272,1,55,0|0,0:0|0:0,0:0:0:0:
192,272,31735,2,0,L|208:208,1,55,0|0,0:0|0:0,0:0:0:0:
304,192,31893,2,0,L|512:192,1,192.5,0|0,0:0|0:0,0:0:0:0:
496,160,32209,2,0,L|224:160,2,220,0|0|0,0:0|0:0|0:0,0:0:0:0:
464,208,32840,6,0,L|480:256,7,27.5,0|0|0|0|0|0|0|0,0:0|0:0|0:0|0:0|0:0|0:0|0:0|0:0,0:0:0:0:
416,240,33156,2,0,L|400:288,7,27.5,0|0|0|0|0|0|0|0,0:0|0:0|0:0|0:0|0:0|0:0|0:0|0:0,0:0:0:0:
352,272,33472,6,0,L|368:320,7,27.5,0|0|0|0|0|0|0|0,0:0|0:0|0:0|0:0|0:0|0:0|0:0|0:0,0:0:0:0:
304,304,33787,2,0,L|288:352,7,27.5,0|0|0|0|0|0|0|0,0:0|0:0|0:0|0:0|0:0|0:0|0:0|0:0,0:0:0:0:
240,336,34103,6,0,L|224:272,1,55,0|0,0:0|0:0,0:0:0:0:
384,272,34261,2,0,L|368:208,1,55,0|0,0:0|0:0,0:0:0:0:
304,224,34419,2,0,L|288:160,1,55,0|0,0:0|0:0,0:0:0:0:
448,160,34577,2,0,L|432:96,1,55,0|0,0:0|0:0,0:0:0:0:
272,96,34735,2,0,L|192:96,1,55,0|0,0:0|0:0,0:0:0:0:
128,96,34893,2,0,L|64:96,1,55,0|0,0:0|0:0,0:0:0:0:
272,48,35051,1,0,0:0:0:0:
48,208,35367,6,0,L|32:256,14,27.5,0|0|0|0|0|0|0|0|0|0|0|0|0|0|0,0:0|0:0|0:0|0:0|0:0|0:0|0:0|0:0|0:0|0:0|0:0|0:0|0:0|0:0|0:0,0:0:0:0:
256,160,36156,6,0,L|384:160,2,110,8|0|2,0:0|0:0|0:0,0:0:0:0:
480,144,36630,1,8,0:0:0:0:
320,128,36788,1,0,0:0:0:0:
480,96,36946,1,2,0:0:0:0:
320,80,37103,1,8,0:0:0:0:
32,96,37261,5,8,0:0:0:0:
176,64,37419,1,0,0:0:0:0:
173,91,37458,1,0,0:0:0:0:
161,115,37497,1,0,0:0:0:0:
141,134,37537,1,0,0:0:0:0:
115,143,37576,1,0,0:0:0:0:
88,142,37616,1,0,0:0:0:0:
63,131,37655,1,0,0:0:0:0:
44,112,37695,1,0,0:0:0:0:
33,87,37734,1,0,0:0:0:0:
496,160,37893,6,0,L|416:160,1,55,8|0,0:0|0:0,0:0:0:0:
304,160,38051,2,0,L|240:160,1,55,2|2,0:0|0:0,0:0:0:0:
400,192,38209,1,8,0:0:0:0:
272,192,38367,2,0,L|208:192,1,55,8|0,0:0|0:0,0:0:0:0:
80,192,38525,2,0,L|16:192,1,55,2|2,0:0|0:0,0:0:0:0:
176,240,38682,1,8,0:0:0:0:
32,272,38840,2,0,L|144:272,1,110
32,176,39156,6,0,L|48:112,1,65.9999979858399
336,112,39314,2,0,L|320:176,1,65.9999979858399
176,112,39472,1,8,0:0:0:0:
320,112,39630,2,0,L|336:176,1,65.9999979858399
192,176,39788,2,0,L|176:112,1,65.9999979858399,8|0,0:0|0:0,0:0:0:0:
480,112,39945,1,2,0:0:0:0:
192,224,40103,2,0,L|176:176,6,32.99999899292,2|0|0|0|0|0|0,0:0|0:0|0:0|0:0|0:0|0:0|0:0,0:0:0:0:
352,128,40419,6,0,L|272:128,1,65.9999979858399,8|0,0:0|0:0,0:0:0:0:
144,128,40577,2,0,L|176:64,1,65.9999979858399,2|2,0:0|0:0,0:0:0:0:
320,64,40735,1,8,0:0:0:0:
208,128,40893,2,0,L|128:128,1,65.9999979858399,2|0,0:0|0:0,0:0:0:0:
0,128,41051,2,0,L|32:64,1,65.9999979858399,10|0,0:0|0:0,0:0:0:0:
176,64,41209,1,8,0:0:0:0:
112,96,41367,1,8,0:0:0:0:
240,96,41525,1,2,0:0:0:0:
0,160,41682,6,0,L|48:256,1,65.9999979858399,0|0,0:0|0:0,0:0:0:0:
256,224,41840,2,0,L|208:320,1,65.9999979858399,2|0,0:0|0:0,0:0:0:0:
144,288,41998,1,8,0:0:0:0:
432,288,42156,2,0,L|512:288,1,65.9999979858399,2|0,0:0|0:0,0:0:0:0:
352,240,42314,2,0,L|112:240,1,230.99999295044,8|0,0:0|0:0,0:0:0:0:
136,176,42630,2,0,L|408:176,1,220,2|0,0:0|0:0,0:0:0:0:
136,128,42946,6,0,L|56:128,1,65.9999979858399,8|0,0:0|0:0,0:0:0:0:
376,128,43103,2,0,L|456:128,1,65.9999979858399,2|0,0:0|0:0,0:0:0:0:
136,96,43261,1,8,0:0:0:0:
256,64,43419,2,0,L|336:64,1,65.9999979858399,8|0,0:0|0:0,0:0:0:0:
480,64,43577,2,0,L|464:128,1,65.9999979858399,2|0,0:0|0:0,0:0:0:0:
304,128,43735,1,8,0:0:0:0:
416,192,43893,2,0,L|336:152,1,82.5000031471254
176,192,44051,2,0,L|96:160,1,82.5000031471254
416,240,44209,6,0,L|432:304,1,65.9999979858399,0|0,0:0|0:0,0:0:0:0:
192,224,44367,2,0,L|176:288,1,65.9999979858399
320,224,44525,2,0,L|336:288,1,65.9999979858399
96,240,44682,2,0,L|80:304,1,65.9999979858399
240,304,44840,2,0,L|448:304,1,197.99999395752
256,256,45156,2,0,L|48:256,1,165.000006294251,0|0,0:0|0:0,0:0:0:0:
64,208,45393,1,0,0:0:0:0:
256,160,45472,6,0,L|336:160,1,65.9999979858399,0|0,0:0|0:0,0:0:0:0:
256,112,45630,2,0,L|176:112,1,65.9999979858399,0|0,0:0|0:0,0:0:0:0:
360,112,45788,1,0,0:0:0:0:
256,64,45946,2,0,L|176:64,1,65.9999979858399,0|0,0:0|0:0,0:0:0:0:
360,48,46103,1,0,0:0:0:0:
256,32,46261,1,0,0:0:0:0:
480,32,46419,1,0,0:0:0:0:
144,48,46577,2,0,L|40:48,1,65.9999979858399
256,112,46735,5,0,0:0:0:0:
144,160,46893,2,0,L|64:160,1,65.9999979858399
256,160,47051,1,8,0:0:0:0:
144,216,47209,1,0,0:0:0:0:
192,216,47288,1,0,0:0:0:0:
454,63,47367,5,8,0:0:0:0:
447,94,47406,1,0,0:0:0:0:
435,125,47445,1,0,0:0:0:0:
420,154,47485,1,0,0:0:0:0:
400,181,47524,1,2,0:0:0:0:
376,204,47564,1,0,0:0:0:0:
350,224,47603,1,0,0:0:0:0:
322,240,47643,1,0,0:0:0:0:
291,252,47682,1,0,0:0:0:0:
259,260,47722,1,0,0:0:0:0:
226,263,47761,1,0,0:0:0:0:
194,261,47801,1,0,0:0:0:0:
160,256,47840,1,0,0:0:0:0:
130,244,47880,1,0,0:0:0:0:
100,230,47919,1,0,0:0:0:0:
73,211,47959,1,0,0:0:0:0:
48,189,47998,5,8,0:0:0:0:
328,64,48156,1,8,0:0:0:0:
184,64,48314,1,8,0:0:0:0:
464,64,48472,1,8,0:0:0:0:
256,120,48788,6,0,L|416:120,2,131.99999597168
480,120,49261,2,0,L|320:120,1,131.99999597168
32,120,49577,2,0,L|176:120,1,131.99999597168
480,104,49893,1,0,0:0:0:0:
256,104,50051,1,0,0:0:0:0:
32,48,50209,2,0,L|368:48,1,330,8|0,0:0|0:0,0:0:0:0:
368,96,50525,6,0,L|272:96,1,65.9999979858399,8|0,0:0|0:0,0:0:0:0:
208,96,50682,1,0,0:0:0:0:
48,144,50840,2,0,L|208:144,1,131.99999597168,0|0,0:0|0:0,0:0:0:0:
224,144,51077,1,0,0:0:0:0:
320,144,51156,1,0,0:0:0:0:
160,192,51314,1,0,0:0:0:0:
112,208,51367,1,0,0:0:0:0:
80,240,51419,1,0,0:0:0:0:
96,272,51472,1,0,0:0:0:0:
256,272,51630,1,0,0:0:0:0:
32,192,51788,6,0,L|16:128,1,65.9999979858399,0|0,0:0|0:0,0:0:0:0:
112,144,51946,2,0,L|96:32,1,65.9999979858399,0|0,0:0|0:0,0:0:0:0:
192,112,52103,2,0,L|208:0,1,65.9999979858399,0|0,0:0|0:0,0:0:0:0:
288,112,52261,2,0,L|304:48,1,65.9999979858399,0|0,0:0|0:0,0:0:0:0:
400,48,52419,2,0,L|496:48,1,65.9999979858399,0|0,0:0|0:0,0:0:0:0:
112,48,52577,2,0,L|32:48,1,65.9999979858399,0|0,0:0|0:0,0:0:0:0:
400,80,52735,1,0,0:0:0:0:
429,94,52774,1,0,0:0:0:0:
446,122,52813,1,0,0:0:0:0:
447,155,52853,1,0,0:0:0:0:
432,183,52892,1,0,0:0:0:0:
404,200,52932,1,0,0:0:0:0:
371,200,52971,1,0,0:0:0:0:
208,208,53051,6,0,L|384:208,1,131.99999597168,0|0,0:0|0:0,0:0:0:0:
288,240,53288,1,0,0:0:0:0:
192,240,53367,2,0,L|96:240,1,65.9999979858399,0|0,0:0|0:0,0:0:0:0:
320,240,53525,2,0,L|416:240,2,65.9999979858399,0|0|0,0:0|0:0|0:0,0:0:0:0:
96,240,53761,2,0,L|0:240,2,65.9999979858399,0|0|0,0:0|0:0|0:0,0:0:0:0:
368,240,53998,2,0,L|448:240,1,65.9999979858399,0|0,0:0|0:0,0:0:0:0:
448,176,54156,2,0,L|336:176,1,65.9999979858399,0|0,0:0|0:0,0:0:0:0:
288,176,54314,6,0,L|208:176,1,65.9999979858399,0|0,0:0|0:0,0:0:0:0:
424,128,54472,2,0,L|504:128,1,65.9999979858399
416,80,54630,2,0,L|336:80,1,65.9999979858399,0|0,0:0|0:0,0:0:0:0:
136,120,54788,2,0,L|200:80,1,65.9999979858399
376,120,54946,2,0,L|312:80,1,65.9999979858399,0|0,0:0|0:0,0:0:0:0:
64,64,55103,2,0,L|0:64,2,43.9999986572266,0|0|0,0:0|0:0|0:0,0:0:0:0:
240,64,55261,2,0,L|368:64,2,87.9999973144532,0|0|0,0:0|0:0|0:0,0:0:0:0:
480,48,55577,2,0,L|480:208,1,131.99999597168,8|0,0:0|0:0,0:0:0:0:
256,176,55893,6,0,L|144:176,1,65.9999979858399,0|0,0:0|0:0,0:0:0:0:
128,176,56051,2,0,L|32:176,1,65.9999979858399,0|0,0:0|0:0,0:0:0:0:
256,176,56209,2,0,L|352:176,1,65.9999979858399,0|0,0:0|0:0,0:0:0:0:
256,128,56367,2,0,L|176:128,1,65.9999979858399,0|0,0:0|0:0,0:0:0:0:
480,128,56525,2,0,L|496:192,3,65.9999979858399,0|0|0|0,0:0|0:0|0:0|0:0,0:0:0:0:
336,240,56840,2,0,L|496:240,1,131.99999597168,0|0,0:0|0:0,0:0:0:0:
416,192,57077,1,0,0:0:0:0:
96,192,57156,6,0,L|176:192,1,65.9999979858399,0|0,0:0|0:0,0:0:0:0:
352,192,57314,1,0,0:0:0:0:
384,176,57353,1,0,0:0:0:0:
398,145,57392,1,0,0:0:0:0:
208,192,57472,1,0,0:0:0:0:
176,176,57511,1,0,0:0:0:0:
160,144,57550,1,0,0:0:0:0:
400,96,57630,2,0,L|352:48,1,65.9999979858399,0|0,0:0|0:0,0:0:0:0:
96,48,57788,1,0,0:0:0:0:
67,63,57827,1,0,0:0:0:0:
49,91,57866,1,0,0:0:0:0:
46,123,57906,1,0,0:0:0:0:
59,153,57945,1,0,0:0:0:0:
85,173,57985,1,0,0:0:0:0:
117,179,58024,1,0,0:0:0:0:
288,176,58103,6,0,L|432:176,1,131.99999597168,0|0,0:0|0:0,0:0:0:0:
456,136,58340,1,0,0:0:0:0:
160,96,58419,2,0,L|104:136,1,65.9999979858399
352,96,58577,2,0,L|408:136,1,65.9999979858399
48,176,58735,2,0,L|32:240,1,65.9999979858399,0|0,0:0|0:0,0:0:0:0:
256,208,58893,2,0,L|272:272,1,65.9999979858399,0|0,0:0|0:0,0:0:0:0:
48,240,59051,1,0,0:0:0:0:
31,268,59090,1,0,0:0:0:0:
31,301,59129,1,0,0:0:0:0:
46,330,59169,1,0,0:0:0:0:
73,348,59208,1,0,0:0:0:0:
105,351,59248,1,0,0:0:0:0:
135,339,59287,1,0,0:0:0:0:
304,240,59367,6,0,L|176:320,1,131.99999597168
128,240,59603,1,0,0:0:0:0:
376,192,59682,2,0,L|360:256,1,65.9999979858399
192,224,59840,2,0,L|208:288,1,65.9999979858399
432,144,59998,2,0,L|304:224,1,131.99999597168,0|0,0:0|0:0,0:0:0:0:
32,144,60314,1,8,0:0:0:0:
256,128,60630,6,0,L|288:240,1,110,0|0,0:0|0:0,0:0:0:0:
416,224,60946,2,0,L|448:336,1,110,2|0,0:0|0:0,0:0:0:0:
288,176,61261,2,0,L|256:288,1,110,0|2,0:0|0:0,0:0:0:0:
128,272,61577,2,0,L|96:384,1,110,0|0,0:0|0:0,0:0:0:0:
368,352,61893,6,0,L|464:272,1,110,0|2,0:0|0:0,0:0:0:0:
144,352,62209,2,0,L|48:272,1,110,0|0,0:0|0:0,0:0:0:0:
448,240,62525,1,0,0:0:0:0:
64,240,62840,2,0,L|48:240,12,13.75,0|0|0|0|0|0|0|0|0|0|0|0|0,0:0|0:0|0:0|0:0|0:0|0:0|0:0|0:0|0:0|0:0|0:0|0:0|0:0,0:0:0:0:
224,224,63156,6,0,L|336:160,2,110,0|0|2,1:0|0:0|0:0,0:0:0:0:
384,160,63630,2,0,P|288:160|224:48,1,220,0|0,0:0|0:0,0:0:0:0:
384,64,64103,2,0,L|272:64,1,110,8|0,0:0|0:0,0:0:0:0:
112,128,64419,6,0,L|0:64,2,110,0|0|0,0:0|0:0|0:0,0:0:0:0:
336,192,64893,2,0,B|240:192|230:200|176:80,1,220,0|0,0:0|0:0,0:0:0:0:
400,96,65367,1,4,1:2:0:0:
160,112,65682,5,8,0:0:0:0:
105,112,65760,1,0,0:0:0:0:
50,112,65839,1,0,0:0:0:0:
384,64,65998,1,8,0:0:0:0:
272,64,66156,1,8,0:0:0:0:
217,64,66234,1,0,0:0:0:0:
162,64,66313,1,0,0:0:0:0:
384,64,66472,2,0,P|448:96|304:192,1,330,8|8,0:0|0:0,0:0:0:0:
376,208,67024,5,0,0:0:0:0:
431,208,67103,1,2,0:0:0:0:
144,208,67261,1,8,0:0:0:0:
256,160,67419,1,8,0:0:0:0:
311,160,67497,1,0,0:0:0:0:
368,160,67577,1,2,0:0:0:0:
144,160,67735,1,8,0:0:0:0:
368,112,67893,1,8,0:0:0:0:
144,112,68051,1,0,0:0:0:0:
304,96,68208,5,8,0:0:0:0:
256,96,68288,1,0,0:0:0:0:
208,96,68367,1,0,0:0:0:0:
352,48,68524,1,0,0:0:0:0:
105,96,68682,1,8,0:0:0:0:
160,96,68760,1,0,0:0:0:0:
215,96,68839,1,0,0:0:0:0:
368,96,68998,2,0,P|432:160|352:256,1,220,8|2,0:0|0:0,0:0:0:0:
320,256,69393,1,0,0:0:0:0:
144,224,69472,5,2,0:0:0:0:
89,224,69550,1,0,0:0:0:0:
34,224,69629,1,0,0:0:0:0:
256,224,69788,1,8,0:0:0:0:
144,288,69946,1,2,0:0:0:0:
199,288,70024,1,0,0:0:0:0:
254,288,70103,1,0,0:0:0:0:
32,288,70262,1,2,0:0:0:0:
368,288,70420,2,0,L|128:288,1,220,4|0,0:0|0:0,0:0:0:0:
368,128,70735,6,0,L|272:192,1,110,4|2,0:0|0:0,0:0:0:0:
144,128,71051,2,0,L|240:192,1,110,4|2,0:0|0:0,0:0:0:0:
384,64,71367,2,0,L|272:64,1,110,4|2,0:0|0:0,0:0:0:0:
128,64,71683,2,0,L|240:64,1,110,4|2,0:0|0:0,0:0:0:0:
384,160,71998,6,0,L|448:256,1,110,4|2,0:0|0:0,0:0:0:0:
128,160,72314,2,0,L|64:256,1,110,4|2,0:0|0:0,0:0:0:0:
400,224,72630,2,0,L|528:224,1,110,4|2,0:0|0:0,0:0:0:0:
112,224,72946,2,0,L|-16:224,1,110,4|2,0:0|0:0,0:0:0:0:
400,208,73261,6,0,L|416:144,1,55,4|0,0:0|0:0,0:0:0:0:
320,160,73419,2,0,L|336:96,1,55,0|0,0:0|0:0,0:0:0:0:
432,96,73577,2,0,L|448:32,1,55,4|0,0:0|0:0,0:0:0:0:
272,96,73735,2,0,L|288:32,1,55,0|0,0:0|0:0,0:0:0:0:
448,144,73893,2,0,L|432:80,1,55,4|0,0:0|0:0,0:0:0:0:
336,112,74051,2,0,L|320:48,1,55
480,96,74209,2,0,L|464:32,1,55,4|0,0:0|0:0,0:0:0:0:
80,112,74367,2,0,L|64:48,1,55,0|0,0:0|0:0,0:0:0:0:
416,160,74525,5,0,0:0:0:0:
405,213,74603,1,0,0:0:0:0:
379,261,74682,1,0,0:0:0:0:
340,300,74761,1,0,0:0:0:0:
291,324,74840,1,0,0:0:0:0:
237,333,74919,1,0,0:0:0:0:
183,325,74998,1,0,0:0:0:0:
133,301,75077,1,0,0:0:0:0:
93,263,75156,1,0,0:0:0:0:
67,215,75235,1,0,0:0:0:0:
56,162,75314,1,0,0:0:0:0:
62,107,75393,1,0,0:0:0:0:
416,112,75472,1,0,1:0:0:0:
256,96,75788,6,0,L|176:96,1,55,4|0,0:0|0:0,0:0:0:0:
416,96,75946,2,0,L|480:96,1,55,0|0,0:0|0:0,0:0:0:0:
256,128,76103,1,0,0:0:0:0:
368,160,76261,2,0,L|464:160,1,55,4|0,0:0|0:0,0:0:0:0:
208,160,76419,2,0,L|128:160,1,55,0|0,0:0|0:0,0:0:0:0:
368,208,76577,1,0,0:0:0:0:
256,208,76735,2,0,L|176:208,1,55,4|0,0:0|0:0,0:0:0:0:
48,208,76893,2,0,L|128:208,1,55,0|0,0:0|0:0,0:0:0:0:
256,240,77051,6,0,L|336:240,1,55,0|0,0:0|0:0,0:0:0:0:
464,240,77209,2,0,L|480:304,3,55,4|0|0|0,0:0|0:0|0:0|0:0,0:0:0:0:
320,304,77525,2,0,L|240:304,1,55
112,304,77682,1,4,0:0:0:0:
72,264,77760,1,0,0:0:0:0:
96,208,77839,1,0,0:0:0:0:
152,192,77919,1,0,0:0:0:0:
400,160,77998,5,4,0:0:0:0:
448,128,78076,1,0,0:0:0:0:
256,112,78156,2,0,L|192:112,3,55,0|0|0|0,0:0|0:0|0:0|0:0,0:0:0:0:
112,80,78472,2,0,L|176:80,1,55,4|0,0:0|0:0,0:0:0:0:
352,64,78630,2,0,L|432:64,1,55,4|0,0:0|0:0,0:0:0:0:
480,96,78788,2,0,L|464:160,1,55,0|0,0:0|0:0,0:0:0:0:
304,160,78946,6,0,L|224:160,1,55,0|0,0:0|0:0,0:0:0:0:
192,192,79103,1,0,0:0:0:0:
352,224,79182,2,0,L|432:224,2,55,4|0|0,0:0|0:0|0:0,0:0:0:0:
192,224,79419,2,0,L|128:224,1,55,4|0,0:0|0:0,0:0:0:0:
352,224,79577,1,4,0:0:0:0:
382,179,79655,1,0,0:0:0:0:
378,126,79734,1,0,0:0:0:0:
340,87,79813,1,0,0:0:0:0:
432,48,79893,6,0,L|496:48,1,55
464,96,80051,2,0,L|400:96,1,55
256,48,80209,2,0,L|224:128,1,55,4|0,0:0|0:0,0:0:0:0:
80,96,80367,2,0,L|48:176,1,55
288,144,80525,2,0,L|320:224,1,55,4|0,0:0|0:0,0:0:0:0:
464,192,80683,2,0,L|496:272,1,55,0|0,0:0|0:0,0:0:0:0:
88,256,80840,6,0,L|8:256,1,55,4|0,0:0|0:0,0:0:0:0:
416,256,80998,2,0,L|496:256,1,55,4|0,0:0|0:0,0:0:0:0:
256,224,81156,2,0,L|176:224,1,55
416,160,81314,2,0,L|480:160,1,55,0|0,0:0|0:0,0:0:0:0:
88,128,81472,2,0,L|8:128,1,55,4|0,0:0|0:0,0:0:0:0:
416,128,81630,2,0,L|496:128,1,55,4|0,0:0|0:0,0:0:0:0:
256,176,81788,6,0,L|176:176,1,55
416,224,81946,2,0,L|480:224,1,55,0|0,0:0|0:0,0:0:0:0:
88,176,82103,2,0,L|-8:176,1,55,4|0,0:0|0:0,0:0:0:0:
416,128,82261,2,0,L|480:128,1,55,4|0,0:0|0:0,0:0:0:0:
256,96,82419,2,0,L|176:96,1,55,0|0,0:0|0:0,0:0:0:0:
416,80,82577,6,0,L|480:80,2,55,4|0|0,0:0|0:0|0:0,0:0:0:0:
256,64,82814,2,0,L|192:64,2,55,4|0|0,0:0|0:0|0:0,0:0:0:0:
32,64,83051,1,0,0:0:0:0:
22,89,83090,1,0,0:0:0:0:
22,116,83129,1,0,0:0:0:0:
31,142,83169,1,0,0:0:0:0:
48,163,83208,1,0,0:0:0:0:
72,177,83248,1,0,0:0:0:0:
99,181,83287,1,0,0:0:0:0:
256,176,83367,6,0,L|320:176,1,55,4|0,0:0|0:0,0:0:0:0:
72,208,83525,2,0,L|56:272,1,55
312,256,83682,2,0,L|392:256,1,55
128,264,83840,2,0,L|117:317,1,55
352,224,83998,2,0,L|368:304,2,82.5000031471254,4|0|0,0:0|0:0|0:0,0:0:0:0:
160,224,84235,6,0,L|144:304,2,82.5000031471254,4|0|0,0:0|0:0|0:0,0:0:0:0:
416,224,84472,2,0,L|432:304,1,82.5000031471254,4|0,0:0|0:0,0:0:0:0:
32,192,84630,2,0,L|96:152,1,65.9999979858399,4|0,0:0|0:0,0:0:0:0:
256,176,84788,2,0,L|288:96,5,65.9999979858399
432,112,85261,6,0,L|512:112,1,65.9999979858399
96,112,85419,2,0,L|0:112,1,65.9999979858399,0|0,0:0|0:0,0:0:0:0:
288,192,85577,2,0,L|304:128,1,65.9999979858399,0|0,0:0|0:0,0:0:0:0:
224,192,85735,2,0,L|208:128,1,65.9999979858399,0|0,0:0|0:0,0:0:0:0:
288,192,85893,2,0,L|304:256,1,65.9999979858399,0|0,0:0|0:0,0:0:0:0:
224,192,86051,2,0,L|208:256,1,65.9999979858399,0|0,0:0|0:0,0:0:0:0:
287,172,86209,6,0,L|320:128,1,55,0|0,0:0|0:0,0:0:0:0:
225,172,86367,2,0,L|192:128,1,55,0|0,0:0|0:0,0:0:0:0:
287,172,86525,2,0,L|320:128,1,55,0|0,0:0|0:0,0:0:0:0:
225,172,86683,2,0,L|192:128,1,55,0|0,0:0|0:0,0:0:0:0:
352,96,86840,2,0,L|432:96,1,55,0|0,0:0|0:0,0:0:0:0:
160,96,86998,2,0,L|80:96,1,55,0|0,0:0|0:0,0:0:0:0:
496,96,87156,6,0,L|480:160,1,55
336,144,87314,2,0,L|320:208,1,55
176,192,87472,2,0,L|160:256,1,55
16,256,87630,2,0,L|0:320,1,55
384,288,87788,1,0,1:0:0:0:
352,112,88419,5,8,0:0:0:0:
407,112,88497,1,0,0:0:0:0:
462,112,88576,1,0,0:0:0:0:
128,64,88735,1,8,0:0:0:0:
240,64,88893,1,8,0:0:0:0:
295,64,88971,1,0,0:0:0:0:
350,64,89050,1,0,0:0:0:0:
128,64,89209,2,0,P|64:96|208:192,1,330,0|8,0:0|0:0,0:0:0:0:
136,208,89761,5,0,0:0:0:0:
81,208,89840,1,2,0:0:0:0:
368,208,89998,1,8,0:0:0:0:
256,160,90156,1,8,0:0:0:0:
201,160,90234,1,0,0:0:0:0:
368,160,90314,2,0,P|432:160|384:128,1,165,0|0,0:0|0:0,0:0:0:0:
320,96,90630,2,0,L|464:96,1,110,8|0,0:0|0:0,0:0:0:0:
192,96,90945,5,8,0:0:0:0:
247,96,91025,1,0,0:0:0:0:
302,96,91103,1,0,0:0:0:0:
160,56,91261,1,8,0:0:0:0:
407,96,91419,1,8,0:0:0:0:
352,96,91498,1,0,0:0:0:0:
297,96,91577,1,0,0:0:0:0:
432,48,91735,2,0,P|496:112|416:208,1,220,8|0,0:0|0:0,0:0:0:0:
392,208,92130,1,0,0:0:0:0:
240,208,92209,6,0,L|256:144,1,55,8|0,0:0|0:0,0:0:0:0:
320,160,92367,2,0,L|336:96,1,55,2|2,0:0|0:0,0:0:0:0:
176,144,92524,2,0,L|160:80,1,55,8|0,0:0|0:0,0:0:0:0:
320,176,92682,2,0,L|336:112,1,55,2|2,0:0|0:0,0:0:0:0:
400,128,92840,2,0,L|416:64,1,55,8|8,0:0|0:0,0:0:0:0:
256,112,92998,2,0,L|240:48,1,55
336,32,93156,2,0,L|80:32,1,220,4|0,0:0|0:0,0:0:0:0:
359,64,93472,5,8,0:0:0:0:
304,64,93551,1,0,0:0:0:0:
249,64,93630,1,2,0:0:0:0:
112,64,93788,1,8,0:0:0:0:
336,96,93946,1,8,0:0:0:0:
391,96,94025,1,0,0:0:0:0:
446,96,94103,1,0,0:0:0:0:
224,96,94261,1,8,0:0:0:0:
336,144,94419,2,0,L|304:256,1,110
32,160,94577,2,0,L|64:272,1,110
336,224,94735,5,8,0:0:0:0:
391,224,94813,1,0,0:0:0:0:
446,224,94892,1,2,0:0:0:0:
112,224,95051,1,8,0:0:0:0:
224,272,95209,1,8,0:0:0:0:
279,272,95287,1,0,0:0:0:0:
336,272,95367,2,0,L|160:272,1,165,2|0,0:0|0:0,0:0:0:0:
336,208,95682,2,0,P|384:176|336:128,1,110,0|0,0:0|0:0,0:0:0:0:
137,112,95998,5,8,0:0:0:0:
192,112,96076,1,0,0:0:0:0:
247,112,96155,1,0,0:0:0:0:
80,64,96314,1,8,0:0:0:0:
240,160,96472,1,8,0:0:0:0:
295,160,96550,1,0,0:0:0:0:
350,160,96629,1,0,0:0:0:0:
192,112,96788,2,0,L|304:112,1,110,0|0,0:0|0:0,0:0:0:0:
80,160,97103,1,4,0:0:0:0:
128,160,97182,1,4,0:0:0:0:
400,160,97261,6,0,L|416:96,1,55,8|0,0:0|0:0,0:0:0:0:
256,64,97419,2,0,L|184:64,1,55,8|0,0:0|0:0,0:0:0:0:
368,104,97577,1,2,0:0:0:0:
256,112,97735,2,0,L|240:176,1,55,8|0,0:0|0:0,0:0:0:0:
400,200,97893,2,0,L|456:200,1,55,8|0,0:0|0:0,0:0:0:0:
256,208,98051,1,2,0:0:0:0:
400,200,98209,2,0,P|480:168|496:136,1,110,8|0,0:0|0:0,0:0:0:0:
208,80,98524,5,8,0:0:0:0:
256,80,98602,1,0,0:0:0:0:
304,80,98681,1,0,0:0:0:0:
432,80,98840,1,8,0:0:0:0:
121,128,98998,1,8,0:0:0:0:
176,128,99076,1,0,0:0:0:0:
231,128,99155,1,0,0:0:0:0:
64,80,99314,1,8,0:0:0:0:
320,112,99472,2,0,P|304:192|160:176,1,220,0|0,0:0|0:0,0:0:0:0:
240,224,99867,5,0,0:0:0:0:
288,240,99945,1,0,0:0:0:0:
128,240,100103,1,0,0:0:0:0:
400,240,100261,1,0,0:0:0:0:
345,240,100339,1,0,0:0:0:0:
290,240,100418,1,0,0:0:0:0:
448,192,100577,1,0,0:0:0:0:
288,144,100735,2,0,L|176:144,1,110,0|0,0:0|0:0,0:0:0:0:
336,96,101051,6,0,L|400:96,2,55,0|0|0,0:0|0:0|0:0,0:0:0:0:
176,64,101367,1,0,0:0:0:0:
336,64,101524,2,0,L|400:64,2,55,0|0|0,0:0|0:0|0:0,0:0:0:0:
96,96,101840,1,0,0:0:0:0:
256,112,101998,2,0,L|160:208,1,110,0|0,0:0|0:0,0:0:0:0:
128,192,102235,1,0,0:0:0:0:
296,192,102314,5,0,0:0:0:0:
360,192,102393,1,0,0:0:0:0:
176,184,102472,1,0,0:0:0:0:
112,200,102551,1,0,0:0:0:0:
64,248,102630,1,0,0:0:0:0:
360,248,102788,1,0,0:0:0:0:
424,248,102867,1,0,0:0:0:0:
232,240,102946,1,0,0:0:0:0:
168,256,103025,1,0,0:0:0:0:
120,304,103104,1,0,0:0:0:0:
480,80,103261,2,0,L|240:80,1,220,4|0,0:0|0:0,0:0:0:0:
480,48,103577,5,0,0:0:0:0:
425,48,103655,1,0,0:0:0:0:
370,48,103734,1,0,0:0:0:0:
208,48,103893,1,0,0:0:0:0:
366,112,104051,1,0,0:0:0:0:
311,112,104129,1,0,0:0:0:0:
256,112,104208,1,0,0:0:0:0:
94,112,104367,1,0,0:0:0:0:
368,160,104524,2,0,L|384:224,1,55,0|0,0:0|0:0,0:0:0:0:
128,160,104682,2,0,L|144:224,1,55,0|0,0:0|0:0,0:0:0:0:
368,224,104840,5,0,0:0:0:0:
423,224,104918,1,0,0:0:0:0:
478,224,104997,1,0,0:0:0:0:
256,224,105156,1,0,0:0:0:0:
368,288,105314,1,0,0:0:0:0:
313,288,105392,1,0,0:0:0:0:
258,288,105471,1,0,0:0:0:0:
480,288,105630,1,0,0:0:0:0:
144,288,105788,2,0,L|272:288,1,110,0|0,0:0|0:0,0:0:0:0:
32,176,106103,6,0,L|112:176,1,55,0|0,0:0|0:0,0:0:0:0:
144,128,106261,2,0,L|208:128,1,55,0|0,0:0|0:0,0:0:0:0:
32,80,106419,1,0,0:0:0:0:
144,128,106577,2,0,L|224:128,1,55,0|0,0:0|0:0,0:0:0:0:
256,80,106735,2,0,L|320:80,1,55,0|0,0:0|0:0,0:0:0:0:
144,32,106893,1,0,0:0:0:0:
256,32,107051,2,0,L|144:32,1,110,0|0,0:0|0:0,0:0:0:0:
176,64,107288,1,0,0:0:0:0:
480,80,107367,6,0,L|448:128,1,55,0|0,0:0|0:0,0:0:0:0:
288,128,107524,2,0,L|320:176,1,55,0|0,0:0|0:0,0:0:0:0:
400,176,107682,1,0,0:0:0:0:
32,80,107840,2,0,L|64:128,1,55,0|0,0:0|0:0,0:0:0:0:
222,130,107998,2,0,L|192:176,1,55
112,176,108155,1,0,0:0:0:0:
360,176,108314,2,0,L|232:176,1,110,0|0,0:0|0:0,0:0:0:0:
496,192,108630,6,0,P|416:304|16:144,1,660,0|4,0:0|0:0,0:0:0:0:
448,96,109893,6,0,L|528:96,1,55
208,112,110051,2,0,L|144:112,1,55
432,128,110209,2,0,L|496:128,1,55
328,64,110367,2,0,L|216:64,1,82.5000031471254
96,64,110525,6,0,L|48:64,1,27.5,2|0,0:0|0:0,0:0:0:0:
88,88,110603,2,0,L|48:88,1,27.5,0|0,0:0|0:0,0:0:0:0:
96,112,110682,2,0,L|56:112,1,27.5,0|0,0:0|0:0,0:0:0:0:
104,144,110761,2,0,L|72:144,1,27.5,0|0,0:0|0:0,0:0:0:0:
112,168,110840,1,8,0:0:0:0:
400,176,111156,6,0,L|480:176,1,65.9999979858399
112,176,111314,2,0,L|32:176,1,65.9999979858399,0|0,0:0|0:0,0:0:0:0:
256,160,111472,1,0,0:0:0:0:
400,112,111630,2,0,L|512:112,1,65.9999979858399,0|0,0:0|0:0,0:0:0:0:
112,112,111788,2,0,L|32:112,1,65.9999979858399,0|0,0:0|0:0,0:0:0:0:
256,112,111946,1,0,0:0:0:0:
400,64,112103,2,0,L|240:64,1,131.99999597168,0|0,0:0|0:0,0:0:0:0:
240,48,112340,1,0,0:0:0:0:
336,32,112419,6,0,L|416:48,1,65.9999979858399
176,32,112577,2,0,L|96:48,1,65.9999979858399
336,64,112735,2,0,L|256:80,1,65.9999979858399
112,64,112893,2,0,L|32:80,1,65.9999979858399
400,64,113051,2,0,L|480:80,1,65.9999979858399
112,96,113209,1,8,0:0:0:0:
79,96,113248,1,0,0:0:0:0:
49,110,113287,1,0,0:0:0:0:
29,136,113327,1,0,0:0:0:0:
22,168,113366,1,0,0:0:0:0:
29,199,113406,1,0,0:0:0:0:
50,225,113445,1,0,0:0:0:0:
79,239,113485,1,0,0:0:0:0:
112,239,113524,1,0,0:0:0:0:
400,240,113682,6,0,L|416:176,1,65.9999979858399,8|0,0:0|0:0,0:0:0:0:
328,192,113840,2,0,L|312:128,1,65.9999979858399,0|2,0:0|0:0,0:0:0:0:
400,96,113998,1,8,0:0:0:0:
112,240,114156,2,0,L|96:176,1,65.9999979858399,8|0,0:0|0:0,0:0:0:0:
184,192,114314,2,0,L|200:128,1,65.9999979858399,0|2,0:0|0:0,0:0:0:0:
112,96,114472,1,8,0:0:0:0:
400,64,114630,2,0,L|304:64,1,65.9999979858399,0|0,0:0|0:0,0:0:0:0:
178,48,114788,2,0,L|112:48,1,65.9999979858399,0|0,0:0|0:0,0:0:0:0:
400,48,114946,6,0,L|416:112,1,65.9999979858399,0|0,0:0|0:0,0:0:0:0:
320,112,115103,2,0,L|304:176,1,65.9999979858399,0|0,0:0|0:0,0:0:0:0:
400,176,115261,1,0,0:0:0:0:
176,176,115419,1,0,0:0:0:0:
448,224,115577,2,0,L|288:224,1,131.99999597168,0|0,0:0|0:0,0:0:0:0:
240,224,115814,1,0,0:0:0:0:
96,192,115893,2,0,L|256:192,1,131.99999597168,0|0,0:0|0:0,0:0:0:0:
0,128,116209,6,0,L|96:128,1,65.9999979858399,0|0,0:0|0:0,0:0:0:0:
224,128,116367,2,0,L|304:128,1,65.9999979858399,0|0,0:0|0:0,0:0:0:0:
448,128,116525,1,0,0:0:0:0:
512,64,116682,2,0,L|416:64,1,65.9999979858399,0|0,0:0|0:0,0:0:0:0:
288,64,116840,2,0,L|208:64,1,65.9999979858399,0|0,0:0|0:0,0:0:0:0:
64,64,116998,1,0,0:0:0:0:
0,128,117156,2,0,L|160:128,1,131.99999597168,0|0,0:0|0:0,0:0:0:0:
208,128,117393,1,0,0:0:0:0:
416,128,117472,6,0,L|512:128,1,65.9999979858399
160,144,117630,2,0,L|144:224,1,65.9999979858399
352,160,117788,1,0,0:0:0:0:
240,208,117946,2,0,L|224:272,1,65.9999979858399
384,272,118103,2,0,L|464:272,1,65.9999979858399
144,272,118261,1,0,0:0:0:0:
248,240,118419,2,0,L|456:240,1,197.99999395752
48,128,118735,6,0,P|80:176|352:192,1,330.000012588501,2|0,0:0|0:0,0:0:0:0:
464,128,119998,6,0,P|432:176|160:192,1,330.000012588501,2|0,0:0|0:0,0:0:0:0:
384,288,121261,6,0,P|336:224|128:288,2,330.000012588501,2|0|2,0:0|0:0|0:0,0:0:0:0:
256,192,122682,12,0,124735,0:0:0:0:
288,160,124893,6,0,L|304:224,2,41.2500015735627,2|0|0,0:0|0:0|0:0,0:0:0:0:
