osu file format v14

[General]
AudioFilename: Evanescent.mp3
AudioLeadIn: 0
PreviewTime: 87946
Countdown: 0
SampleSet: Soft
StackLeniency: 0.7
Mode: 2
LetterboxInBreaks: 0
WidescreenStoryboard: 1

[Editor]
Bookmarks: 88419
DistanceSpacing: 1
BeatDivisor: 4
GridSize: 8
TimelineZoom: 1.9

[Metadata]
Title:Evanescent
TitleUnicode:Evanescent
Artist:LeaF
ArtistUnicode:LeaF
Creator:Krah
Version:Rain
Source:BMS
Tags:post drum n bass and drum'n'bass sengoku sen-goku sen goku optie Spectator CLSW Crystal Cherry Blossom dialgadu77 sayaka- sayaka Nozhomi Kin Secretpipe
BeatmapID:454903
BeatmapSetID:176646

[Difficulty]
HPDrainRate:6
CircleSize:4
OverallDifficulty:8.8
ApproachRate:8.8
SliderMultiplier:2
SliderTickRate:1

[Events]
//Background and Video events
Video,-443,"Evanescent-HD~2.avi"
0,0,"evanescent.jpg",0,0
//Break Periods
//Storyboard Layer 0 (Background)
//Storyboard Layer 1 (Fail)
//Storyboard Layer 2 (Pass)
//Storyboard Layer 3 (Foreground)
//Storyboard Sound Samples

[TimingPoints]
2525,315.789473684211,4,2,5,70,1,0
11209,-100,4,3,5,70,0,0
11525,-100,4,2,5,70,0,0
12314,-66.6666666666667,4,2,5,70,0,0
12788,-100,4,2,5,70,0,0
21314,-100,4,3,5,70,0,0
21393,-100,4,2,5,70,0,0
22419,-66.6666666666667,4,2,5,70,0,0
22893,-100,4,2,5,70,0,0
34104,-100,4,2,5,70,0,0
36156,-100,4,2,5,70,0,0
41525,-100,4,3,5,70,0,0
41683,-100,4,2,5,70,0,0
50525,-100,4,1,5,40,0,0
55578,-100,4,2,5,70,0,0
55893,-100,4,1,5,40,0,0
57788,-100,4,1,5,5,0,0
58104,-100,4,1,5,40,0,0
60630,-100,4,2,5,40,0,0
63630,-100,4,1,5,40,0,0
63709,-100,4,2,5,40,0,0
69314,-100,4,3,5,60,0,0
69630,-100,4,2,5,40,0,0
70420,-100,4,2,5,70,0,0
70735,-100,4,3,5,70,0,0
74525,-100,4,1,5,60,0,0
74630,-100,4,2,5,60,0,0
75788,-100,4,1,5,60,0,0
78156,-100,4,2,5,60,0,0
78472,-100,4,1,5,60,0,0
78551,-100,4,1,5,60,0,0
78788,-100,4,2,5,60,0,0
78946,-100,4,1,5,60,0,0
79025,-100,4,2,5,60,0,0
79183,-100,4,1,5,60,0,0
79262,-100,4,2,5,60,0,0
79420,-100,4,1,5,60,0,0
79499,-100,4,2,5,60,0,0
83999,-100,4,2,5,70,0,0
87156,-66.6666666666667,4,2,5,70,0,0
87946,-100,4,2,5,70,0,0
88419,-100,4,2,5,70,0,1
97104,-100,4,3,5,70,0,1
97262,-100,4,2,5,70,0,1
108630,-100,4,2,5,70,0,0
111156,-100,4,2,5,70,0,1
118735,-100,4,2,5,70,0,0

[Colours]
Combo1 : 231,224,99
Combo2 : 82,85,199
Combo3 : 226,125,65
Combo4 : 129,66,132
Combo5 : 84,208,81

[HitObjects]
376,328,7577,5,8,0:0:0:0:
320,328,7656,1,0,0:0:0:0:
288,288,7735,1,0,0:0:0:0:
340,288,7814,1,2,0:0:0:0:
392,288,7893,2,0,L|520:288,2,100,2|8|0,0:0|0:0|0:0,0:0:0:0:
304,288,8367,1,0,0:0:0:0:
80,280,8525,2,0,L|8:144,1,150,2|0,0:0|0:0,0:0:0:0:
72,152,8840,5,8,0:0:0:0:
120,152,8919,1,0,0:0:0:0:
160,152,8998,1,2,0:0:0:0:
184,152,9077,1,2,0:0:0:0:
200,152,9156,2,0,L|80:88,1,100,2|6,0:0|0:0,0:0:0:0:
352,104,9472,1,8,0:0:0:0:
424,104,9788,1,8,0:0:0:0:
16,112,10103,5,10,0:0:0:0:
64,160,10261,1,0,0:0:0:0:
128,200,10419,2,0,L|264:200,1,100,0|10,0:0|0:0,0:0:0:0:
128,264,10735,1,0,0:0:0:0:
64,320,10893,1,0,0:0:0:0:
448,320,11209,1,2,0:0:0:0:
304,312,11367,5,2,0:0:0:0:
264,280,11446,1,0,0:0:0:0:
248,232,11525,1,0,0:0:0:0:
352,232,11682,2,0,P|416:233|472:168,1,150,8|0,0:0|0:0,0:0:0:0:
392,160,11998,2,0,P|415:90|496:112,1,150,8|0,0:0|0:0,0:0:0:0:
408,72,12314,2,0,L|88:72,1,300.000011444092,2|2,0:0|0:0,0:0:0:0:
344,144,12788,5,2,0:0:0:0:
360,192,12946,1,8,0:0:0:0:
376,240,13103,1,8,0:0:0:0:
224,240,13261,1,2,0:0:0:0:
168,240,13340,1,2,0:0:0:0:
112,240,13419,2,0,L|0:240,2,100,8|0|0,0:0|0:0|0:0,0:0:0:0:
416,240,13893,5,8,0:0:0:0:
312,184,14051,2,0,L|424:184,1,100,2|2,0:0|0:0,0:0:0:0:
264,184,14367,1,8,0:0:0:0:
368,240,14525,2,0,L|140:240,1,200,8|0,0:0|0:0,0:0:0:0:
104,240,14919,1,0,0:0:0:0:
48,240,14998,1,0,0:0:0:0:
32,240,15051,1,0,0:0:0:0:
96,104,15156,5,8,0:0:0:0:
336,104,15314,1,2,0:0:0:0:
360,104,15393,1,2,0:0:0:0:
384,104,15472,1,8,0:0:0:0:
488,104,15630,1,8,0:0:0:0:
224,104,15788,1,2,0:0:0:0:
200,104,15867,1,2,0:0:0:0:
176,104,15946,1,8,0:0:0:0:
368,168,16261,1,2,0:0:0:0:
136,168,16419,5,8,0:0:0:0:
112,216,16498,1,0,0:0:0:0:
88,264,16577,1,8,0:0:0:0:
152,272,16656,1,0,0:0:0:0:
208,272,16735,2,0,L|360:272,1,150,8|8,0:0|0:0,0:0:0:0:
296,336,17051,2,0,L|448:336,1,150,8|8,0:0|0:0,0:0:0:0:
208,336,17367,1,4,0:0:0:0:
104,240,17682,6,0,L|128:344,1,100,8|2,0:0|0:0,0:0:0:0:
184,288,17919,2,0,L|174:238,1,50,2|10,0:0|0:0,0:0:0:0:
328,152,18156,2,0,L|352:256,1,100,2|8,0:0|0:0,0:0:0:0:
400,200,18393,2,0,L|391:150,1,50,0|8,0:0|0:0,0:0:0:0:
136,200,18630,1,2,0:0:0:0:
48,24,18946,5,2,0:0:0:0:
200,32,19025,1,2,0:0:0:0:
264,80,19103,1,2,0:0:0:0:
296,152,19182,1,0,0:0:0:0:
256,216,19261,2,0,P|224:256|144:256,1,100,2|8,0:0|0:0,0:0:0:0:
32,248,19577,1,8,0:0:0:0:
32,248,19893,1,2,0:0:0:0:
232,232,20209,6,0,L|256:336,1,100,8|2,0:0|0:0,0:0:0:0:
112,88,20525,1,8,0:0:0:0:
296,216,20682,2,0,L|328:352,1,100,0|0,0:0|0:0,0:0:0:0:
168,88,20998,1,0,0:0:0:0:
40,208,21314,1,2,0:0:0:0:
264,216,21472,5,2,0:0:0:0:
304,184,21551,1,0,0:0:0:0:
320,136,21630,1,0,0:0:0:0:
392,232,21788,2,0,P|452:231|520:160,1,150
424,160,22103,2,0,P|447:90|528:112,1,150,8|0,0:0|0:0,0:0:0:0:
440,72,22419,2,0,L|120:72,1,300.000011444092,2|2,0:0|0:0,0:0:0:0:
344,144,22893,5,2,0:0:0:0:
360,192,23051,1,8,0:0:0:0:
376,240,23208,1,8,0:0:0:0:
224,240,23366,1,2,0:0:0:0:
168,240,23445,1,2,0:0:0:0:
112,240,23524,2,0,L|0:240,2,100,8|0|0,0:0|0:0|0:0,0:0:0:0:
416,240,23998,5,8,0:0:0:0:
312,184,24156,2,0,L|424:184,1,100,2|2,0:0|0:0,0:0:0:0:
264,184,24472,1,8,0:0:0:0:
368,240,24630,2,0,L|140:240,1,200,8|0,0:0|0:0,0:0:0:0:
104,240,25051,1,0,0:0:0:0:
48,240,25103,1,0,0:0:0:0:
32,240,25156,1,0,0:0:0:0:
336,160,25261,5,8,0:0:0:0:
440,160,25419,1,2,0:0:0:0:
472,160,25498,1,0,0:0:0:0:
496,160,25577,1,8,0:0:0:0:
176,240,25735,2,0,L|76:240,1,100,8|2,0:0|0:0,0:0:0:0:
208,240,26051,5,8,0:0:0:0:
328,240,26209,1,0,0:0:0:0:
208,304,26367,1,0,0:0:0:0:
448,304,26525,5,4,0:0:0:0:
504,304,26682,1,0,0:0:0:0:
448,304,26840,1,8,0:0:0:0:
296,304,26998,1,0,0:0:0:0:
376,304,27156,1,4,0:0:0:0:
296,304,27314,1,0,0:0:0:0:
64,312,27472,1,2,0:0:0:0:
256,192,27788,12,0,28893,0:0:0:0:
256,96,29051,5,0,0:0:0:0:
320,96,29130,1,0,0:0:0:0:
360,96,29209,1,0,0:0:0:0:
320,144,29288,1,0,0:0:0:0:
256,144,29367,1,0,0:0:0:0:
192,144,29446,1,0,0:0:0:0:
152,96,29525,1,0,0:0:0:0:
192,96,29603,1,0,0:0:0:0:
256,208,29682,1,0,0:0:0:0:
320,208,29761,1,0,0:0:0:0:
360,152,29840,1,0,0:0:0:0:
320,264,29919,1,0,0:0:0:0:
256,264,29998,1,0,0:0:0:0:
256,192,30314,12,0,31419,0:0:0:0:
256,192,31577,5,0,0:0:0:0:
224,152,31656,1,0,0:0:0:0:
192,104,31735,1,0,0:0:0:0:
224,152,31814,1,0,0:0:0:0:
256,192,31893,1,0,0:0:0:0:
416,192,32209,1,0,0:0:0:0:
8,192,32525,1,0,0:0:0:0:
256,192,32840,12,0,33946,0:0:0:0:
336,136,34103,5,0,0:0:0:0:
368,96,34182,1,0,0:0:0:0:
336,48,34261,1,0,0:0:0:0:
264,48,34340,1,0,0:0:0:0:
232,88,34419,1,0,0:0:0:0:
264,136,34498,1,0,0:0:0:0:
336,200,34577,1,0,0:0:0:0:
368,240,34656,1,0,0:0:0:0:
336,288,34735,1,0,0:0:0:0:
152,288,34814,1,0,0:0:0:0:
96,264,34893,1,0,0:0:0:0:
56,232,34972,1,0,0:0:0:0:
32,200,35051,1,0,0:0:0:0:
256,192,35367,12,0,35998,0:0:0:0:
432,200,36156,6,0,L|472:80,1,100,8|0,0:0|0:0,0:0:0:0:
160,104,36472,1,2,0:0:0:0:
240,192,36630,2,0,L|200:88,1,100,8|0,0:0|0:0,0:0:0:0:
432,104,36946,1,2,0:0:0:0:
488,104,37103,1,8,0:0:0:0:
152,104,37261,2,0,B|40:128|-8:176|40:232|168:248,1,300,8|0,0:0|0:0,0:0:0:0:
296,248,37893,5,8,0:0:0:0:
416,280,38051,1,2,0:0:0:0:
416,336,38130,1,2,0:0:0:0:
464,336,38209,2,0,L|364:336,1,100,8|8,0:0|0:0,0:0:0:0:
136,336,38525,1,2,0:0:0:0:
136,288,38603,1,2,0:0:0:0:
88,288,38682,2,0,L|188:288,1,100,8|0,0:0|0:0,0:0:0:0:
392,288,39156,5,0,0:0:0:0:
376,248,39235,1,0,0:0:0:0:
360,208,39314,1,0,0:0:0:0:
204,208,39472,2,0,L|304:208,1,100,8|0,0:0|0:0,0:0:0:0:
288,168,39709,1,0,0:0:0:0:
272,128,39788,1,8,0:0:0:0:
128,112,39946,5,2,0:0:0:0:
416,112,40103,1,2,0:0:0:0:
152,248,40419,5,8,0:0:0:0:
104,208,40498,1,0,0:0:0:0:
152,168,40577,1,2,0:0:0:0:
200,128,40656,1,2,0:0:0:0:
152,88,40735,2,0,B|104:80|104:80|152:56,1,100,8|2,0:0|0:0,0:0:0:0:
200,16,40972,1,0,0:0:0:0:
388,248,41051,1,10,0:0:0:0:
316,64,41209,2,0,L|436:64,2,100,8|8|2,0:0|0:0|0:0,0:0:0:0:
160,64,41682,5,0,0:0:0:0:
376,64,41840,1,2,0:0:0:0:
408,40,41919,1,0,0:0:0:0:
448,16,41998,1,8,0:0:0:0:
344,16,42156,1,2,0:0:0:0:
104,16,42314,1,8,0:0:0:0:
256,128,42630,5,2,0:0:0:0:
296,288,42946,5,8,0:0:0:0:
448,288,43103,1,2,0:0:0:0:
384,288,43182,1,0,0:0:0:0:
320,288,43261,2,0,L|376:176,1,100,8|8,0:0|0:0,0:0:0:0:
472,200,43577,6,0,L|504:144,1,50,2|0,0:0|0:0,0:0:0:0:
336,160,43735,2,0,L|296:96,1,50,8|0,0:0|0:0,0:0:0:0:
256,120,43893,1,0,0:0:0:0:
216,120,43972,1,0,0:0:0:0:
256,64,44051,1,0,0:0:0:0:
312,64,44130,1,0,0:0:0:0:
352,168,44209,5,0,0:0:0:0:
448,168,44367,1,0,0:0:0:0:
512,208,44446,1,0,0:0:0:0:
448,248,44525,1,0,0:0:0:0:
136,248,44682,1,0,0:0:0:0:
288,248,44840,2,0,P|352:312|288:376,1,200
224,376,45314,5,0,0:0:0:0:
288,376,45393,1,0,0:0:0:0:
400,376,45472,2,0,L|456:248,1,100,0|0,0:0|0:0,0:0:0:0:
336,280,45788,2,0,L|280:168,1,100,0|0,0:0|0:0,0:0:0:0:
207,280,46103,1,0,0:0:0:0:
376,280,46419,1,0,0:0:0:0:
128,280,46577,1,0,0:0:0:0:
80,232,46735,1,0,0:0:0:0:
232,232,46893,5,0,0:0:0:0:
256,232,46972,1,0,0:0:0:0:
280,232,47051,2,0,L|344:128,1,100,8|0,0:0|0:0,0:0:0:0:
176,144,47367,1,8,0:0:0:0:
512,240,47603,5,2,0:0:0:0:
512,312,47761,1,2,0:0:0:0:
328,312,47998,1,8,0:0:0:0:
312,312,48156,1,8,0:0:0:0:
224,312,48314,1,8,0:0:0:0:
208,312,48472,1,8,0:0:0:0:
40,312,48788,5,0,0:0:0:0:
168,312,48946,1,2,0:0:0:0:
40,256,49103,1,0,0:0:0:0:
168,256,49261,1,2,0:0:0:0:
40,200,49419,1,0,0:0:0:0:
168,200,49577,1,2,0:0:0:0:
40,136,49735,1,0,0:0:0:0:
320,136,49893,2,0,L|96:136,1,200,2|8,0:0|0:0,0:0:0:0:
328,304,50525,5,8,0:0:0:0:
488,72,50682,1,0,0:0:0:0:
440,72,50761,1,0,0:0:0:0:
400,72,50840,1,0,0:0:0:0:
304,72,50998,1,0,0:0:0:0:
208,72,51156,2,0,L|272:176,1,100,0|0,0:0|0:0,0:0:0:0:
301,160,51393,1,8,0:0:0:0:
341,160,51472,1,0,0:0:0:0:
56,120,51630,1,0,0:0:0:0:
288,120,51788,5,0,0:0:0:0:
320,176,51867,1,0,0:0:0:0:
376,200,51946,2,0,L|240:200,2,100,0|0|0,0:0|0:0|0:0,0:0:0:0:
320,232,52340,1,0,0:0:0:0:
288,272,52419,1,0,0:0:0:0:
144,296,52577,5,0,0:0:0:0:
232,296,52656,1,0,0:0:0:0:
320,296,52735,1,0,0:0:0:0:
368,296,52788,1,0,0:0:0:0:
400,296,52840,1,0,0:0:0:0:
416,296,52893,1,0,0:0:0:0:
280,296,52972,1,0,0:0:0:0:
248,296,53051,1,0,0:0:0:0:
112,192,53209,5,0,0:0:0:0:
136,192,53288,1,0,0:0:0:0:
160,192,53367,1,0,0:0:0:0:
432,192,53525,1,0,0:0:0:0:
304,192,53682,1,0,0:0:0:0:
272,144,53761,1,0,0:0:0:0:
200,192,53840,1,0,0:0:0:0:
168,144,53919,1,0,0:0:0:0:
88,144,53998,2,0,B|32:144|32:144|80:144,1,100
272,80,54314,5,0,0:0:0:0:
368,80,54472,1,0,0:0:0:0:
368,128,54630,1,0,0:0:0:0:
296,128,54709,1,0,0:0:0:0:
232,152,54788,1,0,0:0:0:0:
176,192,54867,1,0,0:0:0:0:
144,240,54946,2,0,P|168:288|224:272,1,100,0|0,0:0|0:0,0:0:0:0:
272,272,55182,5,0,0:0:0:0:
320,240,55261,1,0,0:0:0:0:
240,240,55340,1,0,0:0:0:0:
128,240,55498,1,0,0:0:0:0:
448,240,55577,1,8,0:0:0:0:
368,344,55893,5,0,0:0:0:0:
344,344,56051,1,0,0:0:0:0:
432,344,56130,1,0,0:0:0:0:
368,288,56209,1,0,0:0:0:0:
304,288,56288,1,0,0:0:0:0:
240,288,56367,1,0,0:0:0:0:
152,288,56446,1,0,0:0:0:0:
112,264,56525,1,0,0:0:0:0:
80,232,56603,1,0,0:0:0:0:
104,192,56682,1,0,0:0:0:0:
128,144,56761,1,0,0:0:0:0:
200,104,56840,5,0,0:0:0:0:
344,104,56998,1,0,0:0:0:0:
416,104,57077,1,0,0:0:0:0:
344,104,57156,1,0,0:0:0:0:
224,104,57314,1,0,0:0:0:0:
192,160,57367,1,0,0:0:0:0:
256,160,57472,5,0,0:0:0:0:
288,208,57525,1,0,0:0:0:0:
312,256,57577,1,0,0:0:0:0:
328,304,57630,1,0,0:0:0:0:
152,8,57709,1,0,0:0:0:0:
112,8,57788,5,0,0:0:0:0:
96,56,57840,1,0,0:0:0:0:
80,104,57893,1,0,0:0:0:0:
64,152,57946,1,0,0:0:0:0:
48,192,57998,1,0,0:0:0:0:
32,232,58051,1,0,0:0:0:0:
16,280,58103,6,0,L|80:384,1,100,0|0,0:0|0:0,0:0:0:0:
144,368,58340,1,0,0:0:0:0:
216,368,58419,1,0,0:0:0:0:
96,336,58577,1,0,0:0:0:0:
56,336,58656,1,0,0:0:0:0:
48,336,58735,1,0,0:0:0:0:
128,176,58814,1,0,0:0:0:0:
200,176,58893,1,0,0:0:0:0:
272,176,58972,1,0,0:0:0:0:
416,8,59051,5,0,0:0:0:0:
432,48,59103,1,0,0:0:0:0:
448,88,59156,1,0,0:0:0:0:
464,136,59209,1,0,0:0:0:0:
480,176,59261,1,0,0:0:0:0:
496,216,59314,1,0,0:0:0:0:
512,248,59367,6,0,L|448:352,1,100,0|0,0:0|0:0,0:0:0:0:
400,328,59603,1,0,0:0:0:0:
360,296,59682,1,0,0:0:0:0:
336,272,59761,1,0,0:0:0:0:
304,240,59840,1,0,0:0:0:0:
312,200,59919,1,0,0:0:0:0:
336,200,59998,1,0,0:0:0:0:
352,160,60077,1,0,0:0:0:0:
136,152,60156,1,0,0:0:0:0:
448,160,60314,5,8,0:0:0:0:
400,32,60630,5,0,0:0:0:0:
304,32,60788,1,0,0:0:0:0:
432,96,60946,1,2,0:0:0:0:
304,96,61103,1,0,0:0:0:0:
472,152,61261,1,0,0:0:0:0:
304,152,61419,1,2,0:0:0:0:
208,32,61577,5,0,0:0:0:0:
112,32,61735,1,0,0:0:0:0:
208,96,61893,1,0,0:0:0:0:
80,96,62051,1,2,0:0:0:0:
208,152,62209,1,0,0:0:0:0:
40,152,62367,1,0,0:0:0:0:
264,152,62525,5,0,0:0:0:0:
304,176,62577,1,0,0:0:0:0:
352,208,62630,1,0,0:0:0:0:
392,248,62682,1,0,0:0:0:0:
432,296,62735,1,0,0:0:0:0:
464,344,62788,1,0,0:0:0:0:
480,376,62840,2,0,L|328:376,1,150.000005722046,0|0,0:0|0:0,0:0:0:0:
40,48,63156,5,0,1:0:0:0:
8,96,63314,1,0,0:0:0:0:
160,104,63472,2,0,L|224:232,1,100,2|0,0:0|0:0,0:0:0:0:
104,192,63788,1,0,0:0:0:0:
72,240,63946,1,0,0:0:0:0:
224,248,64103,2,0,L|272:352,1,100,8|0,0:0|0:0,0:0:0:0:
168,344,64419,1,0,0:0:0:0:
136,368,64577,1,0,0:0:0:0:
344,368,64735,2,0,L|392:264,1,100,0|0,0:0|0:0,0:0:0:0:
472,280,65209,5,0,0:0:0:0:
160,272,65367,1,4,1:2:0:0:
280,152,65682,6,0,L|256:48,1,100,8|0,0:0|0:0,0:0:0:0:
184,104,65919,2,0,L|194:154,1,50,0|8,0:0|0:0,0:0:0:0:
48,240,66156,2,0,L|72:136,1,100,8|0,0:0|0:0,0:0:0:0:
136,192,66393,2,0,L|127:242,1,50,0|8,0:0|0:0,0:0:0:0:
360,240,66630,1,0,0:0:0:0:
408,24,66946,5,8,0:0:0:0:
312,32,67025,1,0,0:0:0:0:
248,80,67103,1,2,0:0:0:0:
216,152,67182,1,0,0:0:0:0:
256,216,67261,2,0,P|288:256|368:256,1,100,8|8,0:0|0:0,0:0:0:0:
480,248,67577,1,2,0:0:0:0:
480,248,67893,1,8,0:0:0:0:
224,232,68209,6,0,L|200:336,1,100,8|0,0:0|0:0,0:0:0:0:
112,152,68446,2,0,L|88:224,1,50,0|0,0:0|0:0,0:0:0:0:
160,216,68682,2,0,L|192:344,1,100,8|0,0:0|0:0,0:0:0:0:
56,160,68919,2,0,L|72:240,1,50,0|8,0:0|0:0,0:0:0:0:
472,208,69314,1,2,0:0:0:0:
320,208,69472,5,2,0:0:0:0:
376,208,69630,1,0,0:0:0:0:
400,160,69709,1,0,0:0:0:0:
424,112,69788,1,8,0:0:0:0:
192,104,69946,1,2,0:0:0:0:
168,152,70025,1,0,0:0:0:0:
144,200,70103,1,0,0:0:0:0:
376,272,70261,1,2,0:0:0:0:
328,352,70419,1,0,0:0:0:0:
256,264,70735,5,4,0:0:0:0:
176,264,71051,1,4,0:0:0:0:
56,264,71367,1,4,0:0:0:0:
216,264,71682,1,4,0:0:0:0:
416,264,71998,1,4,0:0:0:0:
176,208,72314,1,4,0:0:0:0:
456,208,72630,1,4,0:0:0:0:
136,208,72946,1,4,0:0:0:0:
400,80,73261,5,4,0:0:0:0:
256,80,73419,1,0,0:0:0:0:
112,80,73577,1,4,0:0:0:0:
256,136,73735,1,0,0:0:0:0:
360,136,73893,1,4,0:0:0:0:
256,192,74051,1,0,0:0:0:0:
152,136,74209,1,4,0:0:0:0:
256,248,74367,1,0,0:0:0:0:
400,192,74525,1,0,0:0:0:0:
320,56,74682,5,0,0:0:0:0:
264,56,74761,1,0,0:0:0:0:
224,56,74840,1,0,0:0:0:0:
184,56,74919,1,0,0:0:0:0:
160,56,74998,1,0,0:0:0:0:
136,56,75077,1,0,0:0:0:0:
120,56,75156,1,0,0:0:0:0:
112,56,75235,1,0,0:0:0:0:
104,56,75314,1,0,0:0:0:0:
104,56,75393,1,0,0:0:0:0:
408,56,75472,1,0,1:0:0:0:
352,128,75788,5,0,0:0:0:0:
120,128,75946,1,0,0:0:0:0:
64,128,76025,1,0,0:0:0:0:
152,192,76261,1,0,0:0:0:0:
384,192,76419,1,0,0:0:0:0:
440,192,76498,1,0,0:0:0:0:
312,152,76735,5,0,0:0:0:0:
160,152,76893,1,0,0:0:0:0:
128,152,76972,1,0,0:0:0:0:
160,208,77051,1,0,0:0:0:0:
40,208,77209,1,0,0:0:0:0:
248,208,77367,1,0,0:0:0:0:
296,208,77446,1,0,0:0:0:0:
344,208,77525,1,0,0:0:0:0:
448,208,77682,6,0,L|392:296,1,100
304,296,77998,1,0,0:0:0:0:
80,288,78156,2,0,L|40:344,2,50,2|0|2,0:0|0:0|0:0,0:0:0:0:
304,88,78472,1,0,0:0:0:0:
424,88,78630,1,0,0:0:0:0:
376,120,78709,1,0,0:0:0:0:
328,152,78788,1,2,0:0:0:0:
280,184,78867,1,0,0:0:0:0:
120,192,78946,6,0,L|72:96,1,100,2|0,0:0|0:0,0:0:0:0:
248,96,79182,2,0,B|360:48,1,100,2|0,0:0|0:0,0:0:0:0:
448,56,79419,1,0,0:0:0:0:
360,72,79577,5,0,0:0:0:0:
312,128,79735,1,2,0:0:0:0:
280,176,79814,1,0,0:0:0:0:
232,200,79893,1,0,0:0:0:0:
184,216,79972,1,0,0:0:0:0:
136,224,80051,1,0,0:0:0:0:
240,224,80209,6,0,L|192:136,1,100,0|0,0:0|0:0,0:0:0:0:
72,128,80525,2,0,L|128:32,1,100,0|0,0:0|0:0,0:0:0:0:
384,48,80840,1,0,0:0:0:0:
56,40,80998,1,0,0:0:0:0:
104,40,81156,5,0,0:0:0:0:
152,40,81235,1,0,0:0:0:0:
200,40,81314,1,0,0:0:0:0:
456,40,81472,1,0,0:0:0:0:
176,96,81630,1,0,0:0:0:0:
104,144,81788,1,0,0:0:0:0:
72,192,81867,1,0,0:0:0:0:
40,240,81946,1,0,0:0:0:0:
384,248,82103,5,0,0:0:0:0:
144,240,82261,1,0,0:0:0:0:
72,240,82419,2,0,L|128:336,1,100,0|0,0:0|0:0,0:0:0:0:
232,328,82735,2,0,L|288:232,1,100,0|0,0:0|0:0,0:0:0:0:
384,304,83051,1,0,0:0:0:0:
152,296,83209,5,0,0:0:0:0:
136,264,83248,1,0,0:0:0:0:
120,224,83288,1,0,0:0:0:0:
104,176,83327,1,0,0:0:0:0:
88,128,83367,1,8,0:0:0:0:
440,176,83525,5,0,0:0:0:0:
496,176,83603,1,0,0:0:0:0:
440,120,83682,1,0,0:0:0:0:
336,120,83840,1,0,0:0:0:0:
80,120,83998,1,0,0:0:0:0:
24,176,84235,1,0,0:0:0:0:
176,176,84472,1,0,0:0:0:0:
320,176,84630,1,0,0:0:0:0:
80,184,84788,5,0,0:0:0:0:
24,232,84867,1,0,0:0:0:0:
80,232,84946,1,0,0:0:0:0:
136,232,85025,1,0,0:0:0:0:
192,232,85103,1,0,0:0:0:0:
224,280,85182,1,0,0:0:0:0:
248,320,85261,1,0,0:0:0:0:
272,368,85340,1,0,0:0:0:0:
312,320,85419,1,0,0:0:0:0:
352,288,85498,1,0,0:0:0:0:
400,264,85577,1,0,0:0:0:0:
176,272,85735,5,0,0:0:0:0:
128,232,85814,1,0,0:0:0:0:
80,184,85893,1,0,0:0:0:0:
32,136,85972,1,0,0:0:0:0:
96,136,86051,1,0,0:0:0:0:
160,136,86130,1,0,0:0:0:0:
216,136,86209,1,0,0:0:0:0:
248,136,86288,1,0,0:0:0:0:
272,136,86367,1,0,0:0:0:0:
296,136,86446,1,0,0:0:0:0:
328,136,86525,5,0,0:0:0:0:
368,136,86603,1,0,0:0:0:0:
408,176,86682,1,0,0:0:0:0:
432,224,86761,1,0,0:0:0:0:
416,272,86840,1,0,0:0:0:0:
376,312,86919,1,0,0:0:0:0:
328,336,86998,1,0,0:0:0:0:
280,336,87077,1,0,0:0:0:0:
176,336,87156,6,0,L|200:248,1,75.0000028610231,0|0,0:0|0:0,0:0:0:0:
280,272,87314,2,0,L|304:192,1,75.0000028610231,0|0,0:0|0:0,0:0:0:0:
384,200,87472,2,0,L|408:120,1,75.0000028610231,0|0,0:0|0:0,0:0:0:0:
488,128,87630,2,0,L|512:48,1,75.0000028610231,0|0,0:0|0:0,0:0:0:0:
440,56,87788,1,0,1:0:0:0:
344,64,87946,5,0,0:0:0:0:
160,64,88103,1,0,0:0:0:0:
312,64,88261,1,0,0:0:0:0:
208,64,88419,5,8,0:0:0:0:
128,248,88577,1,2,0:0:0:0:
152,192,88656,1,2,0:0:0:0:
176,136,88735,1,8,0:0:0:0:
320,240,88893,1,8,0:0:0:0:
368,200,88972,1,0,0:0:0:0:
320,168,89051,1,0,0:0:0:0:
72,168,89209,1,0,0:0:0:0:
96,104,89367,2,0,P|121:53|208:104,1,100,0|0,0:0|0:0,0:0:0:0:
280,48,89682,5,8,0:0:0:0:
184,104,89840,1,2,0:0:0:0:
160,152,89919,1,2,0:0:0:0:
136,200,89998,1,8,0:0:0:0:
416,200,90156,1,8,0:0:0:0:
336,200,90314,1,0,0:0:0:0:
232,200,90472,1,0,0:0:0:0:
208,240,90551,1,0,0:0:0:0:
232,264,90630,2,0,L|96:264,1,100,8|0,0:0|0:0,0:0:0:0:
8,344,90946,5,8,0:0:0:0:
152,344,91103,1,2,0:0:0:0:
80,344,91182,1,2,0:0:0:0:
8,344,91261,1,8,0:0:0:0:
256,344,91419,1,8,0:0:0:0:
360,344,91577,1,2,0:0:0:0:
416,344,91656,1,2,0:0:0:0:
360,296,91735,2,0,P|304:240|328:200,1,100,8|0,0:0|0:0,0:0:0:0:
448,288,92051,1,0,0:0:0:0:
200,288,92209,5,8,0:0:0:0:
72,288,92367,1,2,0:0:0:0:
0,240,92446,1,2,0:0:0:0:
72,240,92525,1,8,0:0:0:0:
328,240,92682,1,2,0:0:0:0:
432,192,92840,1,8,0:0:0:0:
488,104,92998,1,8,0:0:0:0:
448,72,93156,2,0,L|344:72,1,100,0|0,0:0|0:0,0:0:0:0:
96,72,93472,5,8,0:0:0:0:
256,72,93630,1,2,0:0:0:0:
232,112,93709,1,2,0:0:0:0:
208,152,93788,1,8,0:0:0:0:
96,160,93946,1,8,0:0:0:0:
352,168,94103,1,2,0:0:0:0:
400,208,94182,1,2,0:0:0:0:
432,248,94261,2,0,L|352:312,2,100,8|0|0,0:0|0:0|0:0,0:0:0:0:
280,248,94735,5,8,0:0:0:0:
128,248,94893,1,2,0:0:0:0:
152,288,94972,1,0,0:0:0:0:
176,328,95051,1,8,0:0:0:0:
280,344,95209,1,8,0:0:0:0:
40,336,95367,1,2,0:0:0:0:
368,344,95525,1,8,0:0:0:0:
464,344,95682,2,0,L|432:196,1,150,0|0,0:0|0:0,0:0:0:0:
352,200,95998,5,8,0:0:0:0:
416,120,96156,1,0,0:0:0:0:
448,80,96235,1,2,0:0:0:0:
304,72,96314,2,0,L|232:144,1,100,8|8,0:0|0:0,0:0:0:0:
192,192,96551,1,0,0:0:0:0:
88,192,96630,1,0,0:0:0:0:
24,256,96788,1,0,0:0:0:0:
432,264,96946,1,0,0:0:0:0:
296,264,97103,1,4,0:0:0:0:
144,56,97261,5,8,0:0:0:0:
104,80,97340,1,0,0:0:0:0:
88,128,97419,1,8,0:0:0:0:
200,128,97577,1,2,0:0:0:0:
336,128,97735,1,8,0:0:0:0:
424,184,97893,1,8,0:0:0:0:
456,272,98051,1,2,0:0:0:0:
296,280,98209,2,0,L|256:184,1,100,8|0,0:0|0:0,0:0:0:0:
144,112,98525,5,8,0:0:0:0:
48,112,98682,1,2,0:0:0:0:
32,152,98761,1,2,0:0:0:0:
16,192,98840,1,8,0:0:0:0:
368,200,98998,1,8,0:0:0:0:
440,224,99077,1,0,0:0:0:0:
496,272,99156,1,0,0:0:0:0:
440,312,99235,1,0,0:0:0:0:
368,336,99314,1,8,0:0:0:0:
136,272,99472,2,0,L|236:272,1,100,0|0,0:0|0:0,0:0:0:0:
120,96,99788,5,0,0:0:0:0:
408,104,99946,1,0,0:0:0:0:
360,104,100025,1,0,0:0:0:0:
312,104,100103,1,0,0:0:0:0:
32,96,100261,1,0,0:0:0:0:
128,96,100419,1,0,0:0:0:0:
224,96,100577,2,0,L|336:96,2,100,0|0|0,0:0|0:0|0:0,0:0:0:0:
480,104,101051,6,0,L|432:200,1,100,0|0,0:0|0:0,0:0:0:0:
368,192,101288,1,0,0:0:0:0:
304,192,101367,1,0,0:0:0:0:
56,192,101525,1,0,0:0:0:0:
80,272,101682,1,0,0:0:0:0:
128,312,101761,1,0,0:0:0:0:
184,336,101840,2,0,P|225:317|256:272,1,100,0|0,0:0|0:0,0:0:0:0:
488,296,102156,1,0,0:0:0:0:
200,288,102314,5,0,0:0:0:0:
72,288,102472,1,0,0:0:0:0:
40,240,102551,1,0,0:0:0:0:
8,192,102630,1,0,0:0:0:0:
168,192,102788,1,0,0:0:0:0:
112,192,102946,1,0,0:0:0:0:
224,192,103103,1,0,0:0:0:0:
424,192,103261,2,0,L|324:192,1,100,0|0,0:0|0:0,0:0:0:0:
256,24,103577,5,0,0:0:0:0:
152,24,103735,1,0,0:0:0:0:
128,80,103814,1,0,0:0:0:0:
104,136,103893,1,0,0:0:0:0:
400,136,104051,1,0,0:0:0:0:
168,136,104209,1,0,0:0:0:0:
144,192,104288,1,0,0:0:0:0:
120,248,104367,2,0,L|256:248,2,100,0|0|0,0:0|0:0|0:0,0:0:0:0:
272,248,104840,5,0,0:0:0:0:
416,256,104998,1,0,0:0:0:0:
376,296,105077,1,0,0:0:0:0:
336,336,105156,1,0,0:0:0:0:
144,328,105314,1,0,0:0:0:0:
280,328,105472,1,0,0:0:0:0:
184,328,105630,1,0,0:0:0:0:
328,328,105788,2,0,L|360:180,1,150,0|0,0:0|0:0,0:0:0:0:
208,144,106103,5,0,0:0:0:0:
104,128,106261,1,0,0:0:0:0:
72,80,106340,1,0,0:0:0:0:
128,80,106419,2,0,L|208:144,1,100,0|0,0:0|0:0,0:0:0:0:
312,176,106735,1,0,0:0:0:0:
344,208,106814,1,0,0:0:0:0:
376,240,106893,1,0,0:0:0:0:
80,264,107051,1,0,0:0:0:0:
192,264,107209,1,0,0:0:0:0:
112,208,107367,5,0,0:0:0:0:
176,208,107446,1,0,0:0:0:0:
240,208,107525,1,0,0:0:0:0:
456,208,107682,1,0,0:0:0:0:
304,200,107840,1,0,0:0:0:0:
256,160,107998,1,0,0:0:0:0:
208,120,108156,1,0,0:0:0:0:
432,128,108314,2,0,L|472:224,1,100,0|0,0:0|0:0,0:0:0:0:
256,192,108630,12,0,109419,0:0:0:0:
256,192,109577,5,0,0:0:0:0:
192,280,109893,5,0,0:0:0:0:
144,280,109972,1,0,0:0:0:0:
112,280,110051,1,0,0:0:0:0:
128,344,110130,1,0,0:0:0:0:
168,344,110209,1,0,0:0:0:0:
200,344,110288,1,0,0:0:0:0:
224,344,110367,1,0,0:0:0:0:
240,344,110446,1,0,0:0:0:0:
248,344,110525,1,2,0:0:0:0:
176,344,110682,5,0,0:0:0:0:
472,344,110840,1,8,0:0:0:0:
48,280,111156,6,0,L|8:168,1,100,0|0,0:0|0:0,0:0:0:0:
64,144,111393,1,0,0:0:0:0:
112,104,111472,1,0,0:0:0:0:
312,112,111630,1,0,0:0:0:0:
448,112,111788,1,0,0:0:0:0:
344,168,111946,2,0,L|464:168,1,100,0|0,0:0|0:0,0:0:0:0:
312,224,112261,1,0,0:0:0:0:
96,224,112419,5,0,0:0:0:0:
64,184,112498,1,0,0:0:0:0:
32,144,112577,1,0,0:0:0:0:
168,144,112735,2,0,L|304:144,1,100,0|0,0:0|0:0,0:0:0:0:
232,208,112972,2,0,L|368:208,1,100,0|0,0:0|0:0,0:0:0:0:
368,272,113209,2,0,L|144:272,1,200,8|0,0:0|0:0,0:0:0:0:
256,24,113682,5,0,0:0:0:0:
152,24,113840,1,0,0:0:0:0:
128,80,113919,1,0,0:0:0:0:
104,136,113998,1,0,0:0:0:0:
400,136,114156,1,0,0:0:0:0:
168,136,114314,1,0,0:0:0:0:
144,192,114393,1,0,0:0:0:0:
120,248,114472,2,0,L|256:248,2,100,0|0|0,0:0|0:0|0:0,0:0:0:0:
272,248,114945,5,0,0:0:0:0:
416,256,115103,1,0,0:0:0:0:
376,296,115182,1,0,0:0:0:0:
336,336,115261,1,0,0:0:0:0:
144,328,115419,1,0,0:0:0:0:
280,328,115577,1,0,0:0:0:0:
184,328,115735,1,0,0:0:0:0:
328,328,115893,2,0,L|360:180,1,150,0|0,0:0|0:0,0:0:0:0:
208,144,116208,5,0,0:0:0:0:
104,128,116366,1,0,0:0:0:0:
72,80,116445,1,0,0:0:0:0:
128,80,116524,2,0,L|208:144,1,100,0|0,0:0|0:0,0:0:0:0:
312,176,116840,1,0,0:0:0:0:
344,208,116919,1,0,0:0:0:0:
376,240,116998,1,0,0:0:0:0:
80,264,117156,1,0,0:0:0:0:
192,264,117314,1,0,0:0:0:0:
112,208,117472,5,0,0:0:0:0:
176,208,117551,1,0,0:0:0:0:
240,208,117630,1,0,0:0:0:0:
456,208,117787,1,0,0:0:0:0:
320,208,117946,2,0,L|264:112,1,100
208,120,118261,5,0,0:0:0:0:
48,120,118419,2,0,L|88:216,1,100,0|0,0:0|0:0,0:0:0:0:
256,192,118735,12,2,123788,0:0:0:0:
208,192,124103,5,2,0:0:0:0:
296,192,124419,1,2,0:0:0:0:
168,112,124893,1,2,0:0:0:0:
256,112,124946,1,0,0:0:0:0:
344,112,124998,1,2,0:0:0:0:
