osu file format v14

[General]
AudioFilename: Evanescent.mp3
AudioLeadIn: 0
PreviewTime: 87946
Countdown: 0
SampleSet: Soft
StackLeniency: 0.7
Mode: 2
LetterboxInBreaks: 0
WidescreenStoryboard: 1

[Editor]
Bookmarks: 92209
DistanceSpacing: 1
BeatDivisor: 4
GridSize: 8
TimelineZoom: 2.5

[Metadata]
Title:Evanescent
TitleUnicode:Evanescent
Artist:LeaF
ArtistUnicode:LeaF
Creator:Krah
Version:Platter
Source:BMS
Tags:post drum n bass and drum'n'bass sengoku sen-goku sen goku optie Spectator CLSW Crystal Cherry Blossom dialgadu77 sayaka- sayaka Nozhomi Kin Secretpipe
BeatmapID:435863
BeatmapSetID:176646

[Difficulty]
HPDrainRate:5
CircleSize:3.6
OverallDifficulty:8
ApproachRate:8
SliderMultiplier:1.8
SliderTickRate:1

[Events]
//Background and Video events
Video,-443,"Evanescent-HD~2.avi"
0,0,"evanescent.jpg",0,0
//Break Periods
2,60514,61775
//Storyboard Layer 0 (Background)
//Storyboard Layer 1 (Fail)
//Storyboard Layer 2 (Pass)
//Storyboard Layer 3 (Foreground)
//Storyboard Sound Samples

[TimingPoints]
2525,315.789473684211,4,2,5,70,1,0
11209,-100,4,3,5,70,0,0
11525,-100,4,2,5,70,0,0
12314,-66.6666666666667,4,2,5,70,0,0
12788,-100,4,2,5,70,0,0
21314,-100,4,3,5,70,0,0
21393,-100,4,2,5,70,0,0
22419,-66.6666666666667,4,2,5,70,0,0
22893,-100,4,2,5,70,0,0
29051,-66.6666666666667,4,2,5,70,0,0
29998,-100,4,2,5,70,0,0
34104,-100,4,2,5,70,0,0
36156,-100,4,2,5,70,0,0
41525,-100,4,3,5,70,0,0
41683,-100,4,2,5,70,0,0
50525,-100,4,1,5,40,0,0
55578,-100,4,2,5,70,0,0
55893,-100,4,1,5,40,0,0
57788,-100,4,1,5,5,0,0
58104,-100,4,1,5,40,0,0
60630,-100,4,2,5,40,0,0
63630,-100,4,1,5,40,0,0
63709,-100,4,2,5,40,0,0
69314,-100,4,3,5,60,0,0
69630,-100,4,2,5,40,0,0
70420,-100,4,2,5,70,0,0
70735,-100,4,3,5,70,0,0
74525,-100,4,1,5,60,0,0
74630,-100,4,2,5,60,0,0
75788,-100,4,1,5,60,0,0
78156,-100,4,2,5,60,0,0
78472,-100,4,1,5,60,0,0
79025,-100,4,2,5,60,0,0
79183,-100,4,1,5,60,0,0
79499,-100,4,2,5,60,0,0
83999,-100,4,2,5,70,0,0
87156,-66.6666666666667,4,2,5,70,0,0
87946,-100,4,2,5,70,0,0
88419,-100,4,2,5,70,0,1
97104,-100,4,3,5,70,0,1
97262,-100,4,2,5,70,0,1
108630,-100,4,2,5,70,0,0
111156,-100,4,2,5,70,0,1
118735,-100,4,2,5,70,0,0

[Colours]
Combo1 : 231,224,99
Combo2 : 82,85,199
Combo3 : 226,125,65
Combo4 : 129,66,132
Combo5 : 84,208,81

[HitObjects]
312,192,7577,5,8,0:0:0:0:
256,264,7735,1,0,0:0:0:0:
192,336,7893,2,0,P|136:376|104:360,2,90,2|8|0,0:0|0:0|0:0,0:0:0:0:
256,336,8367,1,0,0:0:0:0:
432,328,8525,1,2,0:0:0:0:
320,200,8840,5,8,0:0:0:0:
296,160,8998,1,2,0:0:0:0:
272,120,9156,2,0,L|400:120,1,90,2|2,0:0|0:0,0:0:0:0:
272,72,9472,1,8,0:0:0:0:
88,72,9788,1,8,0:0:0:0:
240,248,10103,5,10,0:0:0:0:
200,272,10261,1,0,0:0:0:0:
160,296,10419,2,0,L|280:296,1,90,0|10,0:0|0:0,0:0:0:0:
184,328,10735,1,0,0:0:0:0:
144,352,10893,1,0,0:0:0:0:
360,352,11209,1,2,0:0:0:0:
472,192,11367,5,2,0:0:0:0:
424,152,11525,1,0,0:0:0:0:
384,120,11682,2,0,L|520:72,1,135,8|0,0:0|0:0,0:0:0:0:
424,80,11998,2,0,L|288:128,1,135,8|0,0:0|0:0,0:0:0:0:
224,128,12314,2,0,P|112:144|176:256,1,270.000010299683,2|2,0:0|0:0,0:0:0:0:
336,184,12788,5,2,0:0:0:0:
296,240,12946,1,8,0:0:0:0:
424,240,13103,1,8,0:0:0:0:
464,296,13261,1,2,0:0:0:0:
296,304,13419,2,0,L|248:400,2,90,8|0|0,0:0|0:0|0:0,0:0:0:0:
184,304,13893,5,8,0:0:0:0:
48,304,14051,2,0,L|16:392,1,90,2|2,0:0|0:0,0:0:0:0:
184,224,14367,1,8,0:0:0:0:
336,224,14525,2,0,L|176:128,1,180,8|0,0:0|0:0,0:0:0:0:
152,112,14919,1,0,0:0:0:0:
120,96,14998,1,0,0:0:0:0:
216,40,15156,6,0,L|216:136,1,90,8|2,0:0|0:0,0:0:0:0:
136,128,15472,1,8,0:0:0:0:
360,40,15630,2,0,L|360:144,1,90,8|2,0:0|0:0,0:0:0:0:
280,128,15946,1,8,0:0:0:0:
88,128,16261,1,2,0:0:0:0:
352,184,16419,5,8,0:0:0:0:
424,184,16577,1,8,0:0:0:0:
488,240,16735,2,0,L|368:240,1,90,8|8,0:0|0:0,0:0:0:0:
280,304,17051,2,0,L|424:304,1,135,8|8,0:0|0:0,0:0:0:0:
352,360,17367,1,4,0:0:0:0:
112,272,17682,6,0,L|64:360,1,90,8|2,0:0|0:0,0:0:0:0:
0,272,17998,1,10,0:0:0:0:
72,192,18156,2,0,L|120:272,1,90,2|8,0:0|0:0,0:0:0:0:
512,264,18630,1,2,0:0:0:0:
384,200,18946,5,2,0:0:0:0:
312,144,19103,1,2,0:0:0:0:
456,96,19261,2,0,L|384:40,1,90,2|8,0:0|0:0,0:0:0:0:
232,40,19577,1,8,0:0:0:0:
216,120,19893,1,2,0:0:0:0:
80,120,20209,6,0,L|152:176,1,90,8|2,0:0|0:0,0:0:0:0:
288,184,20525,1,8,0:0:0:0:
104,192,20682,2,0,L|176:248,1,90,0|0,0:0|0:0,0:0:0:0:
352,264,20998,1,0,0:0:0:0:
472,256,21314,1,2,0:0:0:0:
392,256,21472,6,0,L|328:256,2,45,2|0|0,0:0|0:0|0:0,0:0:0:0:
304,256,21788,2,0,L|408:352,1,135,8|0,0:0|0:0,0:0:0:0:
328,344,22104,2,0,L|184:336,1,135,8|0,0:0|0:0,0:0:0:0:
136,248,22420,2,0,P|24:232|88:120,1,270.000010299683,2|2,0:0|0:0,0:0:0:0:
192,120,22893,5,2,0:0:0:0:
168,184,23051,1,8,0:0:0:0:
312,120,23208,1,8,0:0:0:0:
280,192,23366,1,2,0:0:0:0:
240,264,23524,2,0,L|136:264,2,90,8|0|0,0:0|0:0|0:0,0:0:0:0:
400,144,23998,5,8,0:0:0:0:
488,96,24156,2,0,L|384:96,1,90,2|2,0:0|0:0,0:0:0:0:
352,56,24472,1,8,0:0:0:0:
304,96,24630,1,8,0:0:0:0:
72,96,24946,1,8,0:0:0:0:
88,128,25025,1,0,0:0:0:0:
64,144,25103,1,0,0:0:0:0:
176,168,25261,6,0,L|232:248,1,90,8|2,0:0|0:0,0:0:0:0:
136,248,25577,1,8,0:0:0:0:
304,240,25735,2,0,L|368:328,1,90,8|2,0:0|0:0,0:0:0:0:
448,312,26051,5,8,0:0:0:0:
184,304,26209,2,0,L|104:224,1,90
40,48,26525,6,0,L|80:232,1,180,8|0,0:0|0:0,0:0:0:0:
256,224,26998,2,0,L|208:32,1,180,8|0,0:0|0:0,0:0:0:0:
416,136,27472,2,0,L|480:64,1,90,8|0,0:0|0:0,0:0:0:0:
256,192,27788,12,0,28893,0:0:0:0:
200,200,29051,6,0,L|352:200,1,135.000005149842
320,144,29288,2,0,L|184:144,1,135.000005149842
208,88,29525,2,0,L|360:88,1,135.000005149842
320,264,29761,2,0,L|168:264,1,135.000005149842
336,328,29998,1,0,0:0:0:0:
256,192,30314,12,0,31419,0:0:0:0:
280,176,31577,6,0,L|320:144,4,45
88,128,32209,1,0,0:0:0:0:
512,128,32525,1,0,0:0:0:0:
256,192,32840,12,0,33946,0:0:0:0:
216,176,34103,6,0,L|296:168,12,45
256,192,35367,12,0,35998,0:0:0:0:
392,104,36156,6,0,L|416:192,1,90,8|0,0:0|0:0,0:0:0:0:
136,192,36472,1,2,0:0:0:0:
48,192,36630,2,0,L|72:280,1,90,8|0,0:0|0:0,0:0:0:0:
304,192,36946,1,2,0:0:0:0:
384,192,37103,1,0,0:0:0:0:
256,192,37261,2,0,P|200:256|184:136,1,270,8|0,0:0|0:0,0:0:0:0:
280,136,37893,5,8,0:0:0:0:
320,176,38051,1,2,0:0:0:0:
360,208,38209,2,0,L|464:208,1,90,8|8,0:0|0:0,0:0:0:0:
320,256,38525,1,2,0:0:0:0:
184,312,38682,2,0,L|280:312,1,90,8|0,0:0|0:0,0:0:0:0:
88,304,39156,5,0,0:0:0:0:
120,224,39314,1,0,0:0:0:0:
272,224,39472,2,0,L|364:224,1,90,8|0,0:0|0:0,0:0:0:0:
400,224,39946,5,2,0:0:0:0:
112,224,40103,1,2,0:0:0:0:
208,120,40419,6,0,B|168:40,1,90,8|2,0:0|0:0,0:0:0:0:
336,120,40735,2,0,B|288:24,1,90,8|2,0:0|0:0,0:0:0:0:
112,40,41051,1,10,0:0:0:0:
280,88,41209,2,0,L|392:88,2,90,8|8|2,0:0|0:0|0:0,0:0:0:0:
48,88,41682,5,0,0:0:0:0:
136,136,41840,2,0,L|176:240,1,90,2|8,0:0|0:0,0:0:0:0:
272,216,42156,1,0,0:0:0:0:
304,296,42314,1,8,0:0:0:0:
48,304,42630,5,2,0:0:0:0:
160,216,42946,6,0,L|256:168,1,90,8|2,0:0|0:0,0:0:0:0:
136,136,43261,2,0,L|32:96,1,90,8|8,0:0|0:0,0:0:0:0:
192,112,43577,1,2,0:0:0:0:
312,104,43735,2,0,L|424:104,2,90,8|0|0,0:0|0:0|0:0,0:0:0:0:
176,112,44209,5,0,0:0:0:0:
264,160,44367,1,0,0:0:0:0:
128,176,44525,1,0,0:0:0:0:
208,216,44682,1,0,0:0:0:0:
296,248,44840,2,0,P|356:292|408:208,1,180
352,224,45314,5,0,0:0:0:0:
136,216,45472,2,0,L|80:120,1,90
0,136,45788,2,0,L|48:56,1,90,8|0,0:0|0:0,0:0:0:0:
160,64,46261,1,0,0:0:0:0:
288,64,46419,1,0,0:0:0:0:
160,120,46577,2,0,L|104:120,2,45
416,120,46893,5,0,0:0:0:0:
352,120,47051,1,8,0:0:0:0:
288,120,47130,2,0,L|432:120,1,135,0|8,0:0|0:0,0:0:0:0:
208,88,47603,5,2,0:0:0:0:
88,88,47840,1,2,0:0:0:0:
344,208,47998,5,8,0:0:0:0:
360,208,48156,1,8,0:0:0:0:
376,208,48314,1,8,0:0:0:0:
392,208,48472,1,8,0:0:0:0:
200,200,48788,5,0,0:0:0:0:
120,200,48946,1,2,0:0:0:0:
248,152,49103,2,0,L|152:152,1,90,0|2,0:0|0:0,0:0:0:0:
376,152,49419,1,0,0:0:0:0:
456,152,49577,1,2,0:0:0:0:
344,88,49735,2,0,L|440:88,1,90,0|2,0:0|0:0,0:0:0:0:
160,88,50209,1,8,0:0:0:0:
256,96,50525,5,8,0:0:0:0:
312,128,50682,2,0,L|360:216,1,90
272,208,50998,1,0,0:0:0:0:
352,208,51156,2,0,L|416:320,1,90
352,288,51393,1,8,0:0:0:0:
376,320,51472,1,0,0:0:0:0:
240,320,51630,1,0,0:0:0:0:
192,320,51788,6,0,L|104:320,1,45
80,320,51946,2,0,L|8:232,2,90
120,288,52340,1,0,0:0:0:0:
88,272,52419,1,0,0:0:0:0:
24,208,52577,5,0,0:0:0:0:
248,208,52735,1,0,0:0:0:0:
280,184,52814,1,0,0:0:0:0:
320,136,52893,1,0,0:0:0:0:
408,136,53051,1,0,0:0:0:0:
240,48,53209,6,0,L|296:80,2,45
152,96,53525,2,0,L|224:136,1,45
80,152,53761,1,0,0:0:0:0:
48,184,53840,1,0,0:0:0:0:
152,200,53998,2,0,L|112:248,2,45
288,208,54314,5,0,0:0:0:0:
432,208,54472,1,0,0:0:0:0:
360,208,54551,1,0,0:0:0:0:
408,264,54630,2,0,L|280:264,1,90,0|0,0:0|0:0,0:0:0:0:
144,240,54946,2,0,L|96:320,1,90
64,320,55182,5,0,0:0:0:0:
56,336,55261,1,0,0:0:0:0:
88,352,55340,1,0,0:0:0:0:
416,344,55577,1,8,0:0:0:0:
360,296,55893,5,0,0:0:0:0:
280,296,56051,2,0,L|224:192,1,90
288,216,56288,1,0,0:0:0:0:
352,216,56367,2,0,L|296:112,1,90
160,160,56682,1,0,0:0:0:0:
72,160,56840,6,0,L|192:160,1,90
48,224,57156,1,0,0:0:0:0:
144,224,57314,1,0,0:0:0:0:
24,272,57472,1,0,0:0:0:0:
48,312,57551,1,0,0:0:0:0:
88,352,57630,1,0,0:0:0:0:
392,352,57788,5,0,0:0:0:0:
416,328,57867,1,0,0:0:0:0:
432,304,57946,1,0,0:0:0:0:
448,272,58025,1,0,0:0:0:0:
424,280,58103,6,0,L|368:200,2,90
312,280,58577,1,0,0:0:0:0:
248,168,58735,1,0,0:0:0:0:
368,168,58893,1,0,0:0:0:0:
72,160,59051,5,0,0:0:0:0:
48,184,59130,1,0,0:0:0:0:
32,208,59209,1,0,0:0:0:0:
16,240,59288,1,0,0:0:0:0:
40,240,59367,6,0,L|144:240,1,90
88,288,59603,1,0,0:0:0:0:
168,288,59682,1,0,0:0:0:0:
304,288,59840,2,0,L|224:216,1,90
136,152,60156,1,0,0:0:0:0:
448,160,60314,1,8,0:0:0:0:
192,184,62525,6,0,L|224:184,6,22.5,0|0|0|0|0|0|0,0:0|0:0|0:0|0:0|0:0|0:0|0:0,0:0:0:0:
216,184,62840,2,0,P|136:200|192:272,1,180
336,280,63314,5,0,0:0:0:0:
400,280,63472,2,0,L|328:208,1,90,2|0,0:0|0:0,0:0:0:0:
208,112,63946,1,0,0:0:0:0:
112,112,64103,2,0,L|176:176,1,90,8|0,0:0|0:0,0:0:0:0:
352,176,64577,1,0,0:0:0:0:
480,176,64735,2,0,L|416:112,1,90,8|0,0:0|0:0,0:0:0:0:
152,136,65209,5,0,0:0:0:0:
400,128,65367,1,4,1:2:0:0:
336,152,65682,6,0,L|392:232,1,90,8|0,0:0|0:0,0:0:0:0:
256,232,65998,1,8,0:0:0:0:
128,224,66156,2,0,L|184:144,1,90,8|0,0:0|0:0,0:0:0:0:
360,240,66472,1,0,0:0:0:0:
168,232,66946,5,8,0:0:0:0:
272,232,67103,1,2,0:0:0:0:
112,296,67261,2,0,L|216:296,1,90,8|8,0:0|0:0,0:0:0:0:
293,296,67577,1,2,0:0:0:0:
488,240,67893,1,8,0:0:0:0:
360,240,68209,6,0,L|256:208,1,90,8|0,0:0|0:0,0:0:0:0:
336,176,68525,1,8,0:0:0:0:
400,136,68683,2,0,L|304:104,1,90,8|0,0:0|0:0,0:0:0:0:
48,120,68998,1,8,0:0:0:0:
112,120,69314,1,2,0:0:0:0:
280,120,69472,5,2,0:0:0:0:
200,120,69630,1,0,0:0:0:0:
320,120,69788,2,0,L|328:216,1,90,8|0,0:0|0:0,0:0:0:0:
472,120,70103,2,0,L|480:224,1,90,8|0,0:0|0:0,0:0:0:0:
224,160,70419,1,0,0:0:0:0:
256,192,70735,5,4,0:0:0:0:
512,192,71051,1,4,0:0:0:0:
256,192,71367,1,4,0:0:0:0:
0,192,71682,1,4,0:0:0:0:
256,192,71998,1,4,0:0:0:0:
512,192,72314,1,4,0:0:0:0:
256,192,72630,1,4,0:0:0:0:
0,192,72946,1,4,0:0:0:0:
256,136,73261,5,4,0:0:0:0:
352,136,73419,1,0,0:0:0:0:
448,136,73577,1,4,0:0:0:0:
352,136,73735,1,0,0:0:0:0:
256,136,73893,1,4,0:0:0:0:
160,136,74051,1,0,0:0:0:0:
64,136,74209,1,4,0:0:0:0:
160,136,74367,1,0,0:0:0:0:
256,136,74525,1,0,0:0:0:0:
280,64,74682,5,0,0:0:0:0:
311,88,74760,1,0,0:0:0:0:
325,125,74839,1,0,0:0:0:0:
317,165,74918,1,0,0:0:0:0:
289,193,74997,1,0,0:0:0:0:
250,203,75076,1,0,0:0:0:0:
212,190,75155,1,0,0:0:0:0:
187,159,75234,1,0,0:0:0:0:
182,119,75313,1,0,0:0:0:0:
199,83,75392,1,0,0:0:0:0:
233,62,75471,1,0,0:0:0:0:
280,176,75788,6,0,L|448:272,1,180
280,264,76261,2,0,L|448:360,1,180
312,352,76735,5,0,0:0:0:0:
232,352,76893,2,0,L|176:264,1,90
320,280,77209,1,0,0:0:0:0:
400,280,77367,2,0,L|448:192,1,90
216,216,77682,6,0,L|144:112,1,90
96,144,77998,1,0,0:0:0:0:
40,144,78156,2,0,L|96:224,1,90,2|2,0:0|0:0,0:0:0:0:
152,216,78472,1,0,0:0:0:0:
424,208,78630,1,0,0:0:0:0:
368,208,78946,6,0,L|328:128,1,90,2|0,0:0|0:0,0:0:0:0:
256,128,79182,1,4,0:0:0:0:
32,128,79419,1,4,0:0:0:0:
176,128,79577,5,0,0:0:0:0:
112,176,79735,1,2,0:0:0:0:
96,216,79814,1,0,0:0:0:0:
80,264,79893,2,0,L|176:264,1,90
408,256,80209,6,0,L|464:184,1,90
208,176,80525,2,0,L|152:88,1,90
80,104,80840,1,0,0:0:0:0:
160,32,80998,1,0,0:0:0:0:
328,40,81156,6,0,L|264:128,1,90
128,112,81472,1,0,0:0:0:0:
320,120,81630,1,0,0:0:0:0:
384,120,81788,2,0,L|456:216,1,90
320,200,82103,5,0,0:0:0:0:
144,200,82261,2,0,L|248:200,1,90
72,200,82577,2,0,L|128:280,1,90
168,272,82814,1,0,0:0:0:0:
144,304,82893,2,0,L|200:384,1,90
416,376,83209,1,0,0:0:0:0:
448,344,83288,1,0,0:0:0:0:
480,312,83367,1,8,0:0:0:0:
320,288,83525,6,0,L|432:288,2,90
168,288,83998,1,0,0:0:0:0:
416,288,84235,1,0,0:0:0:0:
168,184,84472,1,0,0:0:0:0:
408,176,84630,1,0,0:0:0:0:
448,152,84788,5,0,0:0:0:0:
480,112,84946,1,0,0:0:0:0:
472,64,85103,1,0,0:0:0:0:
440,24,85261,1,0,0:0:0:0:
400,8,85419,1,0,0:0:0:0:
352,8,85577,1,0,0:0:0:0:
128,40,85735,5,0,0:0:0:0:
64,64,85813,1,0,0:0:0:0:
32,120,85892,1,0,0:0:0:0:
40,184,85971,1,0,0:0:0:0:
88,232,86050,1,0,0:0:0:0:
152,232,86129,1,0,0:0:0:0:
208,200,86208,1,0,0:0:0:0:
232,136,86287,1,0,0:0:0:0:
208,72,86366,1,0,0:0:0:0:
148,41,86445,1,0,0:0:0:0:
192,208,86525,5,0,0:0:0:0:
232,208,86603,1,0,0:0:0:0:
272,208,86682,1,0,0:0:0:0:
312,208,86761,1,0,0:0:0:0:
352,208,86840,1,0,0:0:0:0:
392,184,86919,1,0,0:0:0:0:
440,152,86998,1,0,0:0:0:0:
480,120,87077,1,0,0:0:0:0:
416,64,87156,6,0,L|376:120,1,67.5000025749208
304,120,87314,2,0,L|264:176,1,67.5000025749208
192,168,87472,2,0,L|152:224,1,67.5000025749208
80,224,87630,2,0,L|40:280,1,67.5000025749208
128,280,87788,1,0,1:0:0:0:
384,280,87946,5,0,0:0:0:0:
400,240,88103,1,0,0:0:0:0:
416,192,88261,1,0,0:0:0:0:
304,192,88419,5,8,0:0:0:0:
72,184,88577,1,2,0:0:0:0:
56,184,88656,1,2,0:0:0:0:
40,184,88735,1,8,0:0:0:0:
120,184,88893,2,0,L|192:272,1,90,0|8,0:0|0:0,0:0:0:0:
56,256,89209,1,0,0:0:0:0:
208,248,89367,1,0,0:0:0:0:
312,248,89682,6,0,L|424:248,1,90,8|2,0:0|0:0,0:0:0:0:
448,176,89919,1,2,0:0:0:0:
392,96,89998,2,0,L|496:96,1,90,8|8,0:0|0:0,0:0:0:0:
232,96,90314,2,0,L|176:16,1,90
304,24,90630,1,8,0:0:0:0:
112,72,90946,5,8,0:0:0:0:
16,144,91103,1,2,0:0:0:0:
0,176,91182,1,2,0:0:0:0:
32,200,91261,1,8,0:0:0:0:
144,232,91419,1,8,0:0:0:0:
320,256,91577,1,2,0:0:0:0:
496,256,91735,2,0,L|432:184,1,90,8|0,0:0|0:0,0:0:0:0:
416,128,92051,1,0,0:0:0:0:
280,128,92209,5,8,0:0:0:0:
136,136,92367,1,2,0:0:0:0:
192,144,92446,1,2,0:0:0:0:
248,152,92525,1,8,0:0:0:0:
96,168,92682,1,2,0:0:0:0:
208,192,92840,1,8,0:0:0:0:
320,208,92998,1,8,0:0:0:0:
64,216,93156,2,0,L|0:136,1,90
104,88,93472,5,8,0:0:0:0:
200,96,93630,2,0,L|272:40,1,90,2|8,0:0|0:0,0:0:0:0:
104,48,93946,1,8,0:0:0:0:
264,40,94103,1,2,0:0:0:0:
416,32,94261,2,0,L|440:120,2,90,8|0|0,0:0|0:0|0:0,0:0:0:0:
312,120,94735,5,8,0:0:0:0:
448,120,94893,1,2,0:0:0:0:
488,160,94972,1,0,0:0:0:0:
472,200,95051,1,8,0:0:0:0:
392,280,95209,1,8,0:0:0:0:
144,280,95367,1,8,0:0:0:0:
128,224,95682,1,2,0:0:0:0:
288,32,95998,5,8,0:0:0:0:
128,32,96156,1,0,0:0:0:0:
168,72,96235,1,2,0:0:0:0:
128,112,96314,2,0,L|56:176,1,90,8|8,0:0|0:0,0:0:0:0:
296,176,96630,2,0,L|360:240,1,90
408,280,96946,1,0,0:0:0:0:
152,280,97103,1,4,0:0:0:0:
192,224,97261,5,8,0:0:0:0:
176,256,97340,1,0,0:0:0:0:
200,248,97419,1,8,0:0:0:0:
328,256,97577,1,2,0:0:0:0:
96,264,97735,2,0,L|64:216,3,45,8|0|8|0,0:0|0:0|0:0|0:0,0:0:0:0:
40,176,98051,1,2,0:0:0:0:
240,192,98209,2,0,L|288:112,1,90,8|0,0:0|0:0,0:0:0:0:
448,192,98525,5,8,0:0:0:0:
312,168,98682,1,2,0:0:0:0:
280,144,98761,1,2,0:0:0:0:
248,120,98840,1,8,0:0:0:0:
104,112,98998,2,0,L|168:48,1,90,8|0,0:0|0:0,0:0:0:0:
336,48,99314,1,8,0:0:0:0:
208,112,99472,2,0,L|272:48,1,90
40,48,99788,5,0,0:0:0:0:
112,80,99946,1,0,0:0:0:0:
144,128,100025,1,0,0:0:0:0:
176,168,100103,1,0,0:0:0:0:
0,168,100261,1,0,0:0:0:0:
168,168,100419,1,0,0:0:0:0:
160,216,100735,1,2,0:0:0:0:
360,208,101051,6,0,L|440:304,1,90
296,272,101367,1,0,0:0:0:0:
160,248,101525,2,0,B|96:288|96:288|160:272,1,135
208,272,101840,2,0,P|239:249|272:192,1,90
24,200,102156,1,0,0:0:0:0:
80,200,102314,5,8,0:0:0:0:
208,200,102472,1,2,0:0:0:0:
168,168,102551,1,2,0:0:0:0:
128,136,102630,1,8,0:0:0:0:
288,136,102788,1,2,0:0:0:0:
120,96,102945,1,8,0:0:0:0:
280,96,103103,1,0,0:0:0:0:
48,96,103261,2,0,L|0:176,1,90
104,296,103577,5,8,0:0:0:0:
200,288,103735,2,0,L|272:344,1,90,2|8,0:0|0:0,0:0:0:0:
104,336,104051,1,8,0:0:0:0:
264,344,104208,1,2,0:0:0:0:
416,352,104366,2,0,L|440:264,2,90,8|0|0,0:0|0:0|0:0,0:0:0:0:
312,264,104840,5,8,0:0:0:0:
448,264,104998,1,2,0:0:0:0:
488,224,105077,1,0,0:0:0:0:
472,184,105156,1,8,0:0:0:0:
392,104,105314,1,8,0:0:0:0:
144,104,105472,1,8,0:0:0:0:
128,160,105787,1,2,0:0:0:0:
288,352,106103,5,8,0:0:0:0:
128,352,106261,1,0,0:0:0:0:
168,312,106340,1,2,0:0:0:0:
128,272,106419,2,0,L|56:208,1,90,8|8,0:0|0:0,0:0:0:0:
296,208,106735,2,0,L|360:144,1,90
408,104,107051,1,0,0:0:0:0:
152,104,107208,1,4,0:0:0:0:
112,168,107367,5,0,0:0:0:0:
352,176,107525,1,0,0:0:0:0:
384,240,107682,1,0,0:0:0:0:
256,240,107840,2,0,B|168:239|168:239|264:240,1,180
120,240,108314,2,0,L|88:152,1,90
256,192,108630,12,0,109577,0:0:0:0:
248,160,109893,6,0,L|312:160,8,45,0|0|0|0|0|0|0|0|2,0:0|0:0|0:0|0:0|0:0|0:0|0:0|0:0|0:0,0:0:0:0:
104,160,110682,1,0,0:0:0:0:
400,160,110840,1,12,0:0:0:0:
264,160,111156,6,0,L|216:248,2,90,8|0|0,0:0|0:0|0:0,0:0:0:0:
104,160,111630,1,0,0:0:0:0:
248,112,111788,1,8,0:0:0:0:
80,112,111946,1,0,0:0:0:0:
56,64,112261,1,0,0:0:0:0:
304,72,112419,5,0,0:0:0:0:
328,96,112498,1,0,0:0:0:0:
360,120,112577,1,0,0:0:0:0:
216,120,112735,2,0,L|288:192,1,90
208,184,112972,1,8,0:0:0:0:
152,184,113051,1,0,0:0:0:0:
24,184,113209,2,0,P|47:273|128:304,1,180,8|0,0:0|0:0,0:0:0:0:
184,296,113682,5,8,0:0:0:0:
256,208,113840,1,0,0:0:0:0:
272,256,113919,1,0,0:0:0:0:
288,296,113998,1,0,0:0:0:0:
184,136,114156,2,0,L|280:136,1,90,8|0,0:0|0:0,0:0:0:0:
400,136,114472,1,0,0:0:0:0:
232,136,114630,2,0,L|360:136,1,90
200,264,114946,5,8,0:0:0:0:
64,264,115104,1,2,0:0:0:0:
24,224,115183,1,0,0:0:0:0:
40,184,115262,1,8,0:0:0:0:
120,104,115420,1,8,0:0:0:0:
368,104,115578,1,8,0:0:0:0:
384,160,115893,1,2,0:0:0:0:
264,160,116208,5,8,0:0:0:0:
104,160,116366,1,0,0:0:0:0:
96,200,116445,1,0,0:0:0:0:
88,240,116524,2,0,L|192:232,1,90
320,224,116840,1,0,0:0:0:0:
440,224,116998,2,0,L|384:144,1,90,0|8,0:0|0:0,0:0:0:0:
160,160,117314,1,8,0:0:0:0:
64,144,117472,5,8,0:0:0:0:
32,160,117551,1,0,0:0:0:0:
96,160,117630,1,0,0:0:0:0:
320,144,117787,1,0,0:0:0:0:
416,144,117946,2,0,L|464:232,1,90
208,232,118261,5,0,0:0:0:0:
120,232,118419,2,0,L|56:160,1,90,0|0,0:0|0:0,0:0:0:0:
256,192,118735,12,2,124998,0:0:0:0:
