osu file format v14

[General]
AudioFilename: Evanescent.mp3
AudioLeadIn: 0
PreviewTime: 87946
Countdown: 0
SampleSet: Soft
StackLeniency: 0.7
Mode: 2
LetterboxInBreaks: 0
WidescreenStoryboard: 0

[Editor]
Bookmarks: 7578,12314,12788,22419,22893,27788,35999,48630,50525,60630,65683,70735,75788,88420,103577,108630,113682,118735
DistanceSpacing: 1
BeatDivisor: 6
GridSize: 8
TimelineZoom: 2.3

[Metadata]
Title:Evanescent
TitleUnicode:Evanescent
Artist:LeaF
ArtistUnicode:LeaF
Creator:Krah
Version:Overdose
Source:BMS
Tags:post drum n bass and drum'n'bass sengoku sen-goku sen goku optie Spectator CLSW Crystal Cherry Blossom dialgadu77 sayaka- sayaka Nozhomi Kin Secretpipe
BeatmapID:454879
BeatmapSetID:176646

[Difficulty]
HPDrainRate:7
CircleSize:4
OverallDifficulty:9.3
ApproachRate:9.3
SliderMultiplier:2
SliderTickRate:1

[Events]
//Background and Video events
Video,-443,"Evanescent-HD~2.avi"
0,0,"evanescent.jpg",0,0
//Break Periods
//Storyboard Layer 0 (Background)
//Storyboard Layer 1 (Fail)
//Storyboard Layer 2 (Pass)
//Storyboard Layer 3 (Foreground)
//Storyboard Sound Samples

[TimingPoints]
2525,315.789473684211,4,2,5,70,1,0
11209,-100,4,3,5,70,0,0
11525,-100,4,2,5,70,0,0
12314,-66.6666666666667,4,2,5,70,0,0
12788,-100,4,2,5,70,0,0
21314,-100,4,3,5,70,0,0
21393,-100,4,2,5,70,0,0
22419,-66.6666666666667,4,2,5,70,0,0
22893,-100,4,2,5,70,0,0
29051,-66.6666666666667,4,2,5,70,0,0
29288,-57.1428571428571,4,2,5,70,0,0
29525,-50,4,2,5,70,0,0
29761,-40,4,2,5,70,0,0
30156,-100,4,2,5,70,0,0
34104,-100,4,2,5,70,0,0
36156,-100,4,2,5,70,0,0
41525,-100,4,3,5,70,0,0
41683,-100,4,2,5,70,0,0
50525,-100,4,1,5,40,0,0
55578,-100,4,2,5,70,0,0
55893,-100,4,1,5,40,0,0
57788,-100,4,1,5,5,0,0
58104,-100,4,1,5,40,0,0
60630,-100,4,2,5,40,0,0
63630,-100,4,1,5,40,0,0
63709,-100,4,2,5,40,0,0
69314,-100,4,3,5,60,0,0
69630,-100,4,2,5,40,0,0
70420,-100,4,2,5,70,0,0
70735,-100,4,3,5,70,0,0
74525,-100,4,1,5,60,0,0
74630,-100,4,2,5,60,0,0
75788,-100,4,1,5,60,0,0
78156,-100,4,2,5,60,0,0
78472,-100,4,1,5,60,0,0
78577,-100,4,1,5,60,0,0
78788,-100,4,2,5,60,0,0
78946,-100,4,1,5,60,0,0
79025,-100,4,2,5,60,0,0
79183,-100,4,1,5,60,0,0
79262,-100,4,2,5,60,0,0
79420,-100,4,1,5,60,0,0
79499,-100,4,2,5,60,0,0
83999,-100,4,2,5,70,0,0
87156,-66.6666666666667,4,2,5,70,0,0
87946,-100,4,2,5,70,0,0
88419,-100,4,2,5,70,0,1
97104,-100,4,3,5,70,0,1
97262,-100,4,2,5,70,0,1
108630,-100,4,2,5,70,0,0
111156,-100,4,2,5,70,0,1
118735,-100,4,2,5,70,0,0

[Colours]
Combo1 : 231,224,99
Combo2 : 82,85,199
Combo3 : 226,125,65
Combo4 : 129,66,132
Combo5 : 84,208,81

[HitObjects]
232,328,7577,5,8,0:0:0:0:
296,328,7656,1,0,0:0:0:0:
216,288,7735,1,0,0:0:0:0:
280,288,7814,1,2,0:0:0:0:
392,288,7893,2,0,L|520:288,2,100,2|8|0,0:0|0:0|0:0,0:0:0:0:
456,240,8367,1,0,0:0:0:0:
88,280,8525,2,0,L|200:160,1,150,2|0,0:0|0:0,0:0:0:0:
312,168,8840,5,8,0:0:0:0:
328,112,8919,1,0,0:0:0:0:
408,168,8998,1,2,0:0:0:0:
424,112,9077,1,2,0:0:0:0:
504,112,9156,2,0,L|384:48,1,100,2|6,0:0|0:0,0:0:0:0:
128,112,9472,1,8,0:0:0:0:
144,64,9788,1,8,0:0:0:0:
24,184,10103,5,10,0:0:0:0:
144,184,10261,1,0,0:0:0:0:
88,232,10340,1,0,0:0:0:0:
32,280,10419,2,0,L|168:280,1,100,0|10,0:0|0:0,0:0:0:0:
184,328,10656,1,0,0:0:0:0:
208,376,10735,1,0,0:0:0:0:
480,384,10893,1,0,0:0:0:0:
432,320,11209,1,2,0:0:0:0:
248,232,11367,5,2,0:0:0:0:
208,200,11446,1,0,0:0:0:0:
192,152,11525,1,0,0:0:0:0:
288,152,11682,1,0,0:0:0:0:
392,152,11840,1,0,0:0:0:0:
440,136,11919,1,0,0:0:0:0:
480,96,11998,1,0,0:0:0:0:
504,56,12077,1,0,0:0:0:0:
512,8,12156,1,0,0:0:0:0:
360,8,12314,2,0,L|40:8,1,300.000011444092,2|2,0:0|0:0,0:0:0:0:
168,144,12788,5,2,0:0:0:0:
216,144,12867,1,2,0:0:0:0:
160,192,12946,1,8,0:0:0:0:
264,192,13103,1,8,0:0:0:0:
320,192,13182,1,0,0:0:0:0:
280,240,13261,1,2,0:0:0:0:
336,240,13340,1,2,0:0:0:0:
128,240,13419,2,0,L|24:240,2,100,8|0|0,0:0|0:0|0:0,0:0:0:0:
264,360,13893,5,8,0:0:0:0:
368,304,14051,2,0,L|256:304,1,100,2|2,0:0|0:0,0:0:0:0:
416,304,14367,1,8,0:0:0:0:
312,360,14525,2,0,L|540:360,1,200,8|0,0:0|0:0,0:0:0:0:
304,360,14893,1,0,0:0:0:0:
288,360,14946,1,0,0:0:0:0:
264,360,14998,1,0,0:0:0:0:
232,360,15051,1,0,0:0:0:0:
96,32,15156,5,8,0:0:0:0:
336,32,15314,1,2,0:0:0:0:
360,32,15393,1,2,0:0:0:0:
384,32,15472,1,8,0:0:0:0:
488,32,15630,1,8,0:0:0:0:
224,32,15788,1,2,0:0:0:0:
200,32,15867,1,2,0:0:0:0:
176,32,15946,1,8,0:0:0:0:
416,32,16261,1,2,0:0:0:0:
288,32,16419,5,8,0:0:0:0:
328,200,16498,1,0,0:0:0:0:
344,152,16577,1,8,0:0:0:0:
248,152,16735,1,8,0:0:0:0:
144,152,16893,1,8,0:0:0:0:
96,136,16972,1,0,0:0:0:0:
56,96,17051,1,8,0:0:0:0:
32,56,17130,1,0,0:0:0:0:
24,8,17209,1,8,0:0:0:0:
32,232,17367,1,4,0:0:0:0:
232,232,17682,6,0,L|256:336,1,100,8|2,0:0|0:0,0:0:0:0:
328,280,17919,2,0,L|318:230,1,50,2|10,0:0|0:0,0:0:0:0:
464,144,18156,2,0,L|440:248,1,100,2|8,0:0|0:0,0:0:0:0:
376,192,18393,2,0,L|385:142,1,50,0|8,0:0|0:0,0:0:0:0:
152,144,18630,1,2,0:0:0:0:
48,24,18946,5,2,0:0:0:0:
200,32,19025,1,2,0:0:0:0:
264,80,19103,1,2,0:0:0:0:
296,152,19182,1,0,0:0:0:0:
256,216,19261,2,0,P|224:256|144:256,1,100,2|8,0:0|0:0,0:0:0:0:
32,248,19577,1,8,0:0:0:0:
32,248,19893,1,2,0:0:0:0:
232,232,20209,6,0,L|256:336,1,100,8|2,0:0|0:0,0:0:0:0:
400,152,20446,2,0,L|424:224,1,50,0|8,0:0|0:0,0:0:0:0:
296,216,20682,2,0,L|264:344,1,100,0|0,0:0|0:0,0:0:0:0:
464,160,20919,2,0,L|448:240,1,50,0|0,0:0|0:0,0:0:0:0:
40,208,21314,1,2,0:0:0:0:
296,216,21472,6,0,L|368:216,2,50,0|0|0,0:0|0:0|0:0,0:0:0:0:
224,152,21788,1,0,0:0:0:0:
120,152,21946,1,0,0:0:0:0:
72,136,22025,1,0,0:0:0:0:
32,96,22103,1,0,0:0:0:0:
8,56,22182,1,0,0:0:0:0:
0,8,22261,1,0,0:0:0:0:
152,8,22419,2,0,L|472:8,1,300.000011444092,0|0,0:0|0:0,0:0:0:0:
160,264,22893,5,0,0:0:0:0:
208,264,22972,1,0,0:0:0:0:
152,312,23051,1,0,0:0:0:0:
256,312,23209,1,8,0:0:0:0:
304,312,23288,1,0,0:0:0:0:
272,360,23367,1,0,0:0:0:0:
320,360,23446,1,0,0:0:0:0:
120,360,23525,2,0,L|16:360,2,100,0|0|0,0:0|0:0|0:0,0:0:0:0:
232,160,23998,5,8,0:0:0:0:
336,104,24156,2,0,L|224:104,1,100,2|8,0:0|0:0,0:0:0:0:
384,104,24472,1,0,0:0:0:0:
280,160,24630,2,0,L|508:160,1,200,8|8,0:0|0:0,0:0:0:0:
224,160,24998,1,0,0:0:0:0:
184,160,25051,1,0,0:0:0:0:
152,160,25103,1,0,0:0:0:0:
136,160,25156,1,0,0:0:0:0:
336,160,25261,5,8,0:0:0:0:
440,160,25419,1,2,0:0:0:0:
472,160,25498,1,0,0:0:0:0:
496,160,25577,1,8,0:0:0:0:
176,240,25735,2,0,L|76:240,1,100,8|2,0:0|0:0,0:0:0:0:
176,304,26051,5,8,0:0:0:0:
256,304,26209,1,0,0:0:0:0:
96,304,26367,1,0,0:0:0:0:
384,304,26525,6,0,L|440:232,4,50,0|0|0|0|0,0:0|0:0|0:0|0:0|0:0,0:0:0:0:
120,352,26998,2,0,L|72:288,4,50,0|0|0|0|0,0:0|0:0|0:0|0:0|0:0,0:0:0:0:
488,352,27472,1,2,0:0:0:0:
256,192,27788,12,0,28893,0:0:0:0:
360,184,29051,6,0,L|144:184,1,150.000005722046
152,184,29288,2,0,L|328:184,1,175.00000166893
392,120,29525,2,0,L|184:120,1,200
136,248,29761,2,0,L|472:248,1,250
80,248,29998,1,0,0:0:0:0:
256,192,30314,12,0,31419,0:0:0:0:
72,240,31577,5,0,0:0:0:0:
40,200,31656,1,0,0:0:0:0:
8,152,31735,1,0,0:0:0:0:
40,200,31814,1,0,0:0:0:0:
72,240,31893,1,0,0:0:0:0:
512,240,32209,1,0,0:0:0:0:
112,240,32525,1,0,0:0:0:0:
256,192,32840,12,0,33946,0:0:0:0:
408,144,34103,5,0,0:0:0:0:
440,104,34182,1,0,0:0:0:0:
408,56,34261,1,0,0:0:0:0:
184,144,34340,1,0,0:0:0:0:
152,104,34419,1,0,0:0:0:0:
184,56,34498,1,0,0:0:0:0:
376,280,34577,1,0,0:0:0:0:
408,240,34656,1,0,0:0:0:0:
376,192,34735,1,0,0:0:0:0:
120,184,34814,1,0,0:0:0:0:
64,160,34893,1,0,0:0:0:0:
24,128,34972,1,0,0:0:0:0:
0,96,35051,1,0,0:0:0:0:
256,192,35367,12,0,35998,0:0:0:0:
208,296,36156,6,0,L|248:176,1,100,8|0,0:0|0:0,0:0:0:0:
400,200,36472,1,2,0:0:0:0:
72,200,36630,2,0,L|24:96,1,100,8|0,0:0|0:0,0:0:0:0:
192,104,36946,1,2,0:0:0:0:
352,104,37103,1,8,0:0:0:0:
32,72,37261,2,0,L|144:368,1,300,8|0,0:0|0:0,0:0:0:0:
32,352,37893,5,8,0:0:0:0:
192,352,38051,1,2,0:0:0:0:
192,352,38130,1,2,0:0:0:0:
292,280,38209,2,0,L|192:280,1,100,8|8,0:0|0:0,0:0:0:0:
452,280,38525,1,2,0:0:0:0:
452,280,38603,1,2,0:0:0:0:
352,208,38682,2,0,L|452:208,1,100,8|0,0:0|0:0,0:0:0:0:
224,208,39156,5,0,0:0:0:0:
208,168,39235,1,0,0:0:0:0:
192,128,39314,1,0,0:0:0:0:
36,128,39472,2,0,L|136:128,1,100,8|0,0:0|0:0,0:0:0:0:
120,88,39709,1,0,0:0:0:0:
104,48,39788,1,8,0:0:0:0:
448,120,39946,5,2,0:0:0:0:
24,112,40103,1,2,0:0:0:0:
152,248,40419,5,8,0:0:0:0:
120,208,40498,1,0,0:0:0:0:
96,168,40577,1,2,0:0:0:0:
80,120,40656,1,2,0:0:0:0:
56,80,40735,2,0,P|82:45|176:76,1,100,8|2,0:0|0:0,0:0:0:0:
388,248,41051,1,10,0:0:0:0:
352,152,41130,1,0,0:0:0:0:
316,64,41209,2,0,L|436:64,2,100,8|8|2,0:0|0:0|0:0,0:0:0:0:
88,344,41682,5,0,0:0:0:0:
304,344,41840,1,2,0:0:0:0:
408,344,41919,1,0,0:0:0:0:
376,296,41998,1,8,0:0:0:0:
136,344,42156,1,2,0:0:0:0:
464,344,42314,1,8,0:0:0:0:
56,344,42630,5,2,0:0:0:0:
216,288,42946,5,8,0:0:0:0:
64,288,43103,1,2,0:0:0:0:
128,288,43182,1,0,0:0:0:0:
192,288,43261,2,0,L|136:176,1,100,8|8,0:0|0:0,0:0:0:0:
264,200,43577,2,0,L|296:144,1,50,2|0,0:0|0:0,0:0:0:0:
88,200,43735,2,0,L|48:136,1,50,8|0,0:0|0:0,0:0:0:0:
160,152,43893,1,0,0:0:0:0:
200,152,43972,1,0,0:0:0:0:
192,96,44051,1,0,0:0:0:0:
232,96,44130,1,0,0:0:0:0:
352,168,44209,5,0,0:0:0:0:
448,168,44367,1,0,0:0:0:0:
512,208,44446,1,0,0:0:0:0:
448,248,44525,1,0,0:0:0:0:
136,248,44682,1,0,0:0:0:0:
288,248,44840,2,0,P|352:312|288:376,1,200,0|0,0:0|0:0,0:0:0:0:
224,376,45314,5,0,0:0:0:0:
288,376,45393,1,0,0:0:0:0:
400,376,45472,2,0,L|456:248,1,100,0|0,0:0|0:0,0:0:0:0:
112,376,45788,2,0,L|56:264,1,100,0|0,0:0|0:0,0:0:0:0:
207,280,46103,1,0,0:0:0:0:
304,280,46261,1,0,0:0:0:0:
376,280,46419,1,0,0:0:0:0:
136,224,46577,1,0,0:0:0:0:
160,224,46656,2,0,L|192:152,1,50,0|0,0:0|0:0,0:0:0:0:
400,176,46893,5,0,0:0:0:0:
376,176,46972,1,0,0:0:0:0:
352,176,47051,2,0,L|464:176,1,100,8|0,0:0|0:0,0:0:0:0:
208,232,47367,1,8,0:0:0:0:
80,48,47603,5,0,0:0:0:0:
144,48,47761,2,0,L|224:48,1,50,0|0,0:0|0:0,0:0:0:0:
424,96,47998,1,8,0:0:0:0:
464,48,48156,1,8,0:0:0:0:
224,48,48314,1,8,0:0:0:0:
184,96,48472,1,8,0:0:0:0:
120,128,48788,5,0,0:0:0:0:
272,128,48946,1,2,0:0:0:0:
120,184,49103,1,0,0:0:0:0:
304,184,49261,1,2,0:0:0:0:
120,240,49419,1,0,0:0:0:0:
376,240,49577,1,2,0:0:0:0:
120,304,49735,1,0,0:0:0:0:
432,304,49893,2,0,L|208:304,1,200,2|8,0:0|0:0,0:0:0:0:
344,304,50525,5,8,0:0:0:0:
464,72,50682,1,0,0:0:0:0:
416,72,50761,1,0,0:0:0:0:
464,72,50840,1,0,0:0:0:0:
304,72,50998,1,0,0:0:0:0:
56,72,51156,2,0,L|168:72,1,100,0|0,0:0|0:0,0:0:0:0:
264,120,51367,1,0,0:0:0:0:
280,120,51419,1,0,0:0:0:0:
304,120,51472,1,0,0:0:0:0:
56,120,51630,1,0,0:0:0:0:
160,120,51788,5,0,0:0:0:0:
192,176,51840,1,0,0:0:0:0:
232,232,51893,1,0,0:0:0:0:
320,232,51946,2,0,L|432:232,2,100,0|0|0,0:0|0:0|0:0,0:0:0:0:
232,232,52340,1,0,0:0:0:0:
104,232,52419,1,0,0:0:0:0:
72,296,52577,5,0,0:0:0:0:
184,296,52656,1,0,0:0:0:0:
320,296,52735,1,0,0:0:0:0:
368,296,52788,1,0,0:0:0:0:
400,296,52840,1,0,0:0:0:0:
416,296,52893,1,0,0:0:0:0:
480,296,52972,1,0,0:0:0:0:
512,296,53051,1,0,0:0:0:0:
400,200,53209,5,0,0:0:0:0:
360,200,53261,1,0,0:0:0:0:
320,200,53314,1,0,0:0:0:0:
280,200,53367,1,0,0:0:0:0:
200,200,53525,1,0,0:0:0:0:
176,152,53603,1,0,0:0:0:0:
56,144,53682,1,0,0:0:0:0:
72,104,53735,1,0,0:0:0:0:
96,56,53788,1,0,0:0:0:0:
120,8,53840,1,0,0:0:0:0:
272,16,53919,1,0,0:0:0:0:
184,16,53998,2,0,L|128:16,2,50,0|0|0,0:0|0:0|0:0,0:0:0:0:
272,80,54314,5,0,0:0:0:0:
368,80,54472,1,0,0:0:0:0:
392,128,54551,1,0,0:0:0:0:
296,128,54709,1,0,0:0:0:0:
256,152,54788,1,0,0:0:0:0:
240,192,54867,1,0,0:0:0:0:
232,248,54946,2,0,P|256:296|312:280,1,100,0|0,0:0|0:0,0:0:0:0:
336,272,55156,5,0,0:0:0:0:
384,248,55209,1,0,0:0:0:0:
432,240,55261,1,0,0:0:0:0:
264,248,55340,1,0,0:0:0:0:
208,248,55419,1,0,0:0:0:0:
168,248,55498,1,0,0:0:0:0:
488,248,55577,1,8,0:0:0:0:
296,368,55893,5,0,0:0:0:0:
216,368,55972,1,0,0:0:0:0:
320,368,56051,1,0,0:0:0:0:
360,344,56103,1,0,0:0:0:0:
400,336,56156,1,0,0:0:0:0:
440,336,56209,1,0,0:0:0:0:
280,336,56261,1,0,0:0:0:0:
192,336,56367,1,0,0:0:0:0:
152,312,56419,1,0,0:0:0:0:
104,304,56472,1,0,0:0:0:0:
56,304,56525,1,0,0:0:0:0:
120,248,56603,1,0,0:0:0:0:
96,208,56682,1,0,0:0:0:0:
72,160,56761,1,0,0:0:0:0:
200,104,56840,5,0,0:0:0:0:
392,104,56998,1,0,0:0:0:0:
464,104,57077,1,0,0:0:0:0:
392,104,57156,1,0,0:0:0:0:
160,104,57314,1,0,0:0:0:0:
144,160,57367,1,0,0:0:0:0:
256,160,57472,1,0,0:0:0:0:
288,208,57525,1,0,0:0:0:0:
312,256,57577,1,0,0:0:0:0:
328,304,57630,1,0,0:0:0:0:
152,8,57709,1,0,0:0:0:0:
96,8,57788,5,0,0:0:0:0:
56,64,57840,1,0,0:0:0:0:
32,120,57893,1,0,0:0:0:0:
48,168,57946,1,0,0:0:0:0:
80,208,57998,1,0,0:0:0:0:
120,248,58051,1,0,0:0:0:0:
240,248,58103,6,0,L|304:352,1,100,0|0,0:0|0:0,0:0:0:0:
368,336,58340,1,0,0:0:0:0:
440,336,58419,1,0,0:0:0:0:
160,336,58498,1,0,0:0:0:0:
96,336,58577,1,0,0:0:0:0:
72,336,58630,1,0,0:0:0:0:
56,336,58682,1,0,0:0:0:0:
48,336,58735,1,0,0:0:0:0:
128,176,58814,1,0,0:0:0:0:
208,176,58893,1,0,0:0:0:0:
168,128,58972,1,0,0:0:0:0:
416,8,59051,5,0,0:0:0:0:
456,64,59103,1,0,0:0:0:0:
480,120,59156,1,0,0:0:0:0:
464,168,59209,1,0,0:0:0:0:
432,208,59261,1,0,0:0:0:0:
392,248,59314,1,0,0:0:0:0:
272,248,59367,6,0,L|208:352,1,100,0|0,0:0|0:0,0:0:0:0:
272,336,59577,1,0,0:0:0:0:
302,296,59630,1,0,0:0:0:0:
328,248,59682,1,0,0:0:0:0:
232,248,59761,1,0,0:0:0:0:
168,248,59840,1,0,0:0:0:0:
232,200,59919,1,0,0:0:0:0:
328,200,59998,1,0,0:0:0:0:
352,160,60077,1,0,0:0:0:0:
80,152,60156,1,0,0:0:0:0:
448,160,60314,1,8,0:0:0:0:
304,32,60630,5,0,0:0:0:0:
400,32,60788,1,0,0:0:0:0:
296,96,60946,1,2,0:0:0:0:
440,96,61103,1,0,0:0:0:0:
288,152,61261,1,0,0:0:0:0:
512,152,61419,1,2,0:0:0:0:
208,32,61577,5,0,0:0:0:0:
112,32,61735,1,0,0:0:0:0:
216,96,61893,1,0,0:0:0:0:
72,96,62051,1,2,0:0:0:0:
224,152,62209,1,0,0:0:0:0:
0,152,62367,1,0,0:0:0:0:
264,152,62525,5,0,0:0:0:0:
304,184,62577,1,0,0:0:0:0:
336,224,62630,1,0,0:0:0:0:
368,272,62682,1,0,0:0:0:0:
392,320,62735,1,0,0:0:0:0:
400,368,62788,1,0,0:0:0:0:
264,368,62840,2,0,L|112:368,1,150.000005722046,0|0,0:0|0:0,0:0:0:0:
40,48,63156,5,0,1:0:0:0:
8,96,63314,1,0,0:0:0:0:
248,96,63472,2,0,L|312:224,1,100,2|0,0:0|0:0,0:0:0:0:
176,184,63788,1,0,0:0:0:0:
144,232,63946,1,0,0:0:0:0:
384,232,64103,2,0,L|432:336,1,100,8|0,0:0|0:0,0:0:0:0:
312,320,64419,1,0,0:0:0:0:
280,368,64577,1,0,0:0:0:0:
48,360,64735,2,0,L|120:256,1,100,0|0,0:0|0:0,0:0:0:0:
352,288,65209,5,0,0:0:0:0:
40,280,65367,1,4,1:2:0:0:
280,232,65682,6,0,L|256:336,1,100,8|0,0:0|0:0,0:0:0:0:
184,280,65919,2,0,L|194:230,1,50,0|8,0:0|0:0,0:0:0:0:
48,144,66156,2,0,L|72:248,1,100,8|0,0:0|0:0,0:0:0:0:
136,192,66393,2,0,L|127:142,1,50,0|8,0:0|0:0,0:0:0:0:
360,144,66630,1,0,0:0:0:0:
464,24,66946,5,8,0:0:0:0:
312,32,67025,1,0,0:0:0:0:
248,80,67103,1,2,0:0:0:0:
216,152,67182,1,0,0:0:0:0:
256,216,67261,2,0,P|288:256|368:256,1,100,8|8,0:0|0:0,0:0:0:0:
480,248,67577,1,2,0:0:0:0:
480,248,67893,1,8,0:0:0:0:
280,232,68209,6,0,L|256:336,1,100,8|0,0:0|0:0,0:0:0:0:
112,152,68446,2,0,L|88:224,1,50,0|0,0:0|0:0,0:0:0:0:
216,216,68682,2,0,L|248:344,1,100,8|0,0:0|0:0,0:0:0:0:
48,160,68919,2,0,L|64:240,1,50,0|8,0:0|0:0,0:0:0:0:
472,208,69314,1,2,0:0:0:0:
256,352,69472,5,2,0:0:0:0:
128,352,69630,1,0,0:0:0:0:
64,352,69709,1,0,0:0:0:0:
128,352,69788,1,8,0:0:0:0:
352,272,69946,1,2,0:0:0:0:
416,272,70025,1,0,0:0:0:0:
352,272,70103,1,0,0:0:0:0:
64,272,70261,1,2,0:0:0:0:
112,192,70419,1,0,0:0:0:0:
256,264,70735,5,4,0:0:0:0:
136,264,71051,1,4,0:0:0:0:
256,200,71367,1,4,0:0:0:0:
440,200,71682,1,4,0:0:0:0:
256,136,71998,1,4,0:0:0:0:
40,136,72314,1,4,0:0:0:0:
256,80,72630,1,4,0:0:0:0:
512,80,72946,1,4,0:0:0:0:
400,80,73261,5,4,0:0:0:0:
296,80,73419,1,0,0:0:0:0:
360,136,73577,1,4,0:0:0:0:
216,136,73735,1,0,0:0:0:0:
320,184,73893,1,4,0:0:0:0:
128,184,74051,1,0,0:0:0:0:
280,232,74209,1,4,0:0:0:0:
40,232,74367,1,0,0:0:0:0:
240,280,74525,1,0,0:0:0:0:
320,280,74682,5,0,0:0:0:0:
368,280,74761,1,0,0:0:0:0:
400,280,74840,1,0,0:0:0:0:
384,344,74919,1,0,0:0:0:0:
224,344,74998,1,0,0:0:0:0:
176,344,75077,1,0,0:0:0:0:
144,344,75156,1,0,0:0:0:0:
120,344,75235,1,0,0:0:0:0:
104,344,75314,1,0,0:0:0:0:
96,344,75393,1,0,0:0:0:0:
448,240,75472,1,0,1:0:0:0:
288,40,75788,5,0,0:0:0:0:
56,40,75946,1,0,0:0:0:0:
32,96,76025,1,0,0:0:0:0:
176,96,76261,1,0,0:0:0:0:
408,96,76419,1,0,0:0:0:0:
432,152,76498,1,0,0:0:0:0:
312,152,76735,5,0,0:0:0:0:
160,152,76893,1,0,0:0:0:0:
200,152,76972,1,0,0:0:0:0:
232,152,77051,1,0,0:0:0:0:
352,216,77209,1,0,0:0:0:0:
112,272,77367,1,0,0:0:0:0:
64,272,77446,1,0,0:0:0:0:
16,272,77525,1,0,0:0:0:0:
136,80,77682,6,0,L|248:80,1,100,0|0,0:0|0:0,0:0:0:0:
488,88,77998,1,0,0:0:0:0:
240,88,78156,2,0,L|200:144,2,50,2|0|2,0:0|0:0|0:0,0:0:0:0:
144,88,78472,1,0,0:0:0:0:
424,88,78630,1,0,0:0:0:0:
240,136,78709,1,0,0:0:0:0:
216,184,78788,1,2,0:0:0:0:
184,232,78867,1,0,0:0:0:0:
328,240,78946,6,0,L|416:304,1,100,2|0,0:0|0:0,0:0:0:0:
240,304,79182,2,0,L|328:368,1,100,2|0,0:0|0:0,0:0:0:0:
168,368,79419,1,2,0:0:0:0:
88,368,79577,5,0,0:0:0:0:
8,368,79735,1,2,0:0:0:0:
40,320,79814,1,0,0:0:0:0:
88,296,79893,1,0,0:0:0:0:
136,280,79972,1,0,0:0:0:0:
184,272,80051,1,0,0:0:0:0:
416,272,80209,6,0,L|368:184,1,100,0|0,0:0|0:0,0:0:0:0:
120,192,80525,2,0,L|176:96,1,100,0|0,0:0|0:0,0:0:0:0:
424,120,80840,1,0,0:0:0:0:
472,40,80998,1,0,0:0:0:0:
360,40,81156,5,0,0:0:0:0:
312,40,81235,1,0,0:0:0:0:
264,40,81314,1,0,0:0:0:0:
32,40,81472,1,0,0:0:0:0:
64,96,81630,1,0,0:0:0:0:
176,104,81788,1,0,0:0:0:0:
224,104,81867,1,0,0:0:0:0:
272,104,81946,1,0,0:0:0:0:
24,104,82103,5,0,0:0:0:0:
48,152,82261,1,0,0:0:0:0:
168,152,82419,2,0,L|112:248,1,100,0|0,0:0|0:0,0:0:0:0:
368,240,82735,2,0,L|424:336,1,100,0|0,0:0|0:0,0:0:0:0:
320,328,83051,1,0,0:0:0:0:
224,328,83209,5,0,0:0:0:0:
200,304,83248,1,0,0:0:0:0:
184,264,83288,1,0,0:0:0:0:
176,224,83327,1,0,0:0:0:0:
176,176,83367,1,8,0:0:0:0:
440,176,83525,5,0,0:0:0:0:
496,176,83603,1,0,0:0:0:0:
440,120,83682,1,0,0:0:0:0:
296,120,83840,1,0,0:0:0:0:
216,168,83998,1,0,0:0:0:0:
0,240,84235,1,0,0:0:0:0:
448,240,84472,1,0,0:0:0:0:
256,232,84630,1,0,0:0:0:0:
152,32,84788,5,0,0:0:0:0:
96,64,84867,1,0,0:0:0:0:
56,104,84946,1,0,0:0:0:0:
24,152,85025,1,0,0:0:0:0:
8,208,85103,1,0,0:0:0:0:
32,256,85182,1,0,0:0:0:0:
80,304,85261,1,0,0:0:0:0:
136,336,85340,1,0,0:0:0:0:
200,360,85419,1,0,0:0:0:0:
256,384,85498,1,0,0:0:0:0:
320,384,85577,1,0,0:0:0:0:
0,376,85735,5,0,0:0:0:0:
32,344,85814,1,0,0:0:0:0:
80,320,85893,1,0,0:0:0:0:
128,304,85972,1,0,0:0:0:0:
176,280,86051,1,0,0:0:0:0:
232,272,86130,1,0,0:0:0:0:
296,272,86209,1,0,0:0:0:0:
368,272,86288,1,0,0:0:0:0:
440,272,86367,1,0,0:0:0:0:
512,272,86446,1,0,0:0:0:0:
472,208,86525,5,0,0:0:0:0:
432,176,86603,1,0,0:0:0:0:
384,144,86682,1,0,0:0:0:0:
336,128,86761,1,0,0:0:0:0:
384,104,86840,1,0,0:0:0:0:
336,80,86919,1,0,0:0:0:0:
296,56,86998,1,0,0:0:0:0:
256,40,87077,1,0,0:0:0:0:
304,192,87156,6,0,L|360:272,1,75.0000028610231,0|0,0:0|0:0,0:0:0:0:
208,192,87314,2,0,L|160:264,1,75.0000028610231,0|0,0:0|0:0,0:0:0:0:
368,192,87472,2,0,L|448:248,1,75.0000028610231,0|0,0:0|0:0,0:0:0:0:
144,192,87630,2,0,L|72:240,1,75.0000028610231,0|0,0:0|0:0,0:0:0:0:
256,248,87788,1,0,1:0:0:0:
304,248,87946,5,0,0:0:0:0:
160,248,88103,1,0,0:0:0:0:
408,248,88261,1,0,0:0:0:0:
64,344,88419,5,8,0:0:0:0:
0,344,88577,1,2,0:0:0:0:
24,288,88656,1,2,0:0:0:0:
48,232,88735,1,8,0:0:0:0:
320,240,88893,1,8,0:0:0:0:
368,200,88972,1,0,0:0:0:0:
320,168,89051,1,0,0:0:0:0:
72,168,89209,1,0,0:0:0:0:
96,104,89367,2,0,P|121:53|208:104,1,100,0|0,0:0|0:0,0:0:0:0:
280,48,89682,5,8,0:0:0:0:
184,104,89840,1,2,0:0:0:0:
224,104,89919,1,2,0:0:0:0:
168,152,89998,1,8,0:0:0:0:
416,160,90156,1,8,0:0:0:0:
136,200,90314,1,0,0:0:0:0:
248,208,90472,1,0,0:0:0:0:
296,248,90551,1,0,0:0:0:0:
232,264,90630,2,0,L|96:264,1,100,8|0,0:0|0:0,0:0:0:0:
8,344,90946,5,8,0:0:0:0:
112,344,91103,1,2,0:0:0:0:
184,344,91182,1,2,0:0:0:0:
256,344,91261,1,8,0:0:0:0:
488,344,91419,1,8,0:0:0:0:
256,288,91577,1,2,0:0:0:0:
184,288,91656,1,2,0:0:0:0:
112,288,91735,2,0,L|248:288,1,100,8|0,0:0|0:0,0:0:0:0:
448,288,92051,5,0,0:0:0:0:
200,288,92209,5,8,0:0:0:0:
72,288,92367,1,2,0:0:0:0:
0,240,92446,1,2,0:0:0:0:
72,240,92525,1,8,0:0:0:0:
328,240,92682,1,2,0:0:0:0:
384,224,92761,1,2,0:0:0:0:
432,192,92840,1,8,0:0:0:0:
472,152,92919,1,8,0:0:0:0:
488,104,92998,1,8,0:0:0:0:
480,56,93077,1,0,0:0:0:0:
448,72,93156,2,0,L|344:72,1,100,0|0,0:0|0:0,0:0:0:0:
96,72,93472,5,8,0:0:0:0:
256,72,93630,1,2,0:0:0:0:
192,120,93709,1,2,0:0:0:0:
256,160,93788,1,8,0:0:0:0:
112,160,93946,1,8,0:0:0:0:
352,168,94103,1,2,0:0:0:0:
400,208,94182,1,2,0:0:0:0:
432,248,94261,2,0,L|352:312,2,100,8|0|0,0:0|0:0|0:0,0:0:0:0:
280,248,94735,5,8,0:0:0:0:
128,248,94893,1,2,0:0:0:0:
200,296,94972,1,0,0:0:0:0:
128,336,95051,1,8,0:0:0:0:
280,344,95209,1,8,0:0:0:0:
40,336,95367,1,2,0:0:0:0:
368,344,95525,1,8,0:0:0:0:
464,344,95682,2,0,L|432:196,1,150,0|0,0:0|0:0,0:0:0:0:
352,200,95998,5,8,0:0:0:0:
416,120,96156,1,0,0:0:0:0:
448,80,96235,1,2,0:0:0:0:
304,72,96314,2,0,L|232:144,1,100,8|8,0:0|0:0,0:0:0:0:
232,200,96551,1,0,0:0:0:0:
88,192,96630,1,0,0:0:0:0:
56,224,96709,1,0,0:0:0:0:
24,256,96788,1,0,0:0:0:0:
432,264,96946,1,0,0:0:0:0:
192,264,97103,1,4,0:0:0:0:
288,32,97261,5,8,0:0:0:0:
328,200,97340,1,0,0:0:0:0:
344,152,97419,1,8,0:0:0:0:
448,152,97577,1,2,0:0:0:0:
144,152,97735,1,8,0:0:0:0:
96,136,97814,1,0,0:0:0:0:
56,96,97893,1,8,0:0:0:0:
32,56,97972,1,0,0:0:0:0:
24,8,98051,1,2,0:0:0:0:
264,16,98209,2,0,L|304:112,1,100,8|0,0:0|0:0,0:0:0:0:
144,112,98525,5,8,0:0:0:0:
368,120,98682,1,2,0:0:0:0:
328,160,98761,1,2,0:0:0:0:
368,192,98840,1,8,0:0:0:0:
144,200,98998,1,8,0:0:0:0:
72,224,99077,1,0,0:0:0:0:
16,272,99156,1,0,0:0:0:0:
72,312,99235,1,0,0:0:0:0:
144,336,99314,1,8,0:0:0:0:
376,272,99472,2,0,L|276:272,1,100,0|0,0:0|0:0,0:0:0:0:
120,96,99788,5,0,0:0:0:0:
408,104,99946,1,0,0:0:0:0:
360,104,100025,1,0,0:0:0:0:
312,104,100103,1,0,0:0:0:0:
32,96,100261,1,0,0:0:0:0:
80,96,100340,1,0,0:0:0:0:
128,96,100419,1,0,0:0:0:0:
224,96,100577,2,0,L|336:96,2,100,0|0|0,0:0|0:0|0:0,0:0:0:0:
480,104,101051,6,0,L|432:200,1,100,0|0,0:0|0:0,0:0:0:0:
368,192,101288,1,0,0:0:0:0:
304,192,101367,1,0,0:0:0:0:
72,192,101525,1,0,0:0:0:0:
40,224,101603,1,0,0:0:0:0:
80,272,101682,1,0,0:0:0:0:
128,312,101761,1,0,0:0:0:0:
184,336,101840,2,0,P|225:317|256:272,1,100,0|0,0:0|0:0,0:0:0:0:
488,296,102156,1,0,0:0:0:0:
200,288,102314,5,0,0:0:0:0:
72,288,102472,1,0,0:0:0:0:
0,240,102551,1,0,0:0:0:0:
72,240,102630,1,0,0:0:0:0:
328,240,102788,1,0,0:0:0:0:
384,224,102867,1,0,0:0:0:0:
432,192,102946,1,0,0:0:0:0:
472,152,103025,1,0,0:0:0:0:
488,104,103103,1,0,0:0:0:0:
480,56,103182,1,0,0:0:0:0:
320,56,103261,2,0,L|420:56,1,100,0|0,0:0|0:0,0:0:0:0:
256,24,103577,5,0,0:0:0:0:
152,24,103735,1,0,0:0:0:0:
128,80,103814,1,0,0:0:0:0:
104,136,103893,1,0,0:0:0:0:
400,136,104051,1,0,0:0:0:0:
168,136,104209,1,0,0:0:0:0:
144,192,104288,1,0,0:0:0:0:
120,248,104367,2,0,L|256:248,2,100,0|0|0,0:0|0:0|0:0,0:0:0:0:
232,248,104840,5,0,0:0:0:0:
384,248,104998,1,0,0:0:0:0:
312,296,105077,1,0,0:0:0:0:
384,336,105156,1,0,0:0:0:0:
232,344,105314,1,0,0:0:0:0:
472,336,105472,1,0,0:0:0:0:
144,344,105630,1,0,0:0:0:0:
48,344,105788,2,0,L|80:196,1,150,0|0,0:0|0:0,0:0:0:0:
160,200,106103,5,0,0:0:0:0:
96,120,106261,1,0,0:0:0:0:
64,80,106340,1,0,0:0:0:0:
208,72,106419,2,0,L|280:144,1,100,0|0,0:0|0:0,0:0:0:0:
280,200,106656,1,0,0:0:0:0:
424,192,106735,1,0,0:0:0:0:
456,224,106814,1,0,0:0:0:0:
488,256,106893,1,0,0:0:0:0:
80,264,107051,1,0,0:0:0:0:
320,264,107209,1,0,0:0:0:0:
224,32,107367,5,0,0:0:0:0:
184,200,107446,1,0,0:0:0:0:
168,152,107525,1,0,0:0:0:0:
64,152,107682,1,0,0:0:0:0:
368,152,107840,1,0,0:0:0:0:
416,136,107919,1,0,0:0:0:0:
456,96,107998,1,0,0:0:0:0:
480,56,108077,1,0,0:0:0:0:
488,8,108156,1,0,0:0:0:0:
248,16,108314,2,0,L|208:112,1,100,0|0,0:0|0:0,0:0:0:0:
256,192,108630,12,0,109419,0:0:0:0:
256,192,109577,5,0,0:0:0:0:
192,280,109893,5,0,0:0:0:0:
144,280,109972,1,0,0:0:0:0:
112,280,110051,1,0,0:0:0:0:
128,344,110130,1,0,0:0:0:0:
288,344,110209,1,0,0:0:0:0:
336,344,110288,1,0,0:0:0:0:
368,344,110367,1,0,0:0:0:0:
392,344,110446,1,0,0:0:0:0:
408,344,110525,1,2,0:0:0:0:
176,344,110682,1,0,0:0:0:0:
472,344,110840,1,8,0:0:0:0:
32,104,111156,6,0,L|80:200,1,100,0|0,0:0|0:0,0:0:0:0:
144,192,111393,1,0,0:0:0:0:
208,192,111472,1,0,0:0:0:0:
440,192,111630,1,0,0:0:0:0:
472,224,111709,1,0,0:0:0:0:
432,272,111788,1,0,0:0:0:0:
384,312,111867,1,0,0:0:0:0:
328,336,111946,2,0,P|287:317|256:272,1,100,0|0,0:0|0:0,0:0:0:0:
488,296,112261,1,0,0:0:0:0:
256,304,112419,5,0,0:0:0:0:
216,280,112498,1,0,0:0:0:0:
184,232,112577,1,0,0:0:0:0:
168,192,112656,1,0,0:0:0:0:
160,136,112735,2,0,P|163:76|208:56,1,100,0|0,0:0|0:0,0:0:0:0:
344,56,112972,2,0,P|381:86|377:134,1,100,0|0,0:0|0:0,0:0:0:0:
352,184,113209,2,0,P|253:260|168:248,1,200,8|0,0:0|0:0,0:0:0:0:
256,24,113682,5,8,0:0:0:0:
360,24,113840,1,0,0:0:0:0:
384,80,113919,1,0,0:0:0:0:
408,136,113998,1,0,0:0:0:0:
112,136,114156,1,8,0:0:0:0:
344,136,114314,1,0,0:0:0:0:
368,192,114393,1,2,0:0:0:0:
392,248,114472,2,0,L|256:248,2,100,8|0|0,0:0|0:0|0:0,0:0:0:0:
280,248,114946,5,8,0:0:0:0:
128,248,115103,1,0,0:0:0:0:
200,296,115182,1,0,0:0:0:0:
128,336,115261,1,0,0:0:0:0:
280,344,115419,1,8,0:0:0:0:
40,336,115577,1,8,0:0:0:0:
368,344,115735,1,0,0:0:0:0:
464,344,115893,2,0,L|432:196,1,150,0|0,0:0|0:0,0:0:0:0:
352,200,116209,5,0,0:0:0:0:
416,120,116367,1,0,0:0:0:0:
448,80,116446,1,0,0:0:0:0:
304,72,116525,2,0,L|232:144,1,100,8|0,0:0|0:0,0:0:0:0:
232,200,116761,1,0,0:0:0:0:
88,192,116840,1,0,0:0:0:0:
56,224,116919,1,0,0:0:0:0:
24,256,116998,1,8,0:0:0:0:
432,264,117156,1,0,0:0:0:0:
192,264,117314,1,0,0:0:0:0:
288,32,117472,5,0,0:0:0:0:
328,200,117551,1,0,0:0:0:0:
344,152,117630,1,0,0:0:0:0:
448,152,117788,1,8,0:0:0:0:
144,152,117946,1,0,0:0:0:0:
96,136,118025,1,0,0:0:0:0:
56,96,118103,1,0,0:0:0:0:
32,56,118182,5,0,0:0:0:0:
24,8,118261,1,8,0:0:0:0:
264,16,118419,2,0,L|304:112,1,100,0|0,0:0|0:0,0:0:0:0:
256,192,118735,12,0,119840,0:0:0:0:
256,192,119998,5,2,0:0:0:0:
256,192,120156,12,0,121103,0:0:0:0:
256,192,121261,5,2,0:0:0:0:
256,192,121419,12,0,122367,0:0:0:0:
256,192,122525,5,2,0:0:0:0:
256,192,122682,12,0,123630,0:0:0:0:
256,192,123788,5,2,0:0:0:0:
120,192,124103,1,2,0:0:0:0:
392,192,124419,1,2,0:0:0:0:
40,112,124893,1,2,0:0:0:0:
256,112,124946,1,0,0:0:0:0:
472,112,124998,1,2,0:0:0:0:
