osu file format v14

[General]
AudioFilename: Evanescent.mp3
AudioLeadIn: 0
PreviewTime: 87946
Countdown: 0
SampleSet: Normal
StackLeniency: 0.7
Mode: 1
LetterboxInBreaks: 0
WidescreenStoryboard: 0

[Editor]
Bookmarks: 7577
DistanceSpacing: 1
BeatDivisor: 4
GridSize: 32
TimelineZoom: 3.699999

[Metadata]
Title:Evanescent
TitleUnicode:Evanescent
Artist:LeaF
ArtistUnicode:LeaF
Creator:Krah
Version:Muzukashii
Source:BMS
Tags:post drum n bass and drum'n'bass sengoku sen-goku sen goku optie Spectator CLSW Crystal Cherry Blossom dialgadu77 sayaka- sayaka Nozhomi Kin Secretpipe
BeatmapID:454877
BeatmapSetID:176646

[Difficulty]
HPDrainRate:5
CircleSize:5
OverallDifficulty:5
ApproachRate:5
SliderMultiplier:1.4
SliderTickRate:1

[Events]
//Background and Video events
0,0,"evanescent.jpg",0,0
//Break Periods
//Storyboard Layer 0 (Background)
//Storyboard Layer 1 (Fail)
//Storyboard Layer 2 (Pass)
//Storyboard Layer 3 (Foreground)
//Storyboard Sound Samples

[TimingPoints]
2525,315.789473684211,4,1,0,100,1,0
88419,-100,4,1,0,100,0,1
108630,-100,4,1,0,100,0,0
111156,-100,4,1,0,100,0,1
118735,-100,4,1,0,100,0,0
119920,-111.111111111111,4,1,0,100,0,0
121183,-125,4,1,0,100,0,0
122446,-142.857142857143,4,1,0,100,0,0
124341,-166.666666666667,4,1,0,100,0,0
124814,-200,4,1,0,100,0,0

[HitObjects]
256,192,7577,5,0,0:0:0:0:
256,192,7735,1,0,0:0:0:0:
256,192,7893,1,8,0:0:0:0:
256,192,8051,1,0,0:0:0:0:
256,192,8367,1,0,0:0:0:0:
256,192,8525,1,8,0:0:0:0:
256,192,8840,1,0,0:0:0:0:
256,192,8998,1,0,0:0:0:0:
256,192,9156,1,8,0:0:0:0:
256,192,9314,1,0,0:0:0:0:
256,192,9472,1,0,0:0:0:0:
256,192,9788,1,8,0:0:0:0:
256,192,10103,1,0,0:0:0:0:
256,192,10261,1,0,0:0:0:0:
256,192,10419,1,8,0:0:0:0:
256,192,10577,1,0,0:0:0:0:
256,192,10735,1,0,0:0:0:0:
256,192,10893,1,8,0:0:0:0:
256,192,11209,1,0,0:0:0:0:
256,192,11367,1,8,0:0:0:0:
256,192,11446,1,8,0:0:0:0:
256,192,11525,1,8,0:0:0:0:
256,192,11682,1,8,0:0:0:0:
256,192,11840,1,8,0:0:0:0:
256,192,11919,1,8,0:0:0:0:
256,192,11998,1,8,0:0:0:0:
256,192,12156,1,8,0:0:0:0:
256,192,12314,1,0,0:0:0:0:
256,192,12630,1,0,0:0:0:0:
256,192,12788,1,0,0:0:0:0:
256,192,12946,1,8,0:0:0:0:
256,192,13103,1,0,0:0:0:0:
256,192,13261,1,0,0:0:0:0:
256,192,13419,1,8,0:0:0:0:
256,192,13577,1,8,0:0:0:0:
256,192,13893,1,0,0:0:0:0:
256,192,14051,1,0,0:0:0:0:
256,192,14209,1,8,0:0:0:0:
256,192,14367,1,0,0:0:0:0:
256,192,14525,1,0,0:0:0:0:
256,192,14840,1,8,0:0:0:0:
256,192,14998,1,8,0:0:0:0:
256,192,15156,1,0,0:0:0:0:
256,192,15314,1,0,0:0:0:0:
256,192,15472,1,8,0:0:0:0:
256,192,15630,1,0,0:0:0:0:
256,192,15788,1,0,0:0:0:0:
256,192,15946,1,8,0:0:0:0:
256,192,16261,1,0,0:0:0:0:
256,192,16419,1,8,0:0:0:0:
256,192,16498,1,8,0:0:0:0:
256,192,16577,1,8,0:0:0:0:
256,192,16735,1,8,0:0:0:0:
256,192,16893,1,8,0:0:0:0:
256,192,16972,1,8,0:0:0:0:
256,192,17051,1,8,0:0:0:0:
256,192,17209,1,8,0:0:0:0:
256,192,17367,1,0,0:0:0:0:
256,192,17682,1,0,0:0:0:0:
256,192,17840,1,0,0:0:0:0:
256,192,17998,1,8,0:0:0:0:
256,192,18156,1,0,0:0:0:0:
256,192,18314,1,0,0:0:0:0:
256,192,18472,1,8,0:0:0:0:
256,192,18630,1,8,0:0:0:0:
256,192,18946,1,0,0:0:0:0:
256,192,19103,1,0,0:0:0:0:
256,192,19261,1,8,0:0:0:0:
256,192,19419,1,0,0:0:0:0:
256,192,19577,1,0,0:0:0:0:
256,192,19735,1,8,0:0:0:0:
256,192,19893,1,8,0:0:0:0:
256,192,20209,1,0,0:0:0:0:
256,192,20367,1,0,0:0:0:0:
256,192,20525,1,8,0:0:0:0:
256,192,20682,1,0,0:0:0:0:
256,192,20840,1,0,0:0:0:0:
256,192,20998,1,8,0:0:0:0:
256,192,21314,1,0,0:0:0:0:
256,192,21472,1,8,0:0:0:0:
256,192,21551,1,8,0:0:0:0:
256,192,21630,1,8,0:0:0:0:
256,192,21788,1,8,0:0:0:0:
256,192,21946,1,8,0:0:0:0:
256,192,22025,1,8,0:0:0:0:
256,192,22103,1,8,0:0:0:0:
256,192,22261,1,8,0:0:0:0:
256,192,22419,1,0,0:0:0:0:
256,192,22735,1,0,0:0:0:0:
256,192,22893,1,0,0:0:0:0:
256,192,23051,1,8,0:0:0:0:
256,192,23209,1,0,0:0:0:0:
256,192,23367,1,0,0:0:0:0:
256,192,23525,1,8,0:0:0:0:
256,192,23682,1,8,0:0:0:0:
256,192,23998,1,0,0:0:0:0:
256,192,24156,1,0,0:0:0:0:
256,192,24314,1,8,0:0:0:0:
256,192,24472,1,0,0:0:0:0:
256,192,24630,1,0,0:0:0:0:
256,192,24788,1,8,0:0:0:0:
256,192,24946,1,8,0:0:0:0:
256,192,25261,1,0,0:0:0:0:
256,192,25419,1,0,0:0:0:0:
256,192,25577,1,8,0:0:0:0:
256,192,25735,1,0,0:0:0:0:
256,192,25893,1,0,0:0:0:0:
256,192,26051,1,8,0:0:0:0:
256,192,26367,1,0,0:0:0:0:
256,192,26525,1,8,0:0:0:0:
256,192,26603,1,8,0:0:0:0:
256,192,26682,1,8,0:0:0:0:
256,192,26840,1,8,0:0:0:0:
256,192,26998,1,0,0:0:0:0:
256,192,27156,1,0,0:0:0:0:
256,192,27314,1,8,0:0:0:0:
256,192,27472,1,0,0:0:0:0:
256,192,27788,1,4,0:0:0:0:
256,192,29051,1,8,0:0:0:0:
256,192,29209,1,8,0:0:0:0:
256,192,29367,1,8,0:0:0:0:
256,192,29525,1,8,0:0:0:0:
256,192,29682,1,8,0:0:0:0:
256,192,29840,1,8,0:0:0:0:
256,192,29998,1,0,0:0:0:0:
256,192,30314,1,8,0:0:0:0:
256,192,31577,1,8,0:0:0:0:
256,192,31656,1,8,0:0:0:0:
256,192,31735,1,8,0:0:0:0:
256,192,31814,1,8,0:0:0:0:
256,192,31893,1,8,0:0:0:0:
256,192,32209,1,8,0:0:0:0:
256,192,32525,1,0,0:0:0:0:
256,192,32840,1,8,0:0:0:0:
256,192,34103,1,8,0:0:0:0:
256,192,34182,1,8,0:0:0:0:
256,192,34261,1,8,0:0:0:0:
256,192,34419,1,8,0:0:0:0:
256,192,34577,1,8,0:0:0:0:
256,192,34735,1,8,0:0:0:0:
256,192,34893,1,8,0:0:0:0:
256,192,35051,1,0,0:0:0:0:
256,192,35367,1,8,0:0:0:0:
256,192,36156,1,12,0:0:0:0:
256,192,36472,1,0,0:0:0:0:
256,192,36630,1,12,0:0:0:0:
256,192,36946,1,0,0:0:0:0:
256,192,37103,1,0,0:0:0:0:
256,192,37261,1,12,0:0:0:0:
256,192,37419,1,8,0:0:0:0:
256,192,37893,1,4,0:0:0:0:
256,192,38051,1,0,0:0:0:0:
256,192,38209,1,8,0:0:0:0:
256,192,38367,1,0,0:0:0:0:
256,192,38525,1,0,0:0:0:0:
256,192,38682,1,8,0:0:0:0:
256,192,39156,1,0,0:0:0:0:
256,192,39314,1,0,0:0:0:0:
256,192,39472,1,8,0:0:0:0:
256,192,39630,1,0,0:0:0:0:
256,192,39788,1,0,0:0:0:0:
256,192,39946,1,8,0:0:0:0:
256,192,40103,1,8,0:0:0:0:
256,192,40419,1,0,0:0:0:0:
256,192,40577,1,0,0:0:0:0:
256,192,40735,1,8,0:0:0:0:
256,192,40893,1,0,0:0:0:0:
256,192,41051,1,0,0:0:0:0:
256,192,41209,1,8,0:0:0:0:
256,192,41525,1,8,0:0:0:0:
256,192,41682,1,8,0:0:0:0:
256,192,41840,1,0,0:0:0:0:
256,192,41998,1,8,0:0:0:0:
256,192,42156,1,0,0:0:0:0:
256,192,42314,1,0,0:0:0:0:
256,192,42630,1,12,0:0:0:0:
256,192,42946,1,0,0:0:0:0:
256,192,43103,1,0,0:0:0:0:
256,192,43261,1,8,0:0:0:0:
256,192,43419,1,0,0:0:0:0:
256,192,43577,1,0,0:0:0:0:
256,192,43735,1,8,0:0:0:0:
256,192,43893,1,8,0:0:0:0:
256,192,44209,1,0,0:0:0:0:
256,192,44367,1,0,0:0:0:0:
256,192,44525,1,8,0:0:0:0:
256,192,44682,1,0,0:0:0:0:
256,192,44840,1,8,0:0:0:0:
256,192,45156,1,0,0:0:0:0:
256,192,45314,1,0,0:0:0:0:
256,192,45393,1,0,0:0:0:0:
256,192,45472,1,0,0:0:0:0:
256,192,45630,1,0,0:0:0:0:
256,192,45788,1,8,0:0:0:0:
256,192,46261,1,8,0:0:0:0:
256,192,46419,1,8,0:0:0:0:
256,192,46577,1,0,0:0:0:0:
256,192,46735,1,0,0:0:0:0:
256,192,46893,1,8,0:0:0:0:
256,192,46972,1,8,0:0:0:0:
256,192,47051,1,8,0:0:0:0:
256,192,47209,1,8,0:0:0:0:
256,192,47367,1,0,0:0:0:0:
256,192,47682,1,8,0:0:0:0:
256,192,47998,1,4,0:0:0:0:
256,192,48156,1,12,0:0:0:0:
256,192,48314,1,12,0:0:0:0:
256,192,48472,1,4,0:0:0:0:
256,192,48946,1,8,0:0:0:0:
256,192,49261,1,8,0:0:0:0:
256,192,49577,1,0,0:0:0:0:
256,192,49893,1,8,0:0:0:0:
256,192,50051,1,0,0:0:0:0:
256,192,50209,1,12,0:0:0:0:
256,192,50525,1,8,0:0:0:0:
256,192,50682,1,0,0:0:0:0:
256,192,50840,1,8,0:0:0:0:
256,192,51156,1,8,0:0:0:0:
256,192,51393,1,8,0:0:0:0:
256,192,51472,1,8,0:0:0:0:
256,192,51630,1,8,0:0:0:0:
256,192,51788,1,0,0:0:0:0:
256,192,51946,1,8,0:0:0:0:
256,192,52103,1,8,0:0:0:0:
256,192,52419,1,8,0:0:0:0:
256,192,52735,1,0,0:0:0:0:
256,192,52814,1,0,0:0:0:0:
256,192,52893,1,0,0:0:0:0:
256,192,53051,1,0,0:0:0:0:
256,192,53209,1,8,0:0:0:0:
256,192,53367,1,0,0:0:0:0:
256,192,53525,1,8,0:0:0:0:
256,192,53603,1,8,0:0:0:0:
256,192,53840,1,8,0:0:0:0:
256,192,53998,1,8,0:0:0:0:
256,192,54314,1,8,0:0:0:0:
256,192,54551,1,8,0:0:0:0:
256,192,54788,1,0,0:0:0:0:
256,192,54946,1,8,0:0:0:0:
256,192,55182,1,8,0:0:0:0:
256,192,55261,1,8,0:0:0:0:
256,192,55419,1,8,0:0:0:0:
256,192,55577,1,4,0:0:0:0:
256,192,55893,1,0,0:0:0:0:
256,192,56051,1,8,0:0:0:0:
256,192,56209,1,8,0:0:0:0:
256,192,56367,1,0,0:0:0:0:
256,192,56682,1,8,0:0:0:0:
256,192,56840,1,0,0:0:0:0:
256,192,57077,1,8,0:0:0:0:
256,192,57314,1,8,0:0:0:0:
256,192,57472,1,0,0:0:0:0:
256,192,57551,1,0,0:0:0:0:
256,192,57630,1,0,0:0:0:0:
256,192,57788,1,8,0:0:0:0:
256,192,58103,1,8,0:0:0:0:
256,192,58340,1,8,0:0:0:0:
256,192,58577,1,8,0:0:0:0:
256,192,58735,1,8,0:0:0:0:
256,192,59051,1,0,0:0:0:0:
256,192,59367,1,8,0:0:0:0:
256,192,59603,1,8,0:0:0:0:
256,192,59682,1,8,0:0:0:0:
256,192,59840,1,0,0:0:0:0:
256,192,59998,1,8,0:0:0:0:
256,192,60314,1,12,0:0:0:0:
256,192,60630,1,0,0:0:0:0:
256,192,62525,1,12,0:0:0:0:
256,192,62840,1,8,0:0:0:0:
256,192,63156,1,0,0:0:0:0:
256,192,63472,1,8,0:0:0:0:
256,192,63630,1,0,0:0:0:0:
256,192,64103,1,8,0:0:0:0:
256,192,64419,1,0,0:0:0:0:
256,192,64735,1,8,0:0:0:0:
256,192,65209,1,8,0:0:0:0:
256,192,65367,1,12,0:0:0:0:
256,192,65682,1,0,0:0:0:0:
256,192,65840,1,0,0:0:0:0:
256,192,65998,1,8,0:0:0:0:
256,192,66156,1,0,0:0:0:0:
256,192,66314,1,0,0:0:0:0:
256,192,66472,1,8,0:0:0:0:
256,192,66946,1,0,0:0:0:0:
256,192,67103,1,0,0:0:0:0:
256,192,67261,1,8,0:0:0:0:
256,192,67419,1,0,0:0:0:0:
256,192,67577,1,0,0:0:0:0:
256,192,67735,1,8,0:0:0:0:
256,192,67893,1,8,0:0:0:0:
256,192,68209,1,0,0:0:0:0:
256,192,68367,1,0,0:0:0:0:
256,192,68525,1,8,0:0:0:0:
256,192,68682,1,0,0:0:0:0:
256,192,68840,1,0,0:0:0:0:
256,192,68998,1,8,0:0:0:0:
256,192,69314,1,8,0:0:0:0:
256,192,69472,1,8,0:0:0:0:
256,192,69630,1,0,0:0:0:0:
256,192,69788,1,8,0:0:0:0:
256,192,69946,1,0,0:0:0:0:
256,192,70103,1,0,0:0:0:0:
256,192,70261,1,8,0:0:0:0:
256,192,70419,1,12,0:0:0:0:
256,192,70735,1,0,0:0:0:0:
256,192,71051,1,0,0:0:0:0:
256,192,71367,1,0,0:0:0:0:
256,192,71682,1,0,0:0:0:0:
256,192,71998,1,8,0:0:0:0:
256,192,72314,1,8,0:0:0:0:
256,192,72630,1,8,0:0:0:0:
256,192,72946,1,8,0:0:0:0:
256,192,73261,1,0,0:0:0:0:
256,192,73419,1,0,0:0:0:0:
256,192,73577,1,0,0:0:0:0:
256,192,73735,1,0,0:0:0:0:
256,192,73893,1,0,0:0:0:0:
256,192,74051,1,0,0:0:0:0:
256,192,74209,1,0,0:0:0:0:
256,192,74367,1,0,0:0:0:0:
256,192,74525,1,4,0:0:0:0:
256,192,75472,1,12,0:0:0:0:
256,192,75788,1,4,0:0:0:0:
256,192,76261,1,4,0:0:0:0:
256,192,76735,1,4,0:0:0:0:
256,192,77209,1,4,0:0:0:0:
256,192,77682,1,4,0:0:0:0:
256,192,77998,1,4,0:0:0:0:
256,192,78472,1,4,0:0:0:0:
256,192,78630,1,4,0:0:0:0:
256,192,78946,1,4,0:0:0:0:
256,192,79182,1,4,0:0:0:0:
256,192,79419,1,4,0:0:0:0:
256,192,79577,1,4,0:0:0:0:
256,192,80209,1,4,0:0:0:0:
256,192,80525,1,4,0:0:0:0:
256,192,80840,1,4,0:0:0:0:
256,192,80998,1,4,0:0:0:0:
256,192,81472,1,4,0:0:0:0:
256,192,81630,1,4,0:0:0:0:
256,192,82103,1,4,0:0:0:0:
256,192,82261,1,4,0:0:0:0:
256,192,82577,1,4,0:0:0:0:
256,192,82893,1,4,0:0:0:0:
256,192,83367,1,4,0:0:0:0:
256,192,83998,1,4,0:0:0:0:
256,192,84235,1,4,0:0:0:0:
256,192,84472,1,4,0:0:0:0:
256,192,84630,1,4,0:0:0:0:
256,192,84946,1,0,0:0:0:0:
256,192,85261,1,8,0:0:0:0:
256,192,85577,1,12,0:0:0:0:
256,192,85735,1,0,0:0:0:0:
256,192,85893,1,0,0:0:0:0:
256,192,86209,1,0,0:0:0:0:
256,192,86525,1,8,0:0:0:0:
256,192,86840,1,8,0:0:0:0:
256,192,87156,1,0,0:0:0:0:
256,192,87314,1,0,0:0:0:0:
256,192,87472,1,8,0:0:0:0:
256,192,87630,1,8,0:0:0:0:
256,192,87788,1,4,0:0:0:0:
256,192,88419,1,4,0:0:0:0:
256,192,88577,1,0,0:0:0:0:
256,192,88735,1,8,0:0:0:0:
256,192,88893,1,0,0:0:0:0:
256,192,89051,1,0,0:0:0:0:
256,192,89209,1,8,0:0:0:0:
256,192,89367,1,8,0:0:0:0:
256,192,89682,1,0,0:0:0:0:
256,192,89840,1,0,0:0:0:0:
256,192,89998,1,8,0:0:0:0:
256,192,90156,1,0,0:0:0:0:
256,192,90314,1,0,0:0:0:0:
256,192,90630,1,8,0:0:0:0:
256,192,90946,1,0,0:0:0:0:
256,192,91103,1,0,0:0:0:0:
256,192,91261,1,8,0:0:0:0:
256,192,91419,1,0,0:0:0:0:
256,192,91577,1,0,0:0:0:0:
256,192,91735,1,8,0:0:0:0:
256,192,92051,1,0,0:0:0:0:
256,192,92209,1,8,0:0:0:0:
256,192,92288,1,8,0:0:0:0:
256,192,92367,1,8,0:0:0:0:
256,192,92525,1,8,0:0:0:0:
256,192,92682,1,8,0:0:0:0:
256,192,92761,1,8,0:0:0:0:
256,192,92840,1,8,0:0:0:0:
256,192,92998,1,8,0:0:0:0:
256,192,93156,1,0,0:0:0:0:
256,192,93472,1,0,0:0:0:0:
256,192,93630,1,0,0:0:0:0:
256,192,93788,1,8,0:0:0:0:
256,192,93946,1,0,0:0:0:0:
256,192,94103,1,0,0:0:0:0:
256,192,94261,1,8,0:0:0:0:
256,192,94419,1,8,0:0:0:0:
256,192,94735,1,0,0:0:0:0:
256,192,94893,1,0,0:0:0:0:
256,192,95051,1,8,0:0:0:0:
256,192,95209,1,0,0:0:0:0:
256,192,95367,1,0,0:0:0:0:
256,192,95525,1,8,0:0:0:0:
256,192,95682,1,8,0:0:0:0:
256,192,95998,1,0,0:0:0:0:
256,192,96156,1,0,0:0:0:0:
256,192,96314,1,8,0:0:0:0:
256,192,96472,1,0,0:0:0:0:
256,192,96630,1,0,0:0:0:0:
256,192,96788,1,8,0:0:0:0:
256,192,97103,1,0,0:0:0:0:
256,192,97261,1,8,0:0:0:0:
256,192,97340,1,8,0:0:0:0:
256,192,97419,1,8,0:0:0:0:
256,192,97577,1,8,0:0:0:0:
256,192,97735,1,8,0:0:0:0:
256,192,97814,1,8,0:0:0:0:
256,192,97893,1,8,0:0:0:0:
256,192,98051,1,8,0:0:0:0:
256,192,98209,1,0,0:0:0:0:
256,192,98525,1,0,0:0:0:0:
256,192,98682,1,0,0:0:0:0:
256,192,98840,1,8,0:0:0:0:
256,192,98998,1,0,0:0:0:0:
256,192,99156,1,0,0:0:0:0:
256,192,99314,1,8,0:0:0:0:
256,192,99472,1,8,0:0:0:0:
256,192,99788,1,0,0:0:0:0:
256,192,99946,1,0,0:0:0:0:
256,192,100103,1,8,0:0:0:0:
256,192,100261,1,0,0:0:0:0:
256,192,100419,1,0,0:0:0:0:
256,192,100577,1,8,0:0:0:0:
256,192,100735,1,8,0:0:0:0:
256,192,101051,1,0,0:0:0:0:
256,192,101209,1,0,0:0:0:0:
256,192,101367,1,8,0:0:0:0:
256,192,101525,1,0,0:0:0:0:
256,192,101682,1,0,0:0:0:0:
256,192,101840,1,8,0:0:0:0:
256,192,102156,1,0,0:0:0:0:
256,192,102314,1,8,0:0:0:0:
256,192,102393,1,8,0:0:0:0:
256,192,102472,1,8,0:0:0:0:
256,192,102630,1,8,0:0:0:0:
256,192,102788,1,8,0:0:0:0:
256,192,102867,1,8,0:0:0:0:
256,192,102946,1,8,0:0:0:0:
256,192,103103,1,8,0:0:0:0:
256,192,103261,1,0,0:0:0:0:
256,192,103577,1,0,0:0:0:0:
256,192,103735,1,0,0:0:0:0:
256,192,103893,1,8,0:0:0:0:
256,192,104051,1,0,0:0:0:0:
256,192,104209,1,0,0:0:0:0:
256,192,104367,1,8,0:0:0:0:
256,192,104525,1,8,0:0:0:0:
256,192,104840,1,0,0:0:0:0:
256,192,104998,1,0,0:0:0:0:
256,192,105156,1,8,0:0:0:0:
256,192,105314,1,0,0:0:0:0:
256,192,105472,1,0,0:0:0:0:
256,192,105630,1,8,0:0:0:0:
256,192,105788,1,8,0:0:0:0:
256,192,106103,1,0,0:0:0:0:
256,192,106261,1,0,0:0:0:0:
256,192,106419,1,8,0:0:0:0:
256,192,106577,1,0,0:0:0:0:
256,192,106735,1,0,0:0:0:0:
256,192,106893,1,8,0:0:0:0:
256,192,107051,1,0,0:0:0:0:
256,192,107367,1,0,0:0:0:0:
256,192,107525,1,0,0:0:0:0:
256,192,107682,1,8,0:0:0:0:
256,192,107840,1,0,0:0:0:0:
256,192,107998,1,0,0:0:0:0:
256,192,108156,1,8,0:0:0:0:
256,192,108314,1,0,0:0:0:0:
256,192,108630,1,4,0:0:0:0:
256,192,109577,1,12,0:0:0:0:
256,192,109893,1,8,0:0:0:0:
256,192,110209,1,8,0:0:0:0:
256,192,110367,1,8,0:0:0:0:
256,192,110840,1,12,0:0:0:0:
256,192,111156,1,4,0:0:0:0:
256,192,111314,1,0,0:0:0:0:
256,192,111472,1,8,0:0:0:0:
256,192,111630,1,0,0:0:0:0:
256,192,111788,1,0,0:0:0:0:
256,192,111946,1,8,0:0:0:0:
256,192,112261,1,0,0:0:0:0:
256,192,112419,1,8,0:0:0:0:
256,192,112498,1,8,0:0:0:0:
256,192,112577,1,8,0:0:0:0:
256,192,112735,1,8,0:0:0:0:
256,192,112893,1,8,0:0:0:0:
256,192,112972,1,8,0:0:0:0:
256,192,113051,1,8,0:0:0:0:
256,192,113209,1,8,0:0:0:0:
256,192,113682,1,0,0:0:0:0:
256,192,113840,1,0,0:0:0:0:
256,192,113998,1,8,0:0:0:0:
256,192,114156,1,0,0:0:0:0:
256,192,114314,1,0,0:0:0:0:
256,192,114472,1,8,0:0:0:0:
256,192,114630,1,8,0:0:0:0:
256,192,114946,1,0,0:0:0:0:
256,192,115103,1,0,0:0:0:0:
256,192,115261,1,8,0:0:0:0:
256,192,115419,1,0,0:0:0:0:
256,192,115577,1,0,0:0:0:0:
256,192,115735,1,8,0:0:0:0:
256,192,115893,1,8,0:0:0:0:
256,192,116051,1,8,0:0:0:0:
256,192,116209,1,0,0:0:0:0:
256,192,116367,1,0,0:0:0:0:
256,192,116525,1,8,0:0:0:0:
256,192,116682,1,0,0:0:0:0:
256,192,116840,1,0,0:0:0:0:
256,192,116998,1,8,0:0:0:0:
256,192,117314,1,0,0:0:0:0:
256,192,117393,1,0,0:0:0:0:
256,192,117472,1,0,0:0:0:0:
256,192,117630,1,0,0:0:0:0:
256,192,117788,1,8,0:0:0:0:
256,192,117946,1,0,0:0:0:0:
256,192,118261,1,8,0:0:0:0:
256,192,118419,1,0,0:0:0:0:
256,192,118735,1,4,0:0:0:0:
256,192,119998,1,8,0:0:0:0:
256,192,121261,1,0,0:0:0:0:
256,192,122525,1,8,0:0:0:0:
256,192,124419,1,0,0:0:0:0:
256,192,124893,1,8,0:0:0:0:
