osu file format v14

[General]
AudioFilename: Evanescent.mp3
AudioLeadIn: 0
PreviewTime: 87946
Countdown: 0
SampleSet: Normal
StackLeniency: 0.7
Mode: 1
LetterboxInBreaks: 0
WidescreenStoryboard: 0

[Editor]
DistanceSpacing: 1
BeatDivisor: 4
GridSize: 32
TimelineZoom: 3.699999

[Metadata]
Title:Evanescent
TitleUnicode:Evanescent
Artist:LeaF
ArtistUnicode:LeaF
Creator:Krah
Version:Inner Oni
Source:BMS
Tags:post drum n bass and drum'n'bass sengoku sen-goku sen goku optie Spectator CLSW Crystal Cherry Blossom dialgadu77 sayaka- sayaka Nozhomi Kin Secretpipe
BeatmapID:454875
BeatmapSetID:176646

[Difficulty]
HPDrainRate:6
CircleSize:5
OverallDifficulty:6
ApproachRate:5
SliderMultiplier:1.4
SliderTickRate:1

[Events]
//Background and Video events
0,0,"evanescent.jpg",0,0
//Break Periods
//Storyboard Layer 0 (Background)
//Storyboard Layer 1 (Fail)
//Storyboard Layer 2 (Pass)
//Storyboard Layer 3 (Foreground)
//Storyboard Sound Samples

[TimingPoints]
2525,315.789473684211,4,1,0,100,1,0
88419,-100,4,1,0,100,0,1
108630,-100,4,1,0,100,0,0
111156,-100,4,1,0,100,0,1
118735,-100,4,1,0,100,0,0
119920,-111.111111111111,4,1,0,100,0,0
121183,-125,4,1,0,100,0,0
122446,-142.857142857143,4,1,0,100,0,0
124341,-166.666666666667,4,1,0,100,0,0
124814,-200,4,1,0,100,0,0

[HitObjects]
256,192,7577,5,0,0:0:0:0:
256,192,7656,1,0,0:0:0:0:
256,192,7735,1,0,0:0:0:0:
256,192,7814,1,0,0:0:0:0:
256,192,7893,1,8,0:0:0:0:
256,192,8051,1,0,0:0:0:0:
256,192,8367,1,0,0:0:0:0:
256,192,8525,1,8,0:0:0:0:
256,192,8841,1,0,0:0:0:0:
256,192,8920,1,0,0:0:0:0:
256,192,8999,1,0,0:0:0:0:
256,192,9077,1,0,0:0:0:0:
256,192,9156,1,8,0:0:0:0:
256,192,9314,1,0,0:0:0:0:
256,192,9472,1,0,0:0:0:0:
256,192,9788,1,8,0:0:0:0:
256,192,10104,1,0,0:0:0:0:
256,192,10182,1,0,0:0:0:0:
256,192,10262,1,0,0:0:0:0:
256,192,10341,1,0,0:0:0:0:
256,192,10420,1,8,0:0:0:0:
256,192,10577,1,0,0:0:0:0:
256,192,10656,1,0,0:0:0:0:
256,192,10735,1,0,0:0:0:0:
256,192,10893,1,8,0:0:0:0:
256,192,11209,1,0,0:0:0:0:
256,192,11367,1,8,0:0:0:0:
256,192,11446,1,8,0:0:0:0:
256,192,11525,1,8,0:0:0:0:
256,192,11604,1,8,0:0:0:0:
256,192,11683,1,8,0:0:0:0:
256,192,11841,1,8,0:0:0:0:
256,192,11920,1,8,0:0:0:0:
256,192,11999,1,8,0:0:0:0:
256,192,12077,1,8,0:0:0:0:
256,192,12156,1,8,0:0:0:0:
256,192,12314,1,8,0:0:0:0:
256,192,12630,1,0,0:0:0:0:
256,192,12709,1,0,0:0:0:0:
256,192,12788,1,0,0:0:0:0:
256,192,12867,1,0,0:0:0:0:
256,192,12946,1,8,0:0:0:0:
256,192,13104,1,0,0:0:0:0:
256,192,13183,1,0,0:0:0:0:
256,192,13262,1,0,0:0:0:0:
256,192,13341,1,0,0:0:0:0:
256,192,13420,1,8,0:0:0:0:
256,192,13578,1,8,0:0:0:0:
256,192,13735,1,8,0:0:0:0:
256,192,13814,1,8,0:0:0:0:
256,192,13893,1,0,0:0:0:0:
256,192,13972,1,0,0:0:0:0:
256,192,14051,1,0,0:0:0:0:
256,192,14130,1,0,0:0:0:0:
256,192,14209,1,8,0:0:0:0:
256,192,14367,1,0,0:0:0:0:
256,192,14525,1,0,0:0:0:0:
256,192,14841,1,8,0:0:0:0:
256,192,14999,1,8,0:0:0:0:
256,192,15156,1,0,0:0:0:0:
256,192,15314,1,0,0:0:0:0:
256,192,15393,1,0,0:0:0:0:
256,192,15472,1,8,0:0:0:0:
256,192,15630,1,0,0:0:0:0:
256,192,15788,1,0,0:0:0:0:
256,192,15867,1,0,0:0:0:0:
256,192,15946,1,8,0:0:0:0:
256,192,16262,1,0,0:0:0:0:
256,192,16341,1,0,0:0:0:0:
256,192,16420,1,8,0:0:0:0:
256,192,16499,1,8,0:0:0:0:
256,192,16578,1,8,0:0:0:0:
256,192,16656,1,8,0:0:0:0:
256,192,16735,1,8,0:0:0:0:
256,192,16893,1,8,0:0:0:0:
256,192,16972,1,8,0:0:0:0:
256,192,17051,1,8,0:0:0:0:
256,192,17130,1,8,0:0:0:0:
256,192,17209,1,8,0:0:0:0:
256,192,17367,1,0,0:0:0:0:
256,192,17683,1,0,0:0:0:0:
256,192,17841,1,0,0:0:0:0:
256,192,17920,1,0,0:0:0:0:
256,192,17999,1,8,0:0:0:0:
256,192,18156,1,0,0:0:0:0:
256,192,18235,1,0,0:0:0:0:
256,192,18314,1,0,0:0:0:0:
256,192,18472,1,8,0:0:0:0:
256,192,18630,1,8,0:0:0:0:
256,192,18946,1,0,0:0:0:0:
256,192,19025,1,8,0:0:0:0:
256,192,19104,1,0,0:0:0:0:
256,192,19183,1,0,0:0:0:0:
256,192,19262,1,8,0:0:0:0:
256,192,19420,1,0,0:0:0:0:
256,192,19578,1,0,0:0:0:0:
256,192,19735,1,8,0:0:0:0:
256,192,19893,1,8,0:0:0:0:
256,192,20209,1,0,0:0:0:0:
256,192,20367,1,0,0:0:0:0:
256,192,20446,1,0,0:0:0:0:
256,192,20525,1,8,0:0:0:0:
256,192,20683,1,0,0:0:0:0:
256,192,20841,1,0,0:0:0:0:
256,192,20920,1,0,0:0:0:0:
256,192,20999,1,8,0:0:0:0:
256,192,21314,1,0,0:0:0:0:
256,192,21472,1,8,0:0:0:0:
256,192,21551,1,8,0:0:0:0:
256,192,21630,1,8,0:0:0:0:
256,192,21709,1,8,0:0:0:0:
256,192,21788,1,8,0:0:0:0:
256,192,21946,1,8,0:0:0:0:
256,192,22025,1,8,0:0:0:0:
256,192,22104,1,8,0:0:0:0:
256,192,22183,1,8,0:0:0:0:
256,192,22262,1,8,0:0:0:0:
256,192,22420,1,0,0:0:0:0:
256,192,22735,1,0,0:0:0:0:
256,192,22893,1,0,0:0:0:0:
256,192,22972,1,0,0:0:0:0:
256,192,23051,1,8,0:0:0:0:
256,192,23209,1,0,0:0:0:0:
256,192,23367,1,0,0:0:0:0:
256,192,23446,1,0,0:0:0:0:
256,192,23525,1,8,0:0:0:0:
256,192,23683,1,8,0:0:0:0:
256,192,23841,1,8,0:0:0:0:
256,192,23920,1,8,0:0:0:0:
256,192,23999,1,0,0:0:0:0:
256,192,24077,1,8,0:0:0:0:
256,192,24156,1,0,0:0:0:0:
256,192,24235,1,0,0:0:0:0:
256,192,24314,1,8,0:0:0:0:
256,192,24472,1,0,0:0:0:0:
256,192,24630,1,0,0:0:0:0:
256,192,24788,1,8,0:0:0:0:
256,192,24946,1,8,0:0:0:0:
256,192,25104,1,8,0:0:0:0:
256,192,25262,1,0,0:0:0:0:
256,192,25420,1,0,0:0:0:0:
256,192,25499,1,0,0:0:0:0:
256,192,25578,1,8,0:0:0:0:
256,192,25735,1,0,0:0:0:0:
256,192,25893,1,0,0:0:0:0:
256,192,26051,1,8,0:0:0:0:
256,192,26130,1,0,0:0:0:0:
256,192,26209,1,8,0:0:0:0:
256,192,26367,1,0,0:0:0:0:
256,192,26446,1,0,0:0:0:0:
256,192,26525,1,8,0:0:0:0:
256,192,26604,1,8,0:0:0:0:
256,192,26683,1,0,0:0:0:0:
256,192,26762,1,0,0:0:0:0:
256,192,26841,1,0,0:0:0:0:
256,192,26999,1,8,0:0:0:0:
256,192,27156,1,0,0:0:0:0:
256,192,27235,1,0,0:0:0:0:
256,192,27314,1,8,0:0:0:0:
256,192,27472,1,0,0:0:0:0:
256,192,27788,1,4,0:0:0:0:
256,192,29051,1,8,0:0:0:0:
256,192,29130,1,0,0:0:0:0:
256,192,29209,1,0,0:0:0:0:
256,192,29288,1,0,0:0:0:0:
256,192,29367,1,0,0:0:0:0:
256,192,29446,1,0,0:0:0:0:
256,192,29525,1,0,0:0:0:0:
256,192,29604,1,0,0:0:0:0:
256,192,29683,1,8,0:0:0:0:
256,192,29762,1,0,0:0:0:0:
256,192,29841,1,0,0:0:0:0:
256,192,29920,1,0,0:0:0:0:
256,192,29999,1,8,0:0:0:0:
256,192,30314,1,8,0:0:0:0:
256,192,31578,1,8,0:0:0:0:
256,192,31656,1,8,0:0:0:0:
256,192,31735,1,8,0:0:0:0:
256,192,31814,1,8,0:0:0:0:
256,192,31893,1,8,0:0:0:0:
256,192,32209,1,8,0:0:0:0:
256,192,32525,1,0,0:0:0:0:
256,192,32841,1,0,0:0:0:0:
256,192,34183,1,8,0:0:0:0:
256,192,34262,1,8,0:0:0:0:
256,192,34341,1,8,0:0:0:0:
256,192,34420,1,8,0:0:0:0:
256,192,34499,1,8,0:0:0:0:
256,192,34578,1,8,0:0:0:0:
256,192,34656,1,8,0:0:0:0:
256,192,34735,1,8,0:0:0:0:
256,192,34814,1,8,0:0:0:0:
256,192,34893,1,8,0:0:0:0:
256,192,34972,1,8,0:0:0:0:
256,192,35051,1,0,0:0:0:0:
256,192,35367,1,8,0:0:0:0:
256,192,36156,1,4,0:0:0:0:
256,192,36314,1,0,0:0:0:0:
256,192,36472,1,8,0:0:0:0:
256,192,36630,1,12,0:0:0:0:
256,192,36788,1,0,0:0:0:0:
256,192,36946,1,0,0:0:0:0:
256,192,37104,1,8,0:0:0:0:
256,192,37262,1,12,0:0:0:0:
256,192,37420,1,8,0:0:0:0:
256,192,37893,1,0,0:0:0:0:
256,192,38051,1,0,0:0:0:0:
256,192,38130,1,0,0:0:0:0:
256,192,38209,1,8,0:0:0:0:
256,192,38367,1,0,0:0:0:0:
256,192,38525,1,0,0:0:0:0:
256,192,38604,1,0,0:0:0:0:
256,192,38683,1,8,0:0:0:0:
256,192,38841,1,0,0:0:0:0:
256,192,39156,1,0,0:0:0:0:
256,192,39235,1,0,0:0:0:0:
256,192,39314,1,0,0:0:0:0:
256,192,39393,1,0,0:0:0:0:
256,192,39472,1,8,0:0:0:0:
256,192,39630,1,0,0:0:0:0:
256,192,39788,1,0,0:0:0:0:
256,192,39867,1,0,0:0:0:0:
256,192,39946,1,8,0:0:0:0:
256,192,40104,1,8,0:0:0:0:
256,192,40420,1,0,0:0:0:0:
256,192,40499,1,0,0:0:0:0:
256,192,40578,1,0,0:0:0:0:
256,192,40656,1,0,0:0:0:0:
256,192,40735,1,8,0:0:0:0:
256,192,40893,1,0,0:0:0:0:
256,192,41051,1,0,0:0:0:0:
256,192,41130,1,0,0:0:0:0:
256,192,41209,1,8,0:0:0:0:
256,192,41367,1,0,0:0:0:0:
256,192,41525,1,8,0:0:0:0:
256,192,41683,1,8,0:0:0:0:
256,192,41841,1,0,0:0:0:0:
256,192,41920,1,0,0:0:0:0:
256,192,41999,1,8,0:0:0:0:
256,192,42156,1,0,0:0:0:0:
256,192,42314,1,0,0:0:0:0:
256,192,42630,1,8,0:0:0:0:
256,192,42946,1,0,0:0:0:0:
256,192,43104,1,0,0:0:0:0:
256,192,43183,1,0,0:0:0:0:
256,192,43262,1,8,0:0:0:0:
256,192,43420,1,0,0:0:0:0:
256,192,43578,1,0,0:0:0:0:
256,192,43656,1,0,0:0:0:0:
256,192,43735,1,8,0:0:0:0:
256,192,43893,1,8,0:0:0:0:
256,192,44051,1,8,0:0:0:0:
256,192,44209,1,0,0:0:0:0:
256,192,44367,1,0,0:0:0:0:
256,192,44446,1,0,0:0:0:0:
256,192,44525,1,8,0:0:0:0:
256,192,44683,1,0,0:0:0:0:
256,192,44841,1,8,0:0:0:0:
256,192,45156,1,0,0:0:0:0:
256,192,45472,1,8,0:0:0:0:
256,192,45551,1,8,0:0:0:0:
256,192,45630,1,0,0:0:0:0:
256,192,45709,1,0,0:0:0:0:
256,192,45788,1,8,0:0:0:0:
256,192,45946,1,0,0:0:0:0:
256,192,46104,1,0,0:0:0:0:
256,192,46262,1,8,0:0:0:0:
256,192,46341,1,0,0:0:0:0:
256,192,46420,1,8,0:0:0:0:
256,192,46578,1,0,0:0:0:0:
256,192,46735,1,0,0:0:0:0:
256,192,46893,1,8,0:0:0:0:
256,192,46972,1,0,0:0:0:0:
256,192,47051,1,8,0:0:0:0:
256,192,47209,1,8,0:0:0:0:
256,192,47367,1,4,0:0:0:0:
256,192,47683,1,8,0:0:0:0:
256,192,47841,1,0,0:0:0:0:
256,192,47999,1,4,0:0:0:0:
256,192,48156,1,8,0:0:0:0:
256,192,48235,1,0,0:0:0:0:
256,192,48314,1,8,0:0:0:0:
256,192,48472,1,4,0:0:0:0:
256,192,48788,1,0,0:0:0:0:
256,192,48946,1,8,0:0:0:0:
256,192,49104,1,0,0:0:0:0:
256,192,49262,1,8,0:0:0:0:
256,192,49420,1,8,0:0:0:0:
256,192,49578,1,0,0:0:0:0:
256,192,49735,1,0,0:0:0:0:
256,192,49893,1,8,0:0:0:0:
256,192,50051,1,8,0:0:0:0:
256,192,50209,1,12,0:0:0:0:
256,192,50525,1,0,0:0:0:0:
256,192,50683,1,0,0:0:0:0:
256,192,50762,1,0,0:0:0:0:
256,192,50841,1,8,0:0:0:0:
256,192,50999,1,0,0:0:0:0:
256,192,51156,1,8,0:0:0:0:
256,192,51367,1,8,0:0:0:0:
256,192,51420,1,8,0:0:0:0:
256,192,51472,1,8,0:0:0:0:
256,192,51630,1,8,0:0:0:0:
256,192,51788,1,0,0:0:0:0:
256,192,51841,1,0,0:0:0:0:
256,192,51893,1,0,0:0:0:0:
256,192,51946,1,8,0:0:0:0:
256,192,52025,1,0,0:0:0:0:
256,192,52104,1,8,0:0:0:0:
256,192,52182,1,0,0:0:0:0:
256,192,52262,1,8,0:0:0:0:
256,192,52341,1,8,0:0:0:0:
256,192,52420,1,8,0:0:0:0:
256,192,52498,1,8,0:0:0:0:
256,192,52578,1,0,0:0:0:0:
256,192,52656,1,0,0:0:0:0:
256,192,52735,1,8,0:0:0:0:
256,192,52788,1,8,0:0:0:0:
256,192,52841,1,8,0:0:0:0:
256,192,52893,1,0,0:0:0:0:
256,192,52946,1,0,0:0:0:0:
256,192,52999,1,0,0:0:0:0:
256,192,53051,1,8,0:0:0:0:
256,192,53209,1,8,0:0:0:0:
256,192,53262,1,8,0:0:0:0:
256,192,53314,1,8,0:0:0:0:
256,192,53367,1,0,0:0:0:0:
256,192,53446,1,0,0:0:0:0:
256,192,53525,1,8,0:0:0:0:
256,192,53604,1,8,0:0:0:0:
256,192,53683,1,0,0:0:0:0:
256,192,53735,1,0,0:0:0:0:
256,192,53788,1,0,0:0:0:0:
256,192,53841,1,8,0:0:0:0:
256,192,53920,1,0,0:0:0:0:
256,192,53999,1,8,0:0:0:0:
256,192,54156,1,0,0:0:0:0:
256,192,54314,1,8,0:0:0:0:
256,192,54393,1,8,0:0:0:0:
256,192,54472,1,0,0:0:0:0:
256,192,54551,1,8,0:0:0:0:
256,192,54709,1,8,0:0:0:0:
256,192,54788,1,8,0:0:0:0:
256,192,54867,1,0,0:0:0:0:
256,192,54946,1,8,0:0:0:0:
256,192,55156,1,8,0:0:0:0:
256,192,55209,1,8,0:0:0:0:
256,192,55262,1,8,0:0:0:0:
256,192,55341,1,8,0:0:0:0:
256,192,55420,1,0,0:0:0:0:
256,192,55499,1,8,0:0:0:0:
256,192,55578,1,0,0:0:0:0:
256,192,55893,1,0,0:0:0:0:
256,192,55972,1,0,0:0:0:0:
256,192,56051,1,8,0:0:0:0:
256,192,56130,1,0,0:0:0:0:
256,192,56209,1,8,0:0:0:0:
256,192,56288,1,8,0:0:0:0:
256,192,56367,1,8,0:0:0:0:
256,192,56446,1,0,0:0:0:0:
256,192,56525,1,8,0:0:0:0:
256,192,56604,1,0,0:0:0:0:
256,192,56683,1,8,0:0:0:0:
256,192,56762,1,0,0:0:0:0:
256,192,56841,1,0,0:0:0:0:
256,192,56999,1,0,0:0:0:0:
256,192,57078,1,8,0:0:0:0:
256,192,57156,1,8,0:0:0:0:
256,192,57314,1,8,0:0:0:0:
256,192,57367,1,8,0:0:0:0:
256,192,57472,1,8,0:0:0:0:
256,192,57525,1,8,0:0:0:0:
256,192,57578,1,8,0:0:0:0:
256,192,57630,1,0,0:0:0:0:
256,192,57709,1,0,0:0:0:0:
256,192,57788,1,8,0:0:0:0:
256,192,57841,1,8,0:0:0:0:
256,192,57893,1,0,0:0:0:0:
256,192,57946,1,0,0:0:0:0:
256,192,57999,1,0,0:0:0:0:
256,192,58051,1,0,0:0:0:0:
256,192,58104,1,8,0:0:0:0:
256,192,58262,1,0,0:0:0:0:
256,192,58341,1,8,0:0:0:0:
256,192,58420,1,0,0:0:0:0:
256,192,58499,1,0,0:0:0:0:
256,192,58578,1,8,0:0:0:0:
256,192,58630,1,8,0:0:0:0:
256,192,58683,1,0,0:0:0:0:
256,192,58735,1,8,0:0:0:0:
256,192,58814,1,0,0:0:0:0:
256,192,58893,1,0,0:0:0:0:
256,192,58972,1,8,0:0:0:0:
256,192,59051,1,0,0:0:0:0:
256,192,59104,1,0,0:0:0:0:
256,192,59156,1,0,0:0:0:0:
256,192,59209,1,0,0:0:0:0:
256,192,59262,1,0,0:0:0:0:
256,192,59314,1,0,0:0:0:0:
256,192,59367,1,8,0:0:0:0:
256,192,59578,1,8,0:0:0:0:
256,192,59630,1,8,0:0:0:0:
256,192,59683,1,8,0:0:0:0:
256,192,59762,1,8,0:0:0:0:
256,192,59841,1,0,0:0:0:0:
256,192,59920,1,0,0:0:0:0:
256,192,59999,1,8,0:0:0:0:
256,192,60051,1,8,0:0:0:0:
256,192,60156,1,0,0:0:0:0:
256,192,60314,1,12,0:0:0:0:
256,192,60630,1,0,0:0:0:0:
256,192,60788,1,0,0:0:0:0:
256,192,60946,1,8,0:0:0:0:
256,192,61104,1,0,0:0:0:0:
256,192,61262,1,0,0:0:0:0:
256,192,61420,1,8,0:0:0:0:
256,192,61578,1,0,0:0:0:0:
256,192,61735,1,0,0:0:0:0:
256,192,61893,1,8,0:0:0:0:
256,192,62051,1,0,0:0:0:0:
256,192,62209,1,0,0:0:0:0:
256,192,62367,1,8,0:0:0:0:
256,192,62525,1,4,0:0:0:0:
256,192,62841,1,8,0:0:0:0:
256,192,63156,1,0,0:0:0:0:
256,192,63314,1,0,0:0:0:0:
256,192,63472,1,8,0:0:0:0:
256,192,63630,1,0,0:0:0:0:
256,192,64104,1,8,0:0:0:0:
256,192,64420,1,0,0:0:0:0:
256,192,64735,1,8,0:0:0:0:
256,192,65209,1,0,0:0:0:0:
256,192,65367,1,12,0:0:0:0:
256,192,65683,1,0,0:0:0:0:
256,192,65841,1,0,0:0:0:0:
256,192,65920,1,0,0:0:0:0:
256,192,65999,1,8,0:0:0:0:
256,192,66156,1,0,0:0:0:0:
256,192,66235,1,0,0:0:0:0:
256,192,66314,1,0,0:0:0:0:
256,192,66393,1,0,0:0:0:0:
256,192,66472,1,8,0:0:0:0:
256,192,66946,1,0,0:0:0:0:
256,192,67104,1,0,0:0:0:0:
256,192,67183,1,0,0:0:0:0:
256,192,67262,1,8,0:0:0:0:
256,192,67420,1,0,0:0:0:0:
256,192,67578,1,0,0:0:0:0:
256,192,67735,1,8,0:0:0:0:
256,192,67893,1,0,0:0:0:0:
256,192,68209,1,0,0:0:0:0:
256,192,68367,1,0,0:0:0:0:
256,192,68446,1,0,0:0:0:0:
256,192,68525,1,8,0:0:0:0:
256,192,68683,1,0,0:0:0:0:
256,192,68762,1,0,0:0:0:0:
256,192,68841,1,0,0:0:0:0:
256,192,68920,1,0,0:0:0:0:
256,192,68999,1,8,0:0:0:0:
256,192,69314,1,8,0:0:0:0:
256,192,69472,1,8,0:0:0:0:
256,192,69630,1,0,0:0:0:0:
256,192,69709,1,0,0:0:0:0:
256,192,69788,1,8,0:0:0:0:
256,192,69946,1,0,0:0:0:0:
256,192,70025,1,0,0:0:0:0:
256,192,70104,1,0,0:0:0:0:
256,192,70262,1,8,0:0:0:0:
256,192,70420,1,0,0:0:0:0:
256,192,70735,1,0,0:0:0:0:
256,192,71051,1,0,0:0:0:0:
256,192,71367,1,0,0:0:0:0:
256,192,71683,1,0,0:0:0:0:
256,192,71999,1,0,0:0:0:0:
256,192,72314,1,0,0:0:0:0:
256,192,72630,1,8,0:0:0:0:
256,192,72946,1,8,0:0:0:0:
256,192,73262,1,8,0:0:0:0:
256,192,73420,1,0,0:0:0:0:
256,192,73578,1,8,0:0:0:0:
256,192,73735,1,0,0:0:0:0:
256,192,73893,1,8,0:0:0:0:
256,192,74051,1,0,0:0:0:0:
256,192,74209,1,8,0:0:0:0:
256,192,74367,1,0,0:0:0:0:
256,192,74525,1,8,0:0:0:0:
256,192,74683,1,0,0:0:0:0:
256,192,74762,1,8,0:0:0:0:
256,192,74841,1,8,0:0:0:0:
256,192,74999,1,8,0:0:0:0:
256,192,75078,1,8,0:0:0:0:
256,192,75156,1,0,0:0:0:0:
256,192,75235,1,0,0:0:0:0:
256,192,75314,1,8,0:0:0:0:
256,192,75472,1,12,0:0:0:0:
256,192,75788,1,4,0:0:0:0:
256,192,75946,1,0,0:0:0:0:
256,192,76025,1,8,0:0:0:0:
256,192,76262,1,4,0:0:0:0:
256,192,76420,1,0,0:0:0:0:
256,192,76499,1,8,0:0:0:0:
256,192,76735,1,4,0:0:0:0:
256,192,76893,1,0,0:0:0:0:
256,192,76972,1,8,0:0:0:0:
256,192,77051,1,0,0:0:0:0:
256,192,77209,1,4,0:0:0:0:
256,192,77367,1,0,0:0:0:0:
256,192,77446,1,0,0:0:0:0:
256,192,77525,1,8,0:0:0:0:
256,192,77683,1,4,0:0:0:0:
256,192,77841,1,0,0:0:0:0:
256,192,77999,1,4,0:0:0:0:
256,192,78156,1,0,0:0:0:0:
256,192,78314,1,0,0:0:0:0:
256,192,78472,1,4,0:0:0:0:
256,192,78630,1,4,0:0:0:0:
256,192,78788,1,0,0:0:0:0:
256,192,78946,1,4,0:0:0:0:
256,192,79183,1,4,0:0:0:0:
256,192,79420,1,4,0:0:0:0:
256,192,79578,1,12,0:0:0:0:
256,192,79735,1,0,0:0:0:0:
256,192,79814,1,0,0:0:0:0:
256,192,79893,1,8,0:0:0:0:
256,192,79972,1,0,0:0:0:0:
256,192,80051,1,8,0:0:0:0:
256,192,80209,1,12,0:0:0:0:
256,192,80367,1,0,0:0:0:0:
256,192,80525,1,12,0:0:0:0:
256,192,80683,1,0,0:0:0:0:
256,192,80841,1,12,0:0:0:0:
256,192,80999,1,12,0:0:0:0:
256,192,81156,1,0,0:0:0:0:
256,192,81235,1,0,0:0:0:0:
256,192,81314,1,0,0:0:0:0:
256,192,81472,1,12,0:0:0:0:
256,192,81630,1,12,0:0:0:0:
256,192,81788,1,0,0:0:0:0:
256,192,81867,1,0,0:0:0:0:
256,192,81946,1,0,0:0:0:0:
256,192,82104,1,12,0:0:0:0:
256,192,82262,1,12,0:0:0:0:
256,192,82420,1,0,0:0:0:0:
256,192,82578,1,12,0:0:0:0:
256,192,82735,1,0,0:0:0:0:
256,192,82893,1,12,0:0:0:0:
256,192,83051,1,0,0:0:0:0:
256,192,83209,1,0,0:0:0:0:
256,192,83262,1,0,0:0:0:0:
256,192,83314,1,0,0:0:0:0:
256,192,83367,1,8,0:0:0:0:
256,192,83525,1,0,0:0:0:0:
256,192,83604,1,0,0:0:0:0:
256,192,83683,1,8,0:0:0:0:
256,192,83841,1,0,0:0:0:0:
256,192,83999,1,12,0:0:0:0:
256,192,84235,1,12,0:0:0:0:
256,192,84472,1,12,0:0:0:0:
256,192,84630,1,12,0:0:0:0:
256,192,84788,1,0,0:0:0:0:
256,192,84867,1,0,0:0:0:0:
256,192,84946,1,0,0:0:0:0:
256,192,85025,1,0,0:0:0:0:
256,192,85104,1,0,0:0:0:0:
256,192,85183,1,0,0:0:0:0:
256,192,85262,1,8,0:0:0:0:
256,192,85341,1,8,0:0:0:0:
256,192,85420,1,0,0:0:0:0:
256,192,85499,1,0,0:0:0:0:
256,192,85578,1,8,0:0:0:0:
256,192,85735,1,8,0:0:0:0:
256,192,85814,1,8,0:0:0:0:
256,192,85893,1,0,0:0:0:0:
256,192,85972,1,0,0:0:0:0:
256,192,86051,1,0,0:0:0:0:
256,192,86130,1,0,0:0:0:0:
256,192,86209,1,0,0:0:0:0:
256,192,86288,1,0,0:0:0:0:
256,192,86367,1,0,0:0:0:0:
256,192,86446,1,0,0:0:0:0:
256,192,86525,1,0,0:0:0:0:
256,192,86604,1,0,0:0:0:0:
256,192,86683,1,0,0:0:0:0:
256,192,86762,1,0,0:0:0:0:
256,192,86841,1,0,0:0:0:0:
256,192,86920,1,0,0:0:0:0:
256,192,86999,1,0,0:0:0:0:
256,192,87078,1,0,0:0:0:0:
256,192,87156,1,8,0:0:0:0:
256,192,87235,1,8,0:0:0:0:
256,192,87314,1,8,0:0:0:0:
256,192,87393,1,8,0:0:0:0:
256,192,87472,1,0,0:0:0:0:
256,192,87551,1,0,0:0:0:0:
256,192,87630,1,0,0:0:0:0:
256,192,87709,1,0,0:0:0:0:
256,192,87788,1,8,0:0:0:0:
256,192,87946,1,0,0:0:0:0:
256,192,88104,1,0,0:0:0:0:
256,192,88262,1,8,0:0:0:0:
256,192,88420,1,4,0:0:0:0:
256,192,88578,1,0,0:0:0:0:
256,192,88656,1,0,0:0:0:0:
256,192,88735,1,8,0:0:0:0:
256,192,88893,1,0,0:0:0:0:
256,192,88972,1,8,0:0:0:0:
256,192,89051,1,0,0:0:0:0:
256,192,89209,1,8,0:0:0:0:
256,192,89367,1,8,0:0:0:0:
256,192,89683,1,4,0:0:0:0:
256,192,89841,1,0,0:0:0:0:
256,192,89920,1,0,0:0:0:0:
256,192,89999,1,8,0:0:0:0:
256,192,90156,1,0,0:0:0:0:
256,192,90314,1,0,0:0:0:0:
256,192,90472,1,0,0:0:0:0:
256,192,90551,1,0,0:0:0:0:
256,192,90630,1,8,0:0:0:0:
256,192,90946,1,4,0:0:0:0:
256,192,91104,1,0,0:0:0:0:
256,192,91183,1,0,0:0:0:0:
256,192,91262,1,8,0:0:0:0:
256,192,91420,1,0,0:0:0:0:
256,192,91499,1,0,0:0:0:0:
256,192,91578,1,0,0:0:0:0:
256,192,91656,1,0,0:0:0:0:
256,192,91735,1,8,0:0:0:0:
256,192,92051,1,8,0:0:0:0:
256,192,92209,1,8,0:0:0:0:
256,192,92288,1,8,0:0:0:0:
256,192,92367,1,8,0:0:0:0:
256,192,92446,1,8,0:0:0:0:
256,192,92525,1,8,0:0:0:0:
256,192,92683,1,8,0:0:0:0:
256,192,92762,1,8,0:0:0:0:
256,192,92841,1,8,0:0:0:0:
256,192,92920,1,8,0:0:0:0:
256,192,92999,1,8,0:0:0:0:
256,192,93156,1,12,0:0:0:0:
256,192,93472,1,0,0:0:0:0:
256,192,93630,1,0,0:0:0:0:
256,192,93709,1,0,0:0:0:0:
256,192,93788,1,8,0:0:0:0:
256,192,93946,1,0,0:0:0:0:
256,192,94025,1,0,0:0:0:0:
256,192,94104,1,0,0:0:0:0:
256,192,94183,1,0,0:0:0:0:
256,192,94262,1,8,0:0:0:0:
256,192,94420,1,8,0:0:0:0:
256,192,94578,1,8,0:0:0:0:
256,192,94656,1,8,0:0:0:0:
256,192,94735,1,0,0:0:0:0:
256,192,94893,1,0,0:0:0:0:
256,192,94972,1,0,0:0:0:0:
256,192,95051,1,8,0:0:0:0:
256,192,95209,1,0,0:0:0:0:
256,192,95367,1,0,0:0:0:0:
256,192,95525,1,0,0:0:0:0:
256,192,95683,1,8,0:0:0:0:
256,192,95999,1,8,0:0:0:0:
256,192,96156,1,0,0:0:0:0:
256,192,96235,1,0,0:0:0:0:
256,192,96314,1,8,0:0:0:0:
256,192,96472,1,0,0:0:0:0:
256,192,96551,1,0,0:0:0:0:
256,192,96630,1,0,0:0:0:0:
256,192,96709,1,0,0:0:0:0:
256,192,96788,1,8,0:0:0:0:
256,192,96946,1,0,0:0:0:0:
256,192,97104,1,0,0:0:0:0:
256,192,97183,1,0,0:0:0:0:
256,192,97262,1,8,0:0:0:0:
256,192,97341,1,8,0:0:0:0:
256,192,97420,1,8,0:0:0:0:
256,192,97499,1,8,0:0:0:0:
256,192,97578,1,8,0:0:0:0:
256,192,97735,1,8,0:0:0:0:
256,192,97814,1,8,0:0:0:0:
256,192,97893,1,8,0:0:0:0:
256,192,97972,1,8,0:0:0:0:
256,192,98051,1,8,0:0:0:0:
256,192,98209,1,0,0:0:0:0:
256,192,98525,1,0,0:0:0:0:
256,192,98683,1,0,0:0:0:0:
256,192,98762,1,0,0:0:0:0:
256,192,98841,1,8,0:0:0:0:
256,192,98999,1,0,0:0:0:0:
256,192,99078,1,0,0:0:0:0:
256,192,99156,1,0,0:0:0:0:
256,192,99235,1,0,0:0:0:0:
256,192,99314,1,8,0:0:0:0:
256,192,99472,1,8,0:0:0:0:
256,192,99788,1,0,0:0:0:0:
256,192,99946,1,0,0:0:0:0:
256,192,100025,1,0,0:0:0:0:
256,192,100104,1,8,0:0:0:0:
256,192,100262,1,0,0:0:0:0:
256,192,100341,1,0,0:0:0:0:
256,192,100420,1,0,0:0:0:0:
256,192,100578,1,0,0:0:0:0:
256,192,100735,1,8,0:0:0:0:
256,192,101051,1,0,0:0:0:0:
256,192,101209,1,0,0:0:0:0:
256,192,101288,1,0,0:0:0:0:
256,192,101367,1,8,0:0:0:0:
256,192,101525,1,0,0:0:0:0:
256,192,101604,1,0,0:0:0:0:
256,192,101683,1,0,0:0:0:0:
256,192,101762,1,0,0:0:0:0:
256,192,101841,1,8,0:0:0:0:
256,192,102156,1,8,0:0:0:0:
256,192,102314,1,8,0:0:0:0:
256,192,102393,1,8,0:0:0:0:
256,192,102472,1,8,0:0:0:0:
256,192,102551,1,8,0:0:0:0:
256,192,102630,1,8,0:0:0:0:
256,192,102788,1,8,0:0:0:0:
256,192,102867,1,8,0:0:0:0:
256,192,102946,1,8,0:0:0:0:
256,192,103025,1,8,0:0:0:0:
256,192,103104,1,8,0:0:0:0:
256,192,103262,1,8,0:0:0:0:
256,192,103578,1,0,0:0:0:0:
256,192,103735,1,0,0:0:0:0:
256,192,103814,1,0,0:0:0:0:
256,192,103893,1,8,0:0:0:0:
256,192,104051,1,0,0:0:0:0:
256,192,104130,1,0,0:0:0:0:
256,192,104209,1,0,0:0:0:0:
256,192,104367,1,8,0:0:0:0:
256,192,104525,1,8,0:0:0:0:
256,192,104683,1,8,0:0:0:0:
256,192,104762,1,8,0:0:0:0:
256,192,104841,1,0,0:0:0:0:
256,192,104999,1,0,0:0:0:0:
256,192,105078,1,0,0:0:0:0:
256,192,105156,1,8,0:0:0:0:
256,192,105314,1,0,0:0:0:0:
256,192,105472,1,0,0:0:0:0:
256,192,105630,1,8,0:0:0:0:
256,192,105788,1,8,0:0:0:0:
256,192,105946,1,8,0:0:0:0:
256,192,106104,1,8,0:0:0:0:
256,192,106262,1,0,0:0:0:0:
256,192,106341,1,0,0:0:0:0:
256,192,106420,1,8,0:0:0:0:
256,192,106578,1,0,0:0:0:0:
256,192,106656,1,0,0:0:0:0:
256,192,106735,1,0,0:0:0:0:
256,192,106814,1,0,0:0:0:0:
256,192,106893,1,8,0:0:0:0:
256,192,107051,1,8,0:0:0:0:
256,192,107209,1,8,0:0:0:0:
256,192,107288,1,8,0:0:0:0:
256,192,107367,1,0,0:0:0:0:
256,192,107525,1,0,0:0:0:0:
256,192,107683,1,8,0:0:0:0:
256,192,107841,1,4,0:0:0:0:
256,192,108156,1,8,0:0:0:0:
256,192,108314,1,4,0:0:0:0:
256,192,108630,1,4,0:0:0:0:
256,192,109578,1,12,0:0:0:0:
256,192,109893,1,8,0:0:0:0:
256,192,109972,1,0,0:0:0:0:
256,192,110051,1,0,0:0:0:0:
256,192,110130,1,0,0:0:0:0:
256,192,110209,1,8,0:0:0:0:
256,192,110288,1,0,0:0:0:0:
256,192,110367,1,8,0:0:0:0:
256,192,110446,1,0,0:0:0:0:
256,192,110525,1,0,0:0:0:0:
256,192,110683,1,8,0:0:0:0:
256,192,110841,1,12,0:0:0:0:
256,192,111156,1,4,0:0:0:0:
256,192,111314,1,0,0:0:0:0:
256,192,111393,1,0,0:0:0:0:
256,192,111472,1,8,0:0:0:0:
256,192,111630,1,0,0:0:0:0:
256,192,111709,1,0,0:0:0:0:
256,192,111788,1,0,0:0:0:0:
256,192,111867,1,0,0:0:0:0:
256,192,111946,1,8,0:0:0:0:
256,192,112262,1,8,0:0:0:0:
256,192,112420,1,8,0:0:0:0:
256,192,112499,1,8,0:0:0:0:
256,192,112578,1,0,0:0:0:0:
256,192,112656,1,0,0:0:0:0:
256,192,112735,1,8,0:0:0:0:
256,192,112893,1,8,0:0:0:0:
256,192,112972,1,8,0:0:0:0:
256,192,113051,1,0,0:0:0:0:
256,192,113130,1,0,0:0:0:0:
256,192,113209,1,8,0:0:0:0:
256,192,113683,1,0,0:0:0:0:
256,192,113841,1,0,0:0:0:0:
256,192,113920,1,0,0:0:0:0:
256,192,113999,1,8,0:0:0:0:
256,192,114156,1,0,0:0:0:0:
256,192,114235,1,0,0:0:0:0:
256,192,114314,1,0,0:0:0:0:
256,192,114393,1,0,0:0:0:0:
256,192,114472,1,8,0:0:0:0:
256,192,114630,1,8,0:0:0:0:
256,192,114788,1,8,0:0:0:0:
256,192,114867,1,8,0:0:0:0:
256,192,114946,1,0,0:0:0:0:
256,192,115104,1,0,0:0:0:0:
256,192,115183,1,0,0:0:0:0:
256,192,115262,1,8,0:0:0:0:
256,192,115420,1,0,0:0:0:0:
256,192,115578,1,0,0:0:0:0:
256,192,115735,1,8,0:0:0:0:
256,192,115893,1,12,0:0:0:0:
256,192,116209,1,0,0:0:0:0:
256,192,116367,1,0,0:0:0:0:
256,192,116446,1,0,0:0:0:0:
256,192,116525,1,8,0:0:0:0:
256,192,116683,1,0,0:0:0:0:
256,192,116841,1,0,0:0:0:0:
256,192,116920,1,0,0:0:0:0:
256,192,116999,1,8,0:0:0:0:
256,192,117156,1,0,0:0:0:0:
256,192,117314,1,8,0:0:0:0:
256,192,117393,1,8,0:0:0:0:
256,192,117472,1,0,0:0:0:0:
256,192,117551,1,0,0:0:0:0:
256,192,117630,1,0,0:0:0:0:
256,192,117709,1,0,0:0:0:0:
256,192,117788,1,8,0:0:0:0:
256,192,117946,1,0,0:0:0:0:
256,192,118104,1,0,0:0:0:0:
256,192,118183,1,0,0:0:0:0:
256,192,118262,1,8,0:0:0:0:
256,192,118420,1,4,0:0:0:0:
256,192,118735,1,4,0:0:0:0:
256,192,119999,1,8,0:0:0:0:
256,192,121262,1,0,0:0:0:0:
256,192,122525,1,8,0:0:0:0:
256,192,124420,1,0,0:0:0:0:
256,192,124893,1,0,0:0:0:0:
256,192,124946,1,0,0:0:0:0:
256,192,124998,1,8,0:0:0:0:
