osu file format v14

[General]
AudioFilename: Evanescent.mp3
AudioLeadIn: 0
PreviewTime: 87946
Countdown: 0
SampleSet: Normal
StackLeniency: 0.7
Mode: 1
LetterboxInBreaks: 0
WidescreenStoryboard: 1

[Editor]
Bookmarks: 7577
DistanceSpacing: 1
BeatDivisor: 4
GridSize: 32
TimelineZoom: 3.699999

[Metadata]
Title:Evanescent
TitleUnicode:Evanescent
Artist:LeaF
ArtistUnicode:LeaF
Creator:Krah
Version:Futsuu
Source:BMS
Tags:post drum n bass and drum'n'bass sengoku sen-goku sen goku optie Spectator CLSW Crystal Cherry Blossom dialgadu77 sayaka- sayaka Nozhomi Kin Secretpipe
BeatmapID:454874
BeatmapSetID:176646

[Difficulty]
HPDrainRate:4
CircleSize:5
OverallDifficulty:4
ApproachRate:5
SliderMultiplier:1.4
SliderTickRate:1

[Events]
//Background and Video events
0,0,"evanescent.jpg",0,0
//Break Periods
//Storyboard Layer 0 (Background)
//Storyboard Layer 1 (Fail)
//Storyboard Layer 2 (Pass)
//Storyboard Layer 3 (Foreground)
//Storyboard Sound Samples

[TimingPoints]
2525,315.789473684211,4,1,0,100,1,0
88419,-100,4,1,0,100,0,1
108630,-100,4,1,0,100,0,0
111156,-100,4,1,0,100,0,1
118735,-100,4,1,0,100,0,0

[HitObjects]
256,192,7577,5,0,0:0:0:0:
256,192,7893,1,8,0:0:0:0:
256,192,8525,1,8,0:0:0:0:
256,192,8840,1,0,0:0:0:0:
256,192,9156,1,8,0:0:0:0:
256,192,9472,1,0,0:0:0:0:
256,192,10103,1,0,0:0:0:0:
256,192,10419,1,8,0:0:0:0:
256,192,10893,1,8,0:0:0:0:
256,192,11209,1,0,0:0:0:0:
256,192,11367,1,0,0:0:0:0:
256,192,11840,1,0,0:0:0:0:
256,192,12314,1,8,0:0:0:0:
256,192,12630,1,0,0:0:0:0:
256,192,12946,1,8,0:0:0:0:
256,192,13577,1,8,0:0:0:0:
256,192,13893,1,0,0:0:0:0:
256,192,14209,1,8,0:0:0:0:
256,192,14525,1,0,0:0:0:0:
256,192,15156,1,0,0:0:0:0:
256,192,15472,1,8,0:0:0:0:
256,192,15946,1,8,0:0:0:0:
256,192,16261,1,0,0:0:0:0:
256,192,16419,1,0,0:0:0:0:
256,192,16735,1,0,0:0:0:0:
256,192,16893,1,0,0:0:0:0:
256,192,17367,1,8,0:0:0:0:
256,192,17682,1,0,0:0:0:0:
256,192,17998,1,8,0:0:0:0:
256,192,18630,1,8,0:0:0:0:
256,192,18946,1,0,0:0:0:0:
256,192,19261,1,8,0:0:0:0:
256,192,19577,1,0,0:0:0:0:
256,192,20209,1,0,0:0:0:0:
256,192,20525,1,8,0:0:0:0:
256,192,20998,1,8,0:0:0:0:
256,192,21314,1,0,0:0:0:0:
256,192,21472,1,0,0:0:0:0:
256,192,21946,1,0,0:0:0:0:
256,192,22419,1,8,0:0:0:0:
256,192,22735,1,0,0:0:0:0:
256,192,23051,1,8,0:0:0:0:
256,192,23525,1,8,0:0:0:0:
256,192,23998,1,0,0:0:0:0:
256,192,24314,1,8,0:0:0:0:
256,192,24630,1,0,0:0:0:0:
256,192,24946,1,8,0:0:0:0:
256,192,25261,1,0,0:0:0:0:
256,192,25735,1,0,0:0:0:0:
256,192,26209,1,8,0:0:0:0:
256,192,26525,1,0,0:0:0:0:
256,192,26998,1,0,0:0:0:0:
256,192,27472,1,0,0:0:0:0:
256,192,27788,1,4,0:0:0:0:
256,192,29051,1,8,0:0:0:0:
256,192,29367,1,8,0:0:0:0:
256,192,29682,1,8,0:0:0:0:
256,192,29998,1,0,0:0:0:0:
256,192,30314,1,8,0:0:0:0:
256,192,31577,1,8,0:0:0:0:
256,192,31893,1,8,0:0:0:0:
256,192,32209,1,8,0:0:0:0:
256,192,32525,1,0,0:0:0:0:
256,192,32840,1,8,0:0:0:0:
256,192,34103,1,8,0:0:0:0:
256,192,34419,1,8,0:0:0:0:
256,192,34577,1,8,0:0:0:0:
256,192,34735,1,8,0:0:0:0:
256,192,35051,1,0,0:0:0:0:
256,192,35367,1,8,0:0:0:0:
256,192,36156,1,4,0:0:0:0:
256,192,36630,1,4,0:0:0:0:
256,192,37261,1,12,0:0:0:0:
256,192,37893,1,4,0:0:0:0:
256,192,38209,1,8,0:0:0:0:
256,192,38682,1,8,0:0:0:0:
256,192,39156,1,0,0:0:0:0:
256,192,39472,1,8,0:0:0:0:
256,192,39788,1,0,0:0:0:0:
256,192,40103,1,8,0:0:0:0:
256,192,40419,1,0,0:0:0:0:
256,192,40893,1,0,0:0:0:0:
256,192,41209,1,8,0:0:0:0:
256,192,41525,1,0,0:0:0:0:
256,192,41682,1,0,0:0:0:0:
256,192,42314,1,0,0:0:0:0:
256,192,42630,1,8,0:0:0:0:
256,192,42946,1,0,0:0:0:0:
256,192,43419,1,0,0:0:0:0:
256,192,43893,1,8,0:0:0:0:
256,192,44209,1,0,0:0:0:0:
256,192,44525,1,8,0:0:0:0:
256,192,44840,1,0,0:0:0:0:
256,192,45156,1,0,0:0:0:0:
256,192,45472,1,4,0:0:0:0:
256,192,45788,1,8,0:0:0:0:
256,192,46419,1,8,0:0:0:0:
256,192,46893,1,8,0:0:0:0:
256,192,47051,1,8,0:0:0:0:
256,192,47367,1,0,0:0:0:0:
256,192,47682,1,8,0:0:0:0:
256,192,47998,1,4,0:0:0:0:
256,192,48946,1,8,0:0:0:0:
256,192,49577,1,8,0:0:0:0:
256,192,50209,1,12,0:0:0:0:
256,192,50525,1,8,0:0:0:0:
256,192,50840,1,8,0:0:0:0:
256,192,51156,1,8,0:0:0:0:
256,192,51472,1,0,0:0:0:0:
256,192,51788,1,8,0:0:0:0:
256,192,52419,1,8,0:0:0:0:
256,192,52735,1,0,0:0:0:0:
256,192,53051,1,0,0:0:0:0:
256,192,53525,1,0,0:0:0:0:
256,192,53998,1,8,0:0:0:0:
256,192,54314,1,8,0:0:0:0:
256,192,54788,1,8,0:0:0:0:
256,192,54946,1,8,0:0:0:0:
256,192,55261,1,8,0:0:0:0:
256,192,55419,1,8,0:0:0:0:
256,192,55577,1,8,0:0:0:0:
256,192,55893,1,0,0:0:0:0:
256,192,56367,1,8,0:0:0:0:
256,192,56840,1,0,0:0:0:0:
256,192,57156,1,8,0:0:0:0:
256,192,57472,1,0,0:0:0:0:
256,192,57788,1,8,0:0:0:0:
256,192,58103,1,0,0:0:0:0:
256,192,58735,1,8,0:0:0:0:
256,192,59367,1,8,0:0:0:0:
256,192,59682,1,8,0:0:0:0:
256,192,59998,1,0,0:0:0:0:
256,192,60314,1,12,0:0:0:0:
256,192,60630,1,0,0:0:0:0:
256,192,62525,1,4,0:0:0:0:
256,192,62840,1,8,0:0:0:0:
256,192,63156,1,0,0:0:0:0:
256,192,63472,1,8,0:0:0:0:
256,192,64103,1,8,0:0:0:0:
256,192,64419,1,0,0:0:0:0:
256,192,64735,1,8,0:0:0:0:
256,192,65209,1,8,0:0:0:0:
256,192,65367,1,8,0:0:0:0:
256,192,65682,1,0,0:0:0:0:
256,192,65998,1,8,0:0:0:0:
256,192,66472,1,8,0:0:0:0:
256,192,66946,1,0,0:0:0:0:
256,192,67261,1,8,0:0:0:0:
256,192,67577,1,0,0:0:0:0:
256,192,67893,1,8,0:0:0:0:
256,192,68209,1,0,0:0:0:0:
256,192,68682,1,0,0:0:0:0:
256,192,68998,1,8,0:0:0:0:
256,192,69314,1,8,0:0:0:0:
256,192,69472,1,8,0:0:0:0:
256,192,69788,1,8,0:0:0:0:
256,192,70419,1,0,0:0:0:0:
256,192,70735,1,0,0:0:0:0:
256,192,71367,1,0,0:0:0:0:
256,192,71998,1,8,0:0:0:0:
256,192,72630,1,8,0:0:0:0:
256,192,73261,1,0,0:0:0:0:
256,192,73577,1,0,0:0:0:0:
256,192,73893,1,8,0:0:0:0:
256,192,74209,1,8,0:0:0:0:
256,192,74525,1,4,0:0:0:0:
256,192,75472,1,12,0:0:0:0:
256,192,75788,1,4,0:0:0:0:
256,192,76261,1,4,0:0:0:0:
256,192,76735,1,4,0:0:0:0:
256,192,77209,1,4,0:0:0:0:
256,192,77682,1,4,0:0:0:0:
256,192,77998,1,4,0:0:0:0:
256,192,78472,1,4,0:0:0:0:
256,192,78630,1,4,0:0:0:0:
256,192,78946,1,4,0:0:0:0:
256,192,79419,1,4,0:0:0:0:
256,192,79577,1,4,0:0:0:0:
256,192,80209,1,4,0:0:0:0:
256,192,80525,1,4,0:0:0:0:
256,192,80840,1,4,0:0:0:0:
256,192,80998,1,4,0:0:0:0:
256,192,81472,1,4,0:0:0:0:
256,192,81630,1,4,0:0:0:0:
256,192,82103,1,4,0:0:0:0:
256,192,82261,1,4,0:0:0:0:
256,192,82577,1,4,0:0:0:0:
256,192,82893,1,4,0:0:0:0:
256,192,83367,1,4,0:0:0:0:
256,192,83998,1,4,0:0:0:0:
256,192,84235,1,4,0:0:0:0:
256,192,84472,1,4,0:0:0:0:
256,192,84630,1,4,0:0:0:0:
256,192,85261,1,8,0:0:0:0:
256,192,85577,1,12,0:0:0:0:
256,192,85893,1,0,0:0:0:0:
256,192,86209,1,0,0:0:0:0:
256,192,86525,1,8,0:0:0:0:
256,192,86840,1,8,0:0:0:0:
256,192,87156,1,0,0:0:0:0:
256,192,88419,1,12,0:0:0:0:
256,192,88735,1,8,0:0:0:0:
256,192,89209,1,8,0:0:0:0:
256,192,89367,1,8,0:0:0:0:
256,192,89682,1,0,0:0:0:0:
256,192,89998,1,8,0:0:0:0:
256,192,90314,1,0,0:0:0:0:
256,192,90630,1,8,0:0:0:0:
256,192,90946,1,0,0:0:0:0:
256,192,91419,1,0,0:0:0:0:
256,192,91735,1,8,0:0:0:0:
256,192,92051,1,8,0:0:0:0:
256,192,92209,1,8,0:0:0:0:
256,192,92682,1,8,0:0:0:0:
256,192,93156,1,12,0:0:0:0:
256,192,93472,1,0,0:0:0:0:
256,192,93946,1,0,0:0:0:0:
256,192,94419,1,8,0:0:0:0:
256,192,94735,1,0,0:0:0:0:
256,192,95209,1,0,0:0:0:0:
256,192,95367,1,0,0:0:0:0:
256,192,95682,1,8,0:0:0:0:
256,192,95998,1,0,0:0:0:0:
256,192,96472,1,0,0:0:0:0:
256,192,96788,1,8,0:0:0:0:
256,192,97103,1,8,0:0:0:0:
256,192,97261,1,8,0:0:0:0:
256,192,97735,1,8,0:0:0:0:
256,192,98209,1,8,0:0:0:0:
256,192,98525,1,0,0:0:0:0:
256,192,98998,1,0,0:0:0:0:
256,192,99314,1,8,0:0:0:0:
256,192,99472,1,8,0:0:0:0:
256,192,99788,1,0,0:0:0:0:
256,192,100103,1,8,0:0:0:0:
256,192,100419,1,0,0:0:0:0:
256,192,100735,1,8,0:0:0:0:
256,192,101051,1,0,0:0:0:0:
256,192,101525,1,0,0:0:0:0:
256,192,101840,1,8,0:0:0:0:
256,192,102156,1,8,0:0:0:0:
256,192,102314,1,8,0:0:0:0:
256,192,102788,1,8,0:0:0:0:
256,192,103261,1,12,0:0:0:0:
256,192,103577,1,0,0:0:0:0:
256,192,104051,1,8,0:0:0:0:
256,192,104525,1,0,0:0:0:0:
256,192,104840,1,8,0:0:0:0:
256,192,105314,1,8,0:0:0:0:
256,192,105788,1,0,0:0:0:0:
256,192,106103,1,8,0:0:0:0:
256,192,106577,1,0,0:0:0:0:
256,192,107051,1,8,0:0:0:0:
256,192,107367,1,0,0:0:0:0:
256,192,107840,1,0,0:0:0:0:
256,192,108156,1,0,0:0:0:0:
256,192,108314,1,0,0:0:0:0:
256,192,108630,1,4,0:0:0:0:
256,192,109577,1,12,0:0:0:0:
256,192,109893,1,8,0:0:0:0:
256,192,110209,1,8,0:0:0:0:
256,192,110525,1,0,0:0:0:0:
256,192,110840,1,12,0:0:0:0:
256,192,111156,1,4,0:0:0:0:
256,192,111630,1,8,0:0:0:0:
256,192,111946,1,8,0:0:0:0:
256,192,112261,1,8,0:0:0:0:
256,192,112419,1,8,0:0:0:0:
256,192,112893,1,0,0:0:0:0:
256,192,113209,1,8,0:0:0:0:
256,192,113682,1,0,0:0:0:0:
256,192,114156,1,0,0:0:0:0:
256,192,114472,1,8,0:0:0:0:
256,192,114946,1,0,0:0:0:0:
256,192,115261,1,8,0:0:0:0:
256,192,115577,1,0,0:0:0:0:
256,192,115893,1,8,0:0:0:0:
256,192,116209,1,0,0:0:0:0:
256,192,116682,1,0,0:0:0:0:
256,192,116998,1,8,0:0:0:0:
256,192,117472,1,8,0:0:0:0:
256,192,117946,1,8,0:0:0:0:
256,192,118419,1,8,0:0:0:0:
256,192,118735,1,0,0:0:0:0:
256,192,119998,1,8,0:0:0:0:
256,192,121261,1,0,0:0:0:0:
256,192,122525,1,8,0:0:0:0:
256,192,124419,1,0,0:0:0:0:
256,192,124893,1,8,0:0:0:0:
