osu file format v13

[General]
AudioFilename: Leaf - Evanescent.mp3
AudioLeadIn: 0
PreviewTime: 87127
Countdown: 0
SampleSet: Soft
StackLeniency: 0.2
Mode: 2
LetterboxInBreaks: 1
EpilepsyWarning: 1
WidescreenStoryboard: 1

[Editor]
DistanceSpacing: 0.8
BeatDivisor: 4
GridSize: 8
TimelineZoom: 1

[Metadata]
Title:Evanescent
TitleUnicode:Evanescent
Artist:LeaF
ArtistUnicode:LeaF
Creator:Kevin97
Version:Overdoze
Source:
Tags:
BeatmapID:582295
BeatmapSetID:253691

[Difficulty]
HPDrainRate:5
CircleSize:4
OverallDifficulty:4
ApproachRate:9.6
SliderMultiplier:1.4
SliderTickRate:4

[Events]
//Background and Video events
0,0,"Evanescent_mic.jpg",0,0
//Break Periods
2,50404,62512
//Storyboard Layer 0 (Background)
//Storyboard Layer 1 (Fail)
//Storyboard Layer 2 (Pass)
//Storyboard Layer 3 (Foreground)
//Storyboard Sound Samples

[TimingPoints]
2512,307.692307692308,4,2,0,100,1,0
6204,-100,4,2,0,10,0,0
6819,-100,4,2,0,100,0,0
8665,-66.6666666666667,4,2,0,100,0,0
12281,-50,4,2,0,100,0,0
12588,-66.6666666666667,4,2,0,100,0,0
18896,-50,4,2,0,100,0,0
27742,-200,4,2,0,100,0,0
31896,-100,4,2,0,100,0,0
36127,-50,4,2,0,100,0,0
38973,-50,4,2,0,100,0,0
42588,-50,4,2,0,100,0,0
44819,-181.818181818181,4,2,0,100,0,0
46281,-50,4,2,0,100,0,0
63127,-50,4,2,0,100,0,0
118742,-55.5555555555556,4,2,0,100,0,0
121204,-90.9090909090909,4,2,0,100,0,0

[HitObjects]
256,184,6204,6,0,L|256:216,17,17.5,0|0|0|0|0|0|0|0|0|0|0|0|0|0|0|0|0|0,0:0|0:0|0:0|0:0|0:0|0:0|0:0|0:0|0:0|0:0|0:0|0:0|0:0|0:0|0:0|0:0|0:0|0:0,0:0:0:0:
256,184,6896,2,0,L|312:184,7,35,0|0|0|0|0|0|0|0,0:0|0:0|0:0|0:0|0:0|0:0|0:0|0:0,0:0:0:0:
184,144,7588,6,0,P|136:80|56:72,1,140
328,144,8050,6,0,P|376:80|464:64,1,140
40,288,8512,1,0,0:0:0:0:
296,288,8819,2,0,P|192:256|96:184,1,210
232,144,9281,1,0,0:0:0:0:
88,80,9435,1,0,0:0:0:0:
480,232,9742,1,0,0:0:0:0:
352,232,10127,6,0,B|320:200|320:200|376:168|376:120|376:120|440:120,1,210.000008010865
160,232,10588,6,0,B|192:200|192:200|136:168|136:120|136:120|72:120,1,210.000008010865
73,120,11204,1,0,0:0:0:0:
208,120,11358,6,0,L|272:120,2,52.5000020027161
136,120,11588,2,0,L|200:120,1,52.5000020027161
288,120,11819,2,0,L|224:120,1,52.5000020027161
376,120,11973,2,0,L|312:120,1,52.5000020027161
464,120,12127,2,0,L|400:120,1,52.5000020027161
32,120,12281,1,0,0:0:0:0:
208,232,12588,6,0,P|96:240|24:320,1,210
304,232,13050,6,0,P|416:240|488:320,1,210
368,312,13512,2,0,L|304:312,1,52.5000020027161
176,312,13666,2,0,L|112:312,1,52.5000020027161
296,152,13896,6,0,P|304:64|360:120,1,210.000008010865,0|0,0:0|0:0,0:0:0:0:
296,152,14358,1,0,0:0:0:0:
80,152,14512,1,0,0:0:0:0:
432,152,14819,1,0,0:0:0:0:
176,232,15127,6,0,L|112:232,1,52.5000020027161
136,160,15281,2,0,L|80:160,1,52.5000020027161
40,96,15435,1,0,0:0:0:0:
336,232,15588,6,0,L|400:232,1,52.5000020027161
376,160,15742,2,0,L|432:160,1,52.5000020027161
472,96,15896,1,0,0:0:0:0:
328,80,16050,2,0,P|264:136|232:296,1,210.000008010865
192,256,16435,2,0,L|128:256,1,52.5000020027161
256,256,16588,2,0,L|320:256,1,52.5000020027161
104,256,16742,2,0,L|80:320,1,52.5000020027161
336,256,16896,2,0,L|360:320,5,52.5000020027161,0|0|0|0|0|0,0:0|0:0|0:0|0:0|0:0|0:0,0:0:0:0:
32,256,17358,1,0,0:0:0:0:
456,216,17665,5,0,0:0:0:0:
408,200,17742,1,0,0:0:0:0:
376,160,17819,1,0,0:0:0:0:
376,112,17896,1,0,0:0:0:0:
324,64,17973,1,0,0:0:0:0:
56,216,18127,5,0,0:0:0:0:
104,200,18204,1,0,0:0:0:0:
136,160,18281,1,0,0:0:0:0:
136,112,18358,1,0,0:0:0:0:
464,104,18435,1,0,0:0:0:0:
256,96,18588,1,0,0:0:0:0:
256,288,18896,6,0,L|336:288,1,70
304,224,19050,2,0,L|388:224,1,70
344,160,19204,2,0,L|432:160,1,70
300,88,19435,1,0,0:0:0:0:
476,92,19588,1,0,0:0:0:0:
44,88,19896,1,0,0:0:0:0:
196,136,20204,5,0,0:0:0:0:
128,156,20281,1,0,0:0:0:0:
92,220,20358,1,0,0:0:0:0:
120,288,20435,1,0,0:0:0:0:
184,328,20512,1,0,0:0:0:0:
316,136,20665,5,0,0:0:0:0:
384,156,20742,1,0,0:0:0:0:
420,220,20819,1,0,0:0:0:0:
392,288,20896,1,0,0:0:0:0:
328,328,20973,1,0,0:0:0:0:
260,332,21050,6,0,L|36:332,1,210
196,220,21435,6,0,L|116:220,1,70
256,152,21588,2,0,L|176:152,1,70
308,88,21742,2,0,L|228:88,1,70
448,80,21896,6,0,L|520:80,1,70
448,80,22050,2,0,L|520:156,1,70
448,80,22204,2,0,L|448:164,1,70
380,80,22358,6,0,L|124:80,1,210
60,240,22742,5,0,0:0:0:0:
116,280,22819,1,0,0:0:0:0:
176,316,22896,1,0,0:0:0:0:
236,352,22973,1,0,0:0:0:0:
60,240,23050,1,0,0:0:0:0:
452,240,23204,5,0,0:0:0:0:
396,280,23281,1,0,0:0:0:0:
336,316,23358,1,0,0:0:0:0:
276,352,23435,1,0,0:0:0:0:
452,240,23512,1,0,0:0:0:0:
412,176,23588,6,0,L|328:176,1,70
376,108,23742,2,0,L|284:108,1,70
152,104,23973,5,0,0:0:0:0:
112,80,24050,1,0,0:0:0:0:
112,40,24127,1,0,0:0:0:0:
152,16,24204,1,0,0:0:0:0:
256,56,24281,1,0,0:0:0:0:
32,64,24435,1,0,0:0:0:0:
480,72,24588,1,0,0:0:0:0:
256,192,24896,1,0,0:0:0:0:
136,152,25281,5,0,0:0:0:0:
112,200,25358,1,0,0:0:0:0:
88,240,25435,1,0,0:0:0:0:
64,280,25512,1,0,0:0:0:0:
376,152,25742,5,0,0:0:0:0:
400,200,25819,1,0,0:0:0:0:
424,240,25896,1,0,0:0:0:0:
448,280,25973,1,0,0:0:0:0:
256,304,26050,1,0,0:0:0:0:
256,192,26127,1,0,0:0:0:0:
256,80,26204,1,0,0:0:0:0:
152,72,26358,6,0,L|72:72,1,70
360,72,26512,6,0,L|440:72,1,70
152,72,26665,6,0,L|72:72,1,70
360,72,26819,6,0,L|440:72,1,70
82,72,26973,2,0,L|8:72,1,70
16,152,27281,1,0,0:0:0:0:
496,152,27435,1,0,0:0:0:0:
368,256,27742,6,0,P|320:320|344:216,1,297.5
392,176,29127,1,0,0:0:0:0:
448,136,29204,1,0,0:0:0:0:
504,96,29281,1,0,0:0:0:0:
448,48,29358,1,0,0:0:0:0:
384,16,29435,1,0,0:0:0:0:
504,96,29512,1,0,0:0:0:0:
320,56,29588,5,0,0:0:0:0:
264,104,29665,1,0,0:0:0:0:
208,152,29742,1,0,0:0:0:0:
264,200,29819,1,0,0:0:0:0:
320,248,29896,1,0,0:0:0:0:
40,328,29973,1,0,0:0:0:0:
160,224,30281,6,0,P|200:208|124:208,1,280
180,200,31588,1,0,0:0:0:0:
252,200,31665,1,0,0:0:0:0:
320,200,31742,1,0,0:0:0:0:
396,204,31819,1,0,0:0:0:0:
468,204,31896,2,0,L|368:260,1,105
248,268,32204,2,0,L|144:268,1,105
40,96,32512,2,0,L|144:96,1,105
216,96,32819,1,0,0:0:0:0:
288,96,32896,6,0,P|376:132|168:236,1,560
256,192,34204,1,0,0:0:0:0:
408,192,34281,1,0,0:0:0:0:
256,60,34358,1,0,0:0:0:0:
116,192,34435,1,0,0:0:0:0:
256,324,34512,1,0,0:0:0:0:
408,192,34588,1,0,0:0:0:0:
256,60,34665,1,0,0:0:0:0:
116,192,34742,1,0,0:0:0:0:
256,324,34819,1,0,0:0:0:0:
408,192,34896,1,0,0:0:0:0:
256,60,34973,1,0,0:0:0:0:
116,192,35050,1,0,0:0:0:0:
408,192,35358,6,0,P|324:200|376:340,1,280
176,280,36127,2,0,L|28:280,2,140,0|0|0,0:0|0:0|0:0,0:0:0:0:
120,192,36588,2,0,L|268:192,2,140,0|0|0,0:0|0:0|0:0,0:0:0:0:
348,108,37050,2,0,L|208:108,2,140,0|0|0,0:0|0:0|0:0,0:0:0:0:
280,176,37435,6,0,L|376:176,1,70
200,184,37588,2,0,L|250:260,1,70
96,264,37742,2,0,L|171:261,2,70,0|0|0,0:0|0:0|0:0,0:0:0:0:
440,64,37973,6,0,B|312:112|400:244|484:144,1,210
72,64,38358,6,0,B|264:304|180:64|80:272,1,280
184,276,38973,6,0,L|344:276,1,140
152,208,39281,1,0,0:0:0:0:
360,212,39435,1,0,0:0:0:0:
116,144,39588,1,0,0:0:0:0:
388,144,39742,1,0,0:0:0:0:
76,208,39896,5,0,0:0:0:0:
136,208,40050,2,0,B|256:208|256:208|256:296|56:296,1,350
136,296,40512,1,0,0:0:0:0:
204,296,40588,1,0,0:0:0:0:
136,296,40665,1,0,0:0:0:0:
64,296,40742,1,0,0:0:0:0:
448,296,40896,1,0,0:0:0:0:
376,296,40974,1,0,0:0:0:0:
308,296,41050,1,0,0:0:0:0:
376,296,41127,1,0,0:0:0:0:
448,296,41204,1,0,0:0:0:0:
256,296,41358,5,0,0:0:0:0:
64,296,41512,1,0,0:0:0:0:
456,156,41665,6,0,L|380:156,1,70
246,156,41819,2,0,L|316:156,1,70
168,280,41973,1,0,0:0:0:0:
104,156,42127,6,0,L|168:284,1,140
456,232,42588,2,0,L|168:232,1,280
152,232,42973,1,0,0:0:0:0:
128,232,43050,1,0,0:0:0:0:
104,232,43127,1,0,0:0:0:0:
80,232,43204,1,0,0:0:0:0:
176,232,43281,1,0,0:0:0:0:
456,232,43435,1,0,0:0:0:0:
360,232,43512,1,0,0:0:0:0:
384,232,43589,1,0,0:0:0:0:
408,232,43666,1,0,0:0:0:0:
432,232,43743,1,0,0:0:0:0:
336,232,43820,1,0,0:0:0:0:
304,128,43896,6,0,L|216:128,1,70
104,160,44050,2,0,L|24:160,1,70,0|0,0:0|0:0,0:0:0:0:
256,192,44204,5,0,0:0:0:0:
312,176,44281,1,0,0:0:0:0:
336,128,44358,1,0,0:0:0:0:
312,80,44435,1,0,0:0:0:0:
256,56,44512,2,0,L|96:56,1,140
448,104,44819,6,0,P|448:136|416:144,1,57.7500017623902
64,280,45127,6,0,L|64:248|64:232,1,38.5000011749268
120,240,45358,1,0,0:0:0:0:
136,264,45435,1,0,0:0:0:0:
168,280,45511,1,0,0:0:0:0:
208,272,45588,1,0,0:0:0:0:
224,240,45665,1,0,0:0:0:0:
240,216,45742,1,0,0:0:0:0:
272,216,45819,1,0,0:0:0:0:
296,248,45896,1,0,0:0:0:0:
296,280,45973,1,0,0:0:0:0:
272,312,46050,1,0,0:0:0:0:
232,312,46127,1,0,0:0:0:0:
208,288,46204,1,0,0:0:0:0:
200,248,46281,6,0,L|48:248,1,140
200,144,46588,6,0,L|272:144,2,70
312,248,46896,6,0,L|464:248,1,140
312,144,47203,6,0,L|240:144,2,70,0|0|0,0:0|0:0|0:0,0:0:0:0:
176,144,47435,6,0,L|248:144,2,70,0|0|0,0:0|0:0|0:0,0:0:0:0:
384,144,47665,6,0,L|456:144,2,70,0|0|0,0:0|0:0|0:0,0:0:0:0:
104,232,47973,5,0,0:0:0:0:
104,232,48127,1,0,0:0:0:0:
104,232,48281,1,0,0:0:0:0:
472,232,48435,1,0,0:0:0:0:
256,192,48819,12,0,50204,0:0:0:0:
192,64,63127,6,0,B|72:104|72:104|72:176|72:176|208:240|208:240,1,280
312,64,63588,6,0,B|440:104|440:104|440:176|440:176|176:312|176:312,1,490
424,152,64435,6,0,B|336:152|336:152|280:64|280:64|184:64,1,280
409,80,65204,6,0,B|424:80|424:80|432:64|432:64|440:80|440:80|448:64|448:64|456:80|456:80|464:64|464:64|472:80|472:80|480:64,1,140
160,144,65665,5,0,0:0:0:0:
352,144,65819,5,0,0:0:0:0:
160,144,65973,1,0,0:0:0:0:
352,144,66127,1,0,0:0:0:0:
352,144,66281,1,0,0:0:0:0:
32,144,66435,1,0,0:0:0:0:
32,240,66742,5,0,0:0:0:0:
136,240,66896,6,0,L|208:240,1,70
288,240,67050,2,0,L|368:240,1,70
440,240,67204,2,0,L|520:240,1,70
360,240,67358,1,0,0:0:0:0:
480,176,67435,1,0,0:0:0:0:
32,240,67588,1,0,0:0:0:0:
480,96,67896,1,0,0:0:0:0:
352,240,68204,5,0,0:0:0:0:
160,240,68358,5,0,0:0:0:0:
352,240,68512,1,0,0:0:0:0:
160,240,68666,1,0,0:0:0:0:
160,240,68820,1,0,0:0:0:0:
480,240,68974,1,0,0:0:0:0:
480,144,69281,5,0,0:0:0:0:
376,144,69435,6,0,L|304:144,1,70
224,144,69589,2,0,L|144:144,1,70
72,144,69743,2,0,L|-8:144,1,70
152,144,69897,1,0,0:0:0:0:
112,208,69974,1,0,0:0:0:0:
480,144,70050,1,0,0:0:0:0:
32,288,70358,1,0,0:0:0:0:
256,344,70742,5,0,0:0:0:0:
256,272,71050,5,0,0:0:0:0:
256,200,71358,5,0,0:0:0:0:
256,128,71665,1,0,0:0:0:0:
480,32,71973,5,0,0:0:0:0:
480,104,72280,5,0,0:0:0:0:
40,352,72588,5,0,0:0:0:0:
40,280,72896,1,0,0:0:0:0:
208,32,73280,5,0,0:0:0:0:
296,32,73434,1,0,0:0:0:0:
168,96,73588,1,0,0:0:0:0:
344,96,73741,1,0,0:0:0:0:
112,152,73895,1,0,0:0:0:0:
400,152,74049,1,0,0:0:0:0:
64,208,74204,1,0,0:0:0:0:
448,208,74358,1,0,0:0:0:0:
280,256,74512,6,0,B|384:256|384:256|192:256|192:256|320:256|320:256|128:256|128:256|408:256,1,840
240,208,75742,6,0,P|240:72|24:112,1,420
208,192,76281,6,0,P|360:248|512:152,1,350
320,248,76742,6,0,P|200:344|48:256,1,350
141,44,77204,6,0,P|194:194|48:256,1,350,0|0,0:0|0:0,0:0:0:0:
464,64,77665,6,0,P|416:168|496:232,1,210
48,320,77973,2,0,P|176:208|16:152,1,350
336,88,78435,6,0,L|136:88,1,140
286,224,78665,6,0,L|496:224,1,210
48,320,78973,6,0,L|248:320,1,140,0|0,0:0|0:0,0:0:0:0:
464,320,79204,6,0,L|264:320,1,140,0|0,0:0|0:0,0:0:0:0:
48,320,79435,6,0,L|248:320,1,140,0|0,0:0|0:0,0:0:0:0:
152,240,79665,1,0,0:0:0:0:
112,240,79742,1,0,0:0:0:0:
80,240,79819,1,0,0:0:0:0:
40,240,79896,1,0,0:0:0:0:
80,240,79973,1,0,0:0:0:0:
112,240,80050,1,0,0:0:0:0:
152,240,80127,1,0,0:0:0:0:
464,320,80204,6,0,L|464:88,1,210
352,136,80512,6,0,L|352:346,1,210
136,344,80819,6,0,L|312:344,1,140
136,344,81127,5,0,0:0:0:0:
120,344,81204,1,0,0:0:0:0:
104,344,81281,1,0,0:0:0:0:
424,256,81435,6,0,L|248:256,1,140
424,256,81743,5,0,0:0:0:0:
440,256,81820,1,0,0:0:0:0:
456,256,81897,1,0,0:0:0:0:
80,136,82050,6,0,L|296:136,1,210,0|0,0:0|0:0,0:0:0:0:
80,136,82588,1,0,0:0:0:0:
456,128,82896,5,0,0:0:0:0:
40,248,83204,6,0,L|40:288,4,35,0|0|0|0|0,0:0|0:0|0:0|0:0|0:0,0:0:0:0:
352,240,83819,6,0,L|496:240,1,140
248,240,84204,1,0,0:0:0:0:
112,240,84435,1,0,0:0:0:0:
472,88,84665,6,0,L|424:88,23,35
256,192,85588,6,0,L|256:280,11,70,0|0|0|0|0|0|0|0|0|0|0|0,0:0|0:0|0:0|0:0|0:0|0:0|0:0|0:0|0:0|0:0|0:0|0:0,0:0:0:0:
128,192,86512,6,0,L|128:280,3,70,0|0|0|0,0:0|0:0|0:0|0:0,0:0:0:0:
376,192,86819,6,0,L|376:280,3,70,0|0|0|0,0:0|0:0|0:0|0:0,0:0:0:0:
32,192,87127,6,0,L|32:280,1,70,0|0,0:0|0:0,0:0:0:0:
376,192,87281,6,0,L|376:280,1,70,0|0,0:0|0:0,0:0:0:0:
128,192,87435,6,0,L|128:280,1,70,0|0,0:0|0:0,0:0:0:0:
480,192,87588,6,0,L|480:280,1,70,0|0,0:0|0:0,0:0:0:0:
208,48,87742,6,0,P|144:168|240:38,1,630
208,48,88588,5,0,0:0:0:0:
408,48,88742,1,0,0:0:0:0:
72,48,88896,6,0,P|88:184|64:328,1,280
472,144,89358,5,0,0:0:0:0:
464,240,89665,5,0,0:0:0:0:
256,192,89819,1,0,0:0:0:0:
24,272,89973,1,0,0:0:0:0:
136,120,90127,1,0,0:0:0:0:
472,144,90281,1,0,0:0:0:0:
24,184,90588,1,0,0:0:0:0:
144,40,90896,6,0,L|520:40,1,350
304,184,91435,6,0,L|-16:184,1,280
24,184,92050,5,0,0:0:0:0:
472,136,92204,6,0,L|408:80,4,70,0|0|0|0|0,0:0|0:0|0:0|0:0|0:0,0:0:0:0:
336,136,92588,6,0,L|256:184,1,70
216,208,92742,2,0,L|176:272,1,70
136,320,92896,2,0,L|80:256,2,70,0|0|0,0:0|0:0|0:0,0:0:0:0:
216,208,93127,2,0,L|504:208,1,280,0|0,0:0|0:0,0:0:0:0:
424,208,93588,1,0,0:0:0:0:
352,208,93742,1,0,0:0:0:0:
40,40,93896,6,0,B|96:136|96:136|32:232|32:232|128:336,1,350
176,328,94358,5,0,0:0:0:0:
248,328,94435,1,0,0:0:0:0:
320,328,94512,1,0,0:0:0:0:
392,328,94588,1,0,0:0:0:0:
320,328,94665,1,0,0:0:0:0:
40,40,94742,6,0,P|96:176|192:272,1,280
40,40,95204,1,0,0:0:0:0:
472,40,95358,6,0,P|416:176|320:272,1,280
144,152,95973,6,0,L|144:200,4,35,0|0|0|0|0,0:0|0:0|0:0|0:0|0:0,0:0:0:0:
48,240,96281,1,0,0:0:0:0:
368,152,96435,6,0,L|368:200,4,35,0|0|0|0|0,0:0|0:0|0:0|0:0|0:0,0:0:0:0:
464,240,96743,1,0,0:0:0:0:
304,240,96896,1,0,0:0:0:0:
256,192,97050,5,0,0:0:0:0:
256,192,97127,1,0,0:0:0:0:
48,240,97204,5,0,0:0:0:0:
112,208,97281,1,0,0:0:0:0:
144,144,97358,1,0,0:0:0:0:
128,80,97435,1,0,0:0:0:0:
72,32,97512,1,0,0:0:0:0:
128,80,97588,1,0,0:0:0:0:
200,96,97665,1,0,0:0:0:0:
368,72,97742,6,0,L|464:72,1,70
304,152,97896,2,0,L|400:152,1,70
232,232,98050,2,0,L|320:232,1,70
232,304,98204,6,0,L|16:304,1,210
96,304,98512,6,0,P|184:264|240:96,1,280
416,80,98973,6,0,P|328:120|352:280,1,280
48,112,99435,5,0,0:0:0:0:
184,112,99742,6,0,L|304:112,3,70,0|0|0|0,0:0|0:0|0:0|0:0,0:0:0:0:
48,112,100127,1,0,0:0:0:0:
48,112,100281,1,0,0:0:0:0:
480,120,100435,1,0,0:0:0:0:
48,112,100742,5,0,0:0:0:0:
192,120,101050,6,0,B|280:120|280:120|56:200|56:200|40:208,1,280
320,120,101512,6,0,B|232:120|232:120|456:200|456:200|472:208,1,280,0|0,0:0|0:0,0:0:0:0:
40,288,102127,5,0,0:0:0:0:
152,248,102281,6,0,L|192:336,4,70,0|0|0|0|0,0:0|0:0|0:0|0:0|0:0,0:0:0:0:
256,192,102742,6,0,L|312:272,1,70
408,192,102896,6,0,L|352:272,1,70
168,128,103050,1,0,0:0:0:0:
416,152,103127,6,0,P|320:272|280:272,1,140
80,96,103588,6,0,P|192:144|88:184,1,280
432,288,104050,6,0,P|320:240|424:200,1,280
304,120,104512,6,0,L|216:120,1,70
80,192,104665,2,0,L|216:192,1,70
232,256,104819,2,0,L|144:256,1,70
320,256,104973,1,0,0:0:0:0:
232,256,105050,1,0,0:0:0:0:
144,256,105127,1,0,0:0:0:0:
144,256,105281,5,0,0:0:0:0:
408,256,105435,5,0,0:0:0:0:
32,256,105742,1,0,0:0:0:0:
488,256,106050,6,0,L|432:160|432:160,4,70,0|0|0|0|0,0:0|0:0|0:0|0:0|0:0,0:0:0:0:
40,152,106435,5,0,0:0:0:0:
128,152,106588,1,0,0:0:0:0:
40,80,106896,5,0,0:0:0:0:
40,80,107050,1,0,0:0:0:0:
288,80,107204,6,0,L|384:80,2,70
480,88,107512,1,0,0:0:0:0:
184,240,107665,6,0,L|24:240,1,140
184,240,108127,6,0,L|24:240,1,140,0|0,0:0|0:0,0:0:0:0:
176,120,108588,6,0,B|259:92|259:92|334:117|334:117|227:168|227:168|385:216|385:216|192:292|192:292|470:336,1,910
424,168,109896,6,0,L|424:72,1,70
360,208,110050,2,0,L|360:120,1,70
296,240,110204,2,0,L|296:160,1,70
224,264,110358,2,0,L|224:184,1,70
160,288,110512,2,0,P|72:232|112:144,1,210
480,120,110819,1,0,0:0:0:0:
120,96,111127,6,0,L|400:96,1,280
120,240,111588,6,0,L|400:240,2,280,0|0|0,0:0|0:0|0:0,0:0:0:0:
120,240,112435,6,0,L|32:240,1,70
256,240,112588,2,0,L|176:240,1,70
384,240,112742,2,0,L|304:240,1,70
480,232,112896,6,0,P|416:168|240:128,1,210
200,128,113204,6,0,P|112:240|320:296,1,420
352,264,113742,1,0,0:0:0:0:
376,192,113819,1,0,0:0:0:0:
352,128,113896,1,0,0:0:0:0:
288,96,113973,1,0,0:0:0:0:
32,144,114127,6,0,P|144:328|192:320,1,280
304,192,114588,6,0,L|304:240,7,35,0|0|0|0|0|0|0|0,0:0|0:0|0:0|0:0|0:0|0:0|0:0|0:0,0:0:0:0:
168,184,114896,6,0,P|192:272|96:176,1,350
69,195,115435,1,0,0:0:0:0:
480,192,115588,1,0,0:0:0:0:
69,195,115896,1,0,0:0:0:0:
440,80,116204,6,0,B|408:176|456:336|456:336|352:240|352:240|352:344|352:344|144:344,1,700
157,344,117127,1,0,0:0:0:0:
157,344,117281,1,0,0:0:0:0:
256,192,117358,1,0,0:0:0:0:
344,352,117435,1,0,0:0:0:0:
424,192,117512,1,0,0:0:0:0:
256,200,117588,5,0,0:0:0:0:
96,184,117665,1,0,0:0:0:0:
96,184,117742,1,0,0:0:0:0:
424,192,117896,1,0,0:0:0:0:
256,64,118204,6,0,L|256:208,1,140
200,40,118742,6,0,P|336:40|184:48,1,1007.99996923828,0|0,0:0|0:0,0:0:0:0:
350,264,121204,6,0,P|184:127|336:280,1,654.500019973755,0|0,0:0|0:0,0:0:0:0:
