osu file format v14

[General]
AudioFilename: -Post Drum n Bass- LeaF - Evanescent.mp3
AudioLeadIn: 0
PreviewTime: 37327
Countdown: 0
SampleSet: Normal
StackLeniency: 0.7
Mode: 1
LetterboxInBreaks: 0
WidescreenStoryboard: 1

[Editor]
DistanceSpacing: 1.2
BeatDivisor: 4
GridSize: 4
TimelineZoom: 1.3

[Metadata]
Title:Evanescent
TitleUnicode:Evanescent
Artist:LeaF
ArtistUnicode:LeaF
Creator:Delta1015
Version:Oni
Source:
Tags:DnB, LeaF, Taiko, Evanescent
BeatmapID:729669
BeatmapSetID:329109

[Difficulty]
HPDrainRate:6.5
CircleSize:2
OverallDifficulty:6.5
ApproachRate:5
SliderMultiplier:1.4
SliderTickRate:1

[Events]
//Background and Video events
0,0,"evanescent.jpg",0,0
//Break Periods
//Storyboard Layer 0 (Background)
//Storyboard Layer 1 (Fail)
//Storyboard Layer 2 (Pass)
//Storyboard Layer 3 (Foreground)
//Storyboard Sound Samples

[TimingPoints]
64,315.789473684211,4,1,0,100,1,0
37958,-100,4,1,0,100,0,1
48064,-100,4,1,0,100,0,0
75853,-100,4,1,0,100,0,1
88485,-100,4,1,0,100,0,0

[HitObjects]
256,192,7643,5,4,0:0:0:0:
256,192,7959,1,8,0:0:0:0:
256,192,8116,1,0,0:0:0:0:
256,192,8195,1,0,0:0:0:0:
256,192,8274,1,0,0:0:0:0:
256,192,8432,1,8,0:0:0:0:
256,192,8906,1,0,0:0:0:0:
256,192,8985,1,0,0:0:0:0:
256,192,9064,1,0,0:0:0:0:
256,192,9222,1,8,0:0:0:0:
256,192,9380,1,0,0:0:0:0:
256,192,9459,1,0,0:0:0:0:
256,192,9538,1,0,0:0:0:0:
256,192,9853,1,8,0:0:0:0:
256,192,10011,1,0,0:0:0:0:
256,192,10169,1,12,0:0:0:0:
256,192,10485,1,0,0:0:0:0:
256,192,10643,1,8,0:0:0:0:
256,192,10801,1,0,0:0:0:0:
256,192,10959,1,0,0:0:0:0:
256,192,11116,1,0,0:0:0:0:
256,192,11274,1,0,0:0:0:0:
256,192,11432,1,8,0:0:0:0:
256,192,11590,1,8,0:0:0:0:
256,192,11748,1,8,0:0:0:0:
256,192,11906,1,0,0:0:0:0:
256,192,11985,1,0,0:0:0:0:
256,192,12064,1,8,0:0:0:0:
256,192,12222,1,8,0:0:0:0:
256,192,12380,1,8,0:0:0:0:
256,192,12538,1,8,0:0:0:0:
256,192,12616,1,8,0:0:0:0:
256,192,12695,1,0,0:0:0:0:
256,192,12853,1,0,0:0:0:0:
256,192,13011,1,8,0:0:0:0:
256,192,13169,1,0,0:0:0:0:
256,192,13485,1,0,0:0:0:0:
256,192,13643,1,8,0:0:0:0:
256,192,13801,1,0,0:0:0:0:
256,192,13959,1,8,0:0:0:0:
256,192,14116,1,8,0:0:0:0:
256,192,14274,1,8,0:0:0:0:
256,192,14432,1,0,0:0:0:0:
256,192,14511,1,0,0:0:0:0:
256,192,14590,1,0,0:0:0:0:
256,192,14748,1,0,0:0:0:0:
256,192,14906,1,8,0:0:0:0:
256,192,15222,1,4,0:0:0:0:
256,192,15380,1,0,0:0:0:0:
256,192,15538,1,8,0:0:0:0:
256,192,15695,1,0,0:0:0:0:
256,192,15853,1,8,0:0:0:0:
256,192,16011,1,8,0:0:0:0:
256,192,16169,1,0,0:0:0:0:
256,192,16327,1,8,0:0:0:0:
256,192,16406,1,0,0:0:0:0:
256,192,16485,1,8,0:0:0:0:
256,192,16643,1,8,0:0:0:0:
256,192,16801,1,8,0:0:0:0:
256,192,16959,1,0,0:0:0:0:
256,192,17116,1,0,0:0:0:0:
256,192,17274,1,0,0:0:0:0:
256,192,17432,1,8,0:0:0:0:
256,192,17748,1,4,0:0:0:0:
256,192,17906,1,0,0:0:0:0:
256,192,17985,1,0,0:0:0:0:
256,192,18064,1,8,0:0:0:0:
256,192,18222,1,0,0:0:0:0:
256,192,18538,1,8,0:0:0:0:
256,192,18695,1,0,0:0:0:0:
256,192,19011,1,8,0:0:0:0:
256,192,19169,1,0,0:0:0:0:
256,192,19248,1,0,0:0:0:0:
256,192,19327,1,0,0:0:0:0:
256,192,19485,1,8,0:0:0:0:
256,192,19643,1,0,0:0:0:0:
256,192,19721,1,0,0:0:0:0:
256,192,19801,1,0,0:0:0:0:
256,192,19959,1,8,0:0:0:0:
256,192,20274,1,4,0:0:0:0:
256,192,20432,1,8,0:0:0:0:
256,192,20590,1,8,0:0:0:0:
256,192,20748,1,0,0:0:0:0:
256,192,20827,1,0,0:0:0:0:
256,192,20906,1,0,0:0:0:0:
256,192,21064,1,8,0:0:0:0:
256,192,21222,1,0,0:0:0:0:
256,192,21380,1,0,0:0:0:0:
256,192,21538,1,8,0:0:0:0:
256,192,21695,1,8,0:0:0:0:
256,192,21853,1,8,0:0:0:0:
256,192,22011,1,0,0:0:0:0:
256,192,22090,1,0,0:0:0:0:
256,192,22169,1,8,0:0:0:0:
256,192,22327,1,8,0:0:0:0:
256,192,22485,1,0,0:0:0:0:
256,192,22801,1,4,0:0:0:0:
256,192,22959,1,0,0:0:0:0:
256,192,23037,1,0,0:0:0:0:
256,192,23116,1,8,0:0:0:0:
256,192,23274,1,0,0:0:0:0:
256,192,23590,1,8,0:0:0:0:
256,192,23748,1,0,0:0:0:0:
256,192,23906,1,0,0:0:0:0:
256,192,24064,1,8,0:0:0:0:
256,192,24222,1,0,0:0:0:0:
256,192,24380,1,8,0:0:0:0:
256,192,24538,1,8,0:0:0:0:
256,192,24695,1,0,0:0:0:0:
256,192,24853,1,0,0:0:0:0:
256,192,24932,1,0,0:0:0:0:
256,192,25011,1,8,0:0:0:0:
256,192,25327,1,12,0:0:0:0:
256,192,25564,1,0,0:0:0:0:
256,192,25801,1,0,0:0:0:0:
256,192,25959,1,8,0:0:0:0:
256,192,26116,1,8,0:0:0:0:
256,192,26274,1,8,0:0:0:0:
256,192,26432,1,0,0:0:0:0:
256,192,26590,1,8,0:0:0:0:
256,192,26748,1,0,0:0:0:0:
256,192,26906,1,0,0:0:0:0:
256,192,27064,1,8,0:0:0:0:
256,192,27142,1,8,0:0:0:0:
256,192,27222,1,8,0:0:0:0:
256,192,27380,1,0,0:0:0:0:
256,192,27538,1,0,0:0:0:0:
256,192,27853,1,4,0:0:0:0:
256,192,29116,1,0,0:0:0:0:
256,192,29274,1,0,0:0:0:0:
256,192,29432,1,8,0:0:0:0:
256,192,29590,1,0,0:0:0:0:
256,192,29669,1,0,0:0:0:0:
256,192,29748,1,0,0:0:0:0:
256,192,29906,1,0,0:0:0:0:
256,192,30064,1,0,0:0:0:0:
256,192,30380,1,4,0:0:0:0:
256,192,31643,1,8,0:0:0:0:
256,192,31801,1,8,0:0:0:0:
256,192,31959,1,8,0:0:0:0:
256,192,32116,1,0,0:0:0:0:
256,192,32195,1,0,0:0:0:0:
256,192,32274,1,8,0:0:0:0:
256,192,32432,1,0,0:0:0:0:
256,192,32590,1,8,0:0:0:0:
256,192,32748,1,8,0:0:0:0:
256,192,32906,1,12,0:0:0:0:
256,192,34169,1,0,0:0:0:0:
256,192,34327,1,8,0:0:0:0:
256,192,34485,1,8,0:0:0:0:
256,192,34643,1,0,0:0:0:0:
256,192,34722,1,0,0:0:0:0:
256,192,34801,1,8,0:0:0:0:
256,192,34959,1,8,0:0:0:0:
256,192,35116,1,8,0:0:0:0:
256,192,35274,1,0,0:0:0:0:
256,192,35432,12,0,36064,0:0:0:0:
256,192,36222,5,4,0:0:0:0:
256,192,36380,1,0,0:0:0:0:
256,192,36538,1,0,0:0:0:0:
256,192,36695,1,8,0:0:0:0:
256,192,36853,1,8,0:0:0:0:
256,192,37011,1,8,0:0:0:0:
256,192,37169,1,0,0:0:0:0:
256,192,37327,1,8,0:0:0:0:
256,192,37485,1,8,0:0:0:0:
256,192,37801,1,8,0:0:0:0:
256,192,37880,1,8,0:0:0:0:
256,192,37959,1,0,0:0:0:0:
256,192,38116,1,0,0:0:0:0:
256,192,38274,1,8,0:0:0:0:
256,192,38432,1,0,0:0:0:0:
256,192,38590,1,0,0:0:0:0:
256,192,38748,1,8,0:0:0:0:
256,192,38906,1,0,0:0:0:0:
256,192,39064,1,0,0:0:0:0:
256,192,39143,1,0,0:0:0:0:
256,192,39222,1,8,0:0:0:0:
256,192,39380,1,8,0:0:0:0:
256,192,39538,1,8,0:0:0:0:
256,192,39695,1,8,0:0:0:0:
256,192,39853,1,8,0:0:0:0:
256,192,40011,1,0,0:0:0:0:
256,192,40169,1,8,0:0:0:0:
256,192,40485,1,0,0:0:0:0:
256,192,40643,1,0,0:0:0:0:
256,192,40801,1,8,0:0:0:0:
256,192,40959,1,0,0:0:0:0:
256,192,41038,1,0,0:0:0:0:
256,192,41116,1,8,0:0:0:0:
256,192,41274,1,8,0:0:0:0:
256,192,41432,1,8,0:0:0:0:
256,192,41590,1,0,0:0:0:0:
256,192,41748,1,0,0:0:0:0:
256,192,41906,1,8,0:0:0:0:
256,192,42222,1,0,0:0:0:0:
256,192,42380,1,8,0:0:0:0:
256,192,42538,1,8,0:0:0:0:
256,192,42695,1,8,0:0:0:0:
256,192,43011,1,0,0:0:0:0:
256,192,43169,1,0,0:0:0:0:
256,192,43327,1,8,0:0:0:0:
256,192,43485,1,0,0:0:0:0:
256,192,43643,1,8,0:0:0:0:
256,192,43801,1,0,0:0:0:0:
256,192,43880,1,0,0:0:0:0:
256,192,43959,1,0,0:0:0:0:
256,192,44116,1,8,0:0:0:0:
256,192,44274,1,8,0:0:0:0:
256,192,44432,1,0,0:0:0:0:
256,192,44590,1,0,0:0:0:0:
256,192,44748,1,8,0:0:0:0:
256,192,44906,1,8,0:0:0:0:
256,192,45064,1,0,0:0:0:0:
256,192,45222,1,8,0:0:0:0:
256,192,45538,2,8,P|56:64|48:68,1,280
256,192,46327,1,8,0:0:0:0:
256,192,46485,1,8,0:0:0:0:
256,192,46643,1,8,0:0:0:0:
256,192,46801,1,0,0:0:0:0:
256,192,46959,1,8,0:0:0:0:
256,192,47274,1,0,0:0:0:0:
256,192,47432,1,8,0:0:0:0:
256,192,47590,1,8,0:0:0:0:
256,192,47748,1,8,0:0:0:0:
256,192,47906,1,8,0:0:0:0:
256,192,48064,1,4,0:0:0:0:
256,192,48222,1,0,0:0:0:0:
256,192,48300,1,0,0:0:0:0:
256,192,48380,1,8,0:0:0:0:
256,192,48538,1,0,0:0:0:0:
256,192,48853,1,8,0:0:0:0:
256,192,49011,1,8,0:0:0:0:
256,192,49169,1,0,0:0:0:0:
256,192,49327,1,8,0:0:0:0:
256,192,49485,1,8,0:0:0:0:
256,192,49643,1,0,0:0:0:0:
256,192,49801,1,0,0:0:0:0:
256,192,49880,1,0,0:0:0:0:
256,192,49959,1,8,0:0:0:0:
256,192,50116,1,8,0:0:0:0:
256,192,50274,1,0,0:0:0:0:
256,192,50590,1,0,0:0:0:0:
256,192,50748,1,0,0:0:0:0:
256,192,50906,1,8,0:0:0:0:
256,192,51064,1,0,0:0:0:0:
256,192,51143,1,0,0:0:0:0:
256,192,51222,1,8,0:0:0:0:
256,192,51380,1,8,0:0:0:0:
256,192,51538,1,0,0:0:0:0:
256,192,51695,1,8,0:0:0:0:
256,192,52011,1,0,0:0:0:0:
256,192,52090,1,0,0:0:0:0:
256,192,52169,1,8,0:0:0:0:
256,192,52327,1,0,0:0:0:0:
256,192,52485,1,0,0:0:0:0:
256,192,52643,1,8,0:0:0:0:
256,192,52801,1,8,0:0:0:0:
256,192,52959,1,0,0:0:0:0:
256,192,53116,1,0,0:0:0:0:
256,192,53274,1,0,0:0:0:0:
256,192,53432,1,8,0:0:0:0:
256,192,53590,1,8,0:0:0:0:
256,192,53748,1,0,0:0:0:0:
256,192,53906,1,8,0:0:0:0:
256,192,54064,1,8,0:0:0:0:
256,192,54222,1,0,0:0:0:0:
256,192,54301,1,0,0:0:0:0:
256,192,54380,1,0,0:0:0:0:
256,192,54538,1,8,0:0:0:0:
256,192,54616,1,8,0:0:0:0:
256,192,54695,1,8,0:0:0:0:
256,192,54853,1,8,0:0:0:0:
256,192,55011,1,0,0:0:0:0:
256,192,55169,1,8,0:0:0:0:
256,192,55248,1,0,0:0:0:0:
256,192,55327,1,0,0:0:0:0:
256,192,55485,1,0,0:0:0:0:
256,192,55643,1,12,0:0:0:0:
256,192,55959,1,0,0:0:0:0:
256,192,56116,1,8,0:0:0:0:
256,192,56274,1,8,0:0:0:0:
256,192,56432,1,0,0:0:0:0:
256,192,56590,1,0,0:0:0:0:
256,192,56748,1,8,0:0:0:0:
256,192,56906,1,8,0:0:0:0:
256,192,56985,1,0,0:0:0:0:
256,192,57064,1,0,0:0:0:0:
256,192,57222,1,8,0:0:0:0:
256,192,57380,1,0,0:0:0:0:
256,192,57538,1,0,0:0:0:0:
256,192,57695,1,8,0:0:0:0:
256,192,57853,1,0,0:0:0:0:
256,192,58011,1,8,0:0:0:0:
256,192,58327,1,8,0:0:0:0:
256,192,58485,1,0,0:0:0:0:
256,192,58643,1,0,0:0:0:0:
256,192,58722,1,0,0:0:0:0:
256,192,58801,1,8,0:0:0:0:
256,192,58959,1,0,0:0:0:0:
256,192,59116,1,0,0:0:0:0:
256,192,59274,1,0,0:0:0:0:
256,192,59432,1,8,0:0:0:0:
256,192,59590,1,0,0:0:0:0:
256,192,59748,1,0,0:0:0:0:
256,192,59906,1,0,0:0:0:0:
256,192,60064,1,8,0:0:0:0:
256,192,60222,1,0,0:0:0:0:
256,192,60380,1,12,0:0:0:0:
256,192,60695,1,4,0:0:0:0:
256,192,62590,5,4,0:0:0:0:
256,192,62906,1,8,0:0:0:0:
256,192,63222,1,4,0:0:0:0:
256,192,63380,1,0,0:0:0:0:
256,192,63538,1,8,0:0:0:0:
256,192,63695,1,0,0:0:0:0:
256,192,63853,1,0,0:0:0:0:
256,192,64011,1,8,0:0:0:0:
256,192,64169,1,0,0:0:0:0:
256,192,64327,1,0,0:0:0:0:
256,192,64406,1,0,0:0:0:0:
256,192,64485,1,8,0:0:0:0:
256,192,64643,1,8,0:0:0:0:
256,192,64801,1,0,0:0:0:0:
256,192,64959,1,8,0:0:0:0:
256,192,65116,1,8,0:0:0:0:
256,192,65274,1,0,0:0:0:0:
256,192,65432,1,8,0:0:0:0:
256,192,65748,1,0,0:0:0:0:
256,192,65906,1,0,0:0:0:0:
256,192,66064,1,8,0:0:0:0:
256,192,66222,1,0,0:0:0:0:
256,192,66538,1,8,0:0:0:0:
256,192,66616,1,8,0:0:0:0:
256,192,66695,1,8,0:0:0:0:
256,192,66853,1,0,0:0:0:0:
256,192,67011,1,8,0:0:0:0:
256,192,67169,1,8,0:0:0:0:
256,192,67327,1,0,0:0:0:0:
256,192,67485,1,8,0:0:0:0:
256,192,67643,1,0,0:0:0:0:
256,192,67801,1,8,0:0:0:0:
256,192,67880,1,8,0:0:0:0:
256,192,67959,1,8,0:0:0:0:
256,192,68274,1,4,0:0:0:0:
256,192,68432,1,0,0:0:0:0:
256,192,68590,1,8,0:0:0:0:
256,192,68748,1,0,0:0:0:0:
256,192,68906,1,8,0:0:0:0:
256,192,69064,1,8,0:0:0:0:
256,192,69143,1,8,0:0:0:0:
256,192,69222,1,0,0:0:0:0:
256,192,69380,1,0,0:0:0:0:
256,192,69538,1,8,0:0:0:0:
256,192,69695,1,0,0:0:0:0:
256,192,69853,1,0,0:0:0:0:
256,192,70011,1,8,0:0:0:0:
256,192,70169,1,8,0:0:0:0:
256,192,70485,1,8,0:0:0:0:
256,192,70801,1,4,0:0:0:0:
256,192,71116,1,4,0:0:0:0:
256,192,71432,1,4,0:0:0:0:
256,192,71748,1,4,0:0:0:0:
256,192,72064,1,12,0:0:0:0:
256,192,72380,1,12,0:0:0:0:
256,192,72695,1,12,0:0:0:0:
256,192,73011,1,12,0:0:0:0:
256,192,73327,1,0,0:0:0:0:
256,192,73485,1,8,0:0:0:0:
256,192,73643,1,0,0:0:0:0:
256,192,73801,1,8,0:0:0:0:
256,192,73959,1,0,0:0:0:0:
256,192,74116,1,0,0:0:0:0:
256,192,74274,1,8,0:0:0:0:
256,192,74432,1,8,0:0:0:0:
256,192,74590,1,0,0:0:0:0:
256,192,74748,1,0,0:0:0:0:
256,192,74827,1,0,0:0:0:0:
256,192,74906,1,8,0:0:0:0:
256,192,75064,1,0,0:0:0:0:
256,192,75222,1,12,0:0:0:0:
256,192,75853,1,4,0:0:0:0:
256,192,76011,1,8,0:0:0:0:
256,192,76327,1,4,0:0:0:0:
256,192,76485,1,8,0:0:0:0:
256,192,76801,1,4,0:0:0:0:
256,192,76959,1,8,0:0:0:0:
256,192,77274,1,4,0:0:0:0:
256,192,77432,1,8,0:0:0:0:
256,192,77590,1,8,0:0:0:0:
256,192,77748,1,4,0:0:0:0:
256,192,78064,1,4,0:0:0:0:
256,192,78222,1,8,0:0:0:0:
256,192,78380,1,8,0:0:0:0:
256,192,78538,1,4,0:0:0:0:
256,192,78695,1,4,0:0:0:0:
256,192,79011,1,4,0:0:0:0:
256,192,79248,1,4,0:0:0:0:
256,192,79485,1,4,0:0:0:0:
256,192,79643,1,4,0:0:0:0:
256,192,79959,1,8,0:0:0:0:
256,192,80274,1,4,0:0:0:0:
256,192,80590,1,4,0:0:0:0:
256,192,80906,1,4,0:0:0:0:
256,192,81064,1,4,0:0:0:0:
256,192,81222,1,8,0:0:0:0:
256,192,81538,1,4,0:0:0:0:
256,192,81695,1,4,0:0:0:0:
256,192,81853,1,8,0:0:0:0:
256,192,82169,1,4,0:0:0:0:
256,192,82327,1,4,0:0:0:0:
256,192,82485,1,8,0:0:0:0:
256,192,82643,1,4,0:0:0:0:
256,192,82801,1,8,0:0:0:0:
256,192,82959,1,4,0:0:0:0:
256,192,83116,1,8,0:0:0:0:
256,192,83432,1,4,0:0:0:0:
256,192,83748,1,8,0:0:0:0:
256,192,84064,1,4,0:0:0:0:
256,192,84301,1,4,0:0:0:0:
256,192,84538,1,4,0:0:0:0:
256,192,84695,1,8,0:0:0:0:
256,192,85011,1,8,0:0:0:0:
256,192,85327,1,8,0:0:0:0:
256,192,85643,1,4,0:0:0:0:
256,192,85959,1,12,0:0:0:0:
256,192,86274,1,12,0:0:0:0:
256,192,86590,1,12,0:0:0:0:
256,192,86906,1,4,0:0:0:0:
256,192,87222,1,12,0:0:0:0:
256,192,87538,1,4,0:0:0:0:
256,192,87853,1,12,0:0:0:0:
256,192,88485,1,4,0:0:0:0:
256,192,88643,1,0,0:0:0:0:
256,192,88801,1,8,0:0:0:0:
256,192,88959,1,0,0:0:0:0:
256,192,89038,1,0,0:0:0:0:
256,192,89116,1,0,0:0:0:0:
256,192,89274,1,8,0:0:0:0:
256,192,89748,1,0,0:0:0:0:
256,192,89906,1,0,0:0:0:0:
256,192,90064,1,8,0:0:0:0:
256,192,90222,1,0,0:0:0:0:
256,192,90301,1,0,0:0:0:0:
256,192,90380,1,8,0:0:0:0:
256,192,90538,1,8,0:0:0:0:
256,192,90695,1,8,0:0:0:0:
256,192,90853,1,8,0:0:0:0:
256,192,91011,1,0,0:0:0:0:
256,192,91169,1,0,0:0:0:0:
256,192,91327,1,8,0:0:0:0:
256,192,91485,1,0,0:0:0:0:
256,192,91564,1,0,0:0:0:0:
256,192,91643,1,8,0:0:0:0:
256,192,91801,1,8,0:0:0:0:
256,192,91959,1,8,0:0:0:0:
256,192,92116,1,0,0:0:0:0:
256,192,92274,1,8,0:0:0:0:
256,192,92511,1,0,0:0:0:0:
256,192,92748,1,8,0:0:0:0:
256,192,92985,1,0,0:0:0:0:
256,192,93222,1,0,0:0:0:0:
256,192,93380,1,0,0:0:0:0:
256,192,93538,1,4,0:0:0:0:
256,192,93695,1,0,0:0:0:0:
256,192,93853,1,8,0:0:0:0:
256,192,94011,1,0,0:0:0:0:
256,192,94090,1,0,0:0:0:0:
256,192,94169,1,0,0:0:0:0:
256,192,94327,1,8,0:0:0:0:
256,192,94485,1,0,0:0:0:0:
256,192,94643,1,0,0:0:0:0:
256,192,94801,1,8,0:0:0:0:
256,192,94959,1,0,0:0:0:0:
256,192,95116,1,0,0:0:0:0:
256,192,95274,1,8,0:0:0:0:
256,192,95432,1,0,0:0:0:0:
256,192,95590,1,8,0:0:0:0:
256,192,95748,1,8,0:0:0:0:
256,192,96064,1,12,0:0:0:0:
256,192,96380,1,0,0:0:0:0:
256,192,96538,1,0,0:0:0:0:
256,192,96695,1,8,0:0:0:0:
256,192,96853,1,0,0:0:0:0:
256,192,97011,1,0,0:0:0:0:
256,192,97169,1,8,0:0:0:0:
256,192,97327,1,0,0:0:0:0:
256,192,97406,1,0,0:0:0:0:
256,192,97485,1,0,0:0:0:0:
256,192,97643,1,8,0:0:0:0:
256,192,97801,1,0,0:0:0:0:
256,192,97959,1,0,0:0:0:0:
256,192,98116,1,8,0:0:0:0:
256,192,98274,1,0,0:0:0:0:
256,192,98432,1,0,0:0:0:0:
256,192,98590,1,4,0:0:0:0:
256,192,98748,1,0,0:0:0:0:
256,192,98906,1,8,0:0:0:0:
256,192,99064,1,0,0:0:0:0:
256,192,99143,1,8,0:0:0:0:
256,192,99222,1,0,0:0:0:0:
256,192,99380,1,8,0:0:0:0:
256,192,99538,1,8,0:0:0:0:
256,192,99695,1,0,0:0:0:0:
256,192,99853,1,8,0:0:0:0:
256,192,100011,1,0,0:0:0:0:
256,192,100327,1,0,0:0:0:0:
256,192,100485,1,8,0:0:0:0:
256,192,100643,1,0,0:0:0:0:
256,192,100801,1,8,0:0:0:0:
256,192,100880,1,8,0:0:0:0:
256,192,100959,1,8,0:0:0:0:
256,192,101116,1,0,0:0:0:0:
256,192,101274,1,0,0:0:0:0:
256,192,101432,1,8,0:0:0:0:
256,192,101590,1,0,0:0:0:0:
256,192,101669,1,8,0:0:0:0:
256,192,101748,1,8,0:0:0:0:
256,192,101906,1,0,0:0:0:0:
256,192,102064,1,8,0:0:0:0:
256,192,102222,1,8,0:0:0:0:
256,192,102380,1,8,0:0:0:0:
256,192,102538,1,8,0:0:0:0:
256,192,102695,1,0,0:0:0:0:
256,192,102853,1,0,0:0:0:0:
256,192,103011,1,8,0:0:0:0:
256,192,103169,1,0,0:0:0:0:
256,192,103327,1,12,0:0:0:0:
256,192,103643,1,0,0:0:0:0:
256,192,103801,1,0,0:0:0:0:
256,192,103959,1,8,0:0:0:0:
256,192,104116,1,8,0:0:0:0:
256,192,104432,1,0,0:0:0:0:
256,192,104511,1,0,0:0:0:0:
256,192,104590,1,8,0:0:0:0:
256,192,104748,1,0,0:0:0:0:
256,192,104906,1,8,0:0:0:0:
256,192,105064,1,0,0:0:0:0:
256,192,105222,1,8,0:0:0:0:
256,192,105380,1,8,0:0:0:0:
256,192,105538,1,0,0:0:0:0:
256,192,105616,1,0,0:0:0:0:
256,192,105695,1,0,0:0:0:0:
256,192,105774,1,0,0:0:0:0:
256,192,105853,1,8,0:0:0:0:
256,192,106169,1,0,0:0:0:0:
256,192,106327,1,0,0:0:0:0:
256,192,106485,1,8,0:0:0:0:
256,192,106643,1,0,0:0:0:0:
256,192,106801,1,8,0:0:0:0:
256,192,106959,1,8,0:0:0:0:
256,192,107116,1,0,0:0:0:0:
256,192,107274,1,8,0:0:0:0:
256,192,107432,1,8,0:0:0:0:
256,192,107590,1,0,0:0:0:0:
256,192,107748,1,0,0:0:0:0:
256,192,107906,1,0,0:0:0:0:
256,192,107985,1,0,0:0:0:0:
256,192,108064,1,0,0:0:0:0:
256,192,108222,1,8,0:0:0:0:
256,192,108380,1,8,0:0:0:0:
256,192,108538,1,8,0:0:0:0:
256,192,108695,12,8,109643,0:0:0:0:
256,192,109959,5,12,0:0:0:0:
256,192,110116,1,0,0:0:0:0:
256,192,110274,1,12,0:0:0:0:
256,192,110432,1,0,0:0:0:0:
256,192,110590,1,12,0:0:0:0:
256,192,110906,1,12,0:0:0:0:
256,192,111222,1,4,0:0:0:0:
256,192,111538,1,8,0:0:0:0:
256,192,111695,1,0,0:0:0:0:
256,192,111853,1,0,0:0:0:0:
256,192,112011,1,8,0:0:0:0:
256,192,112169,1,0,0:0:0:0:
256,192,112327,1,0,0:0:0:0:
256,192,112485,1,8,0:0:0:0:
256,192,112722,1,0,0:0:0:0:
256,192,112959,1,0,0:0:0:0:
256,192,113116,1,8,0:0:0:0:
256,192,113274,1,8,0:0:0:0:
256,192,113432,1,8,0:0:0:0:
256,192,113590,1,8,0:0:0:0:
256,192,113748,1,4,0:0:0:0:
256,192,114064,1,8,0:0:0:0:
256,192,114222,1,0,0:0:0:0:
256,192,114380,1,0,0:0:0:0:
256,192,114538,1,8,0:0:0:0:
256,192,114695,1,8,0:0:0:0:
256,192,114774,1,8,0:0:0:0:
256,192,114853,1,8,0:0:0:0:
256,192,115011,1,0,0:0:0:0:
256,192,115169,1,0,0:0:0:0:
256,192,115327,1,8,0:0:0:0:
256,192,115485,1,0,0:0:0:0:
256,192,115643,1,0,0:0:0:0:
256,192,115801,1,8,0:0:0:0:
256,192,115959,1,8,0:0:0:0:
256,192,116116,1,8,0:0:0:0:
256,192,116274,1,4,0:0:0:0:
256,192,116432,1,0,0:0:0:0:
256,192,116590,1,8,0:0:0:0:
256,192,116669,1,8,0:0:0:0:
256,192,116748,1,8,0:0:0:0:
256,192,116906,1,0,0:0:0:0:
256,192,117064,1,8,0:0:0:0:
256,192,117222,1,8,0:0:0:0:
256,192,117301,1,0,0:0:0:0:
256,192,117380,1,8,0:0:0:0:
256,192,117538,1,12,0:0:0:0:
256,192,117695,1,0,0:0:0:0:
256,192,118011,1,0,0:0:0:0:
256,192,118090,1,0,0:0:0:0:
256,192,118169,1,8,0:0:0:0:
256,192,118327,1,8,0:0:0:0:
256,192,118485,1,8,0:0:0:0:
256,192,118643,1,8,0:0:0:0:
256,192,118801,1,4,0:0:0:0:
256,192,118959,1,0,0:0:0:0:
256,192,119116,1,8,0:0:0:0:
256,192,119274,1,0,0:0:0:0:
256,192,119590,1,0,0:0:0:0:
256,192,119748,1,8,0:0:0:0:
256,192,120064,1,8,0:0:0:0:
256,192,120222,1,8,0:0:0:0:
256,192,120380,1,8,0:0:0:0:
256,192,120538,1,0,0:0:0:0:
256,192,120695,1,0,0:0:0:0:
256,192,120853,1,0,0:0:0:0:
256,192,121011,1,8,0:0:0:0:
256,192,121327,1,8,0:0:0:0:
256,192,121643,1,0,0:0:0:0:
256,192,121801,1,0,0:0:0:0:
256,192,121959,1,0,0:0:0:0:
256,192,122274,1,0,0:0:0:0:
256,192,122590,1,12,0:0:0:0:
