osu file format v14

[General]
AudioFilename: -Post Drum n Bass- LeaF - Evanescent.mp3
AudioLeadIn: 0
PreviewTime: 37327
Countdown: 0
SampleSet: Normal
StackLeniency: 0.7
Mode: 1
LetterboxInBreaks: 0
WidescreenStoryboard: 1

[Editor]
DistanceSpacing: 1.2
BeatDivisor: 1
GridSize: 4
TimelineZoom: 1

[Metadata]
Title:Evanescent
TitleUnicode:Evanescent
Artist:LeaF
ArtistUnicode:LeaF
Creator:Delta1015
Version:Kantan
Source:
Tags:DnB, LeaF, Taiko, Evanescent
BeatmapID:729667
BeatmapSetID:329109

[Difficulty]
HPDrainRate:3
CircleSize:2
OverallDifficulty:3
ApproachRate:5
SliderMultiplier:1.4
SliderTickRate:1

[Events]
//Background and Video events
0,0,"evanescent.jpg",0,0
//Break Periods
//Storyboard Layer 0 (Background)
//Storyboard Layer 1 (Fail)
//Storyboard Layer 2 (Pass)
//Storyboard Layer 3 (Foreground)
//Storyboard Sound Samples

[TimingPoints]
64,315.789473684211,4,1,0,100,1,0
37958,-100,4,1,0,100,0,1
48064,-100,4,1,0,100,0,0
75853,-100,4,1,0,100,0,1
88485,-100,4,1,0,100,0,0

[HitObjects]
256,192,7643,5,0,0:0:0:0:
256,192,8274,1,8,0:0:0:0:
256,192,8906,1,0,0:0:0:0:
256,192,9222,1,0,0:0:0:0:
256,192,9538,1,8,0:0:0:0:
256,192,10169,1,0,0:0:0:0:
256,192,10801,1,8,0:0:0:0:
256,192,11432,1,0,0:0:0:0:
256,192,12064,1,8,0:0:0:0:
256,192,12695,1,4,0:0:0:0:
256,192,13327,1,0,0:0:0:0:
256,192,13959,1,8,0:0:0:0:
256,192,14274,1,8,0:0:0:0:
256,192,14590,1,8,0:0:0:0:
256,192,15221,1,0,0:0:0:0:
256,192,15853,1,8,0:0:0:0:
256,192,16485,1,0,0:0:0:0:
256,192,17116,1,0,0:0:0:0:
256,192,17748,2,0,P|384:196|192:360,1,560
256,140,19643,1,8,0:0:0:0:
256,140,20274,1,4,0:0:0:0:
256,140,20906,1,8,0:0:0:0:
256,140,21538,1,0,0:0:0:0:
256,140,21853,1,0,0:0:0:0:
256,140,22169,1,0,0:0:0:0:
264,380,22801,1,0,0:0:0:0:
260,140,23432,1,0,0:0:0:0:
260,140,24064,1,8,0:0:0:0:
260,140,24695,1,8,0:0:0:0:
260,140,25327,1,4,0:0:0:0:
260,140,26274,1,0,0:0:0:0:
260,140,26590,1,8,0:0:0:0:
260,140,27222,1,8,0:0:0:0:
260,140,27853,1,4,0:0:0:0:
260,140,29116,1,0,0:0:0:0:
260,140,29748,1,0,0:0:0:0:
260,140,30380,1,0,0:0:0:0:
260,140,31643,1,8,0:0:0:0:
260,140,32274,1,8,0:0:0:0:
260,140,32906,1,0,0:0:0:0:
260,140,34169,1,0,0:0:0:0:
260,140,34801,1,0,0:0:0:0:
256,192,35432,12,0,37011,0:0:0:0:
256,192,37959,5,0,0:0:0:0:
256,192,39222,1,12,0:0:0:0:
256,192,39853,1,8,0:0:0:0:
256,192,41116,1,0,0:0:0:0:
256,192,41748,1,8,0:0:0:0:
256,192,42380,1,0,0:0:0:0:
196,292,43011,1,4,0:0:0:0:
196,292,44274,1,0,0:0:0:0:
196,292,44590,1,8,0:0:0:0:
196,292,44906,1,8,0:0:0:0:
196,292,45538,1,0,0:0:0:0:
196,292,46169,1,0,0:0:0:0:
196,292,46801,1,8,0:0:0:0:
196,292,48064,1,0,0:0:0:0:
196,292,48695,1,8,0:0:0:0:
196,292,49327,1,0,0:0:0:0:
196,292,49959,1,8,0:0:0:0:
196,292,50590,1,0,0:0:0:0:
196,292,51221,1,0,0:0:0:0:
196,292,51853,1,8,0:0:0:0:
196,292,52169,1,8,0:0:0:0:
196,292,52485,1,8,0:0:0:0:
196,292,53116,1,4,0:0:0:0:
196,292,53748,1,0,0:0:0:0:
196,292,54379,1,8,0:0:0:0:
196,292,55011,1,0,0:0:0:0:
196,292,55327,1,0,0:0:0:0:
196,292,55642,1,0,0:0:0:0:
196,292,56274,1,0,0:0:0:0:
196,292,56906,1,0,0:0:0:0:
196,292,57538,1,8,0:0:0:0:
196,292,58169,1,0,0:0:0:0:
196,292,59432,1,0,0:0:0:0:
196,292,60064,1,8,0:0:0:0:
196,292,60380,1,8,0:0:0:0:
196,292,60695,1,0,0:0:0:0:
196,292,62590,1,8,0:0:0:0:
196,292,63222,1,0,0:0:0:0:
196,292,63538,1,0,0:0:0:0:
196,292,63853,1,0,0:0:0:0:
196,292,64485,1,8,0:0:0:0:
196,292,64801,1,8,0:0:0:0:
196,292,65116,1,8,0:0:0:0:
196,292,65748,1,4,0:0:0:0:
196,292,67011,1,0,0:0:0:0:
196,292,67643,1,8,0:0:0:0:
196,292,68274,1,0,0:0:0:0:
196,292,68906,1,0,0:0:0:0:
196,292,69538,1,8,0:0:0:0:
196,292,70169,1,8,0:0:0:0:
196,292,70485,1,8,0:0:0:0:
196,292,70800,1,4,0:0:0:0:
196,292,71432,1,0,0:0:0:0:
196,292,72064,1,12,0:0:0:0:
196,292,72695,1,8,0:0:0:0:
196,292,73327,1,0,0:0:0:0:
196,292,73643,1,0,0:0:0:0:
196,292,73958,1,8,0:0:0:0:
196,292,73959,1,0,0:0:0:0:
196,292,74590,1,0,0:0:0:0:
196,292,74906,1,0,0:0:0:0:
196,292,75222,1,8,0:0:0:0:
196,292,75853,1,0,0:0:0:0:
196,292,76485,1,0,0:0:0:0:
196,292,77116,1,0,0:0:0:0:
196,292,77432,1,0,0:0:0:0:
196,292,77748,1,0,0:0:0:0:
196,292,78379,1,8,0:0:0:0:
196,292,79011,1,8,0:0:0:0:
196,292,79643,1,8,0:0:0:0:
196,292,79959,1,8,0:0:0:0:
196,292,80274,1,8,0:0:0:0:
196,292,80906,1,4,0:0:0:0:
196,292,81538,1,0,0:0:0:0:
196,292,82169,1,0,0:0:0:0:
196,292,83432,1,8,0:0:0:0:
196,292,84064,1,8,0:0:0:0:
196,292,84695,1,8,0:0:0:0:
196,292,85327,1,8,0:0:0:0:
196,292,85959,1,0,0:0:0:0:
196,292,86274,1,0,0:0:0:0:
196,292,86590,1,0,0:0:0:0:
196,292,87222,1,8,0:0:0:0:
196,292,87538,1,8,0:0:0:0:
196,292,87853,1,8,0:0:0:0:
196,292,88485,1,0,0:0:0:0:
196,292,89748,1,4,0:0:0:0:
196,292,90380,1,0,0:0:0:0:
196,292,90695,1,0,0:0:0:0:
196,292,91011,1,0,0:0:0:0:
196,292,91643,1,8,0:0:0:0:
196,292,92274,1,8,0:0:0:0:
196,292,92906,1,0,0:0:0:0:
196,292,93222,1,0,0:0:0:0:
196,292,93538,1,0,0:0:0:0:
196,292,94169,1,8,0:0:0:0:
196,292,94801,1,0,0:0:0:0:
196,292,95432,1,0,0:0:0:0:
196,292,95748,1,0,0:0:0:0:
196,292,96064,1,0,0:0:0:0:
196,292,96695,1,8,0:0:0:0:
196,292,97011,1,8,0:0:0:0:
196,292,97327,1,8,0:0:0:0:
196,292,98590,1,4,0:0:0:0:
196,292,99853,1,0,0:0:0:0:
196,292,100485,1,8,0:0:0:0:
196,292,101116,1,0,0:0:0:0:
196,292,101748,1,0,0:0:0:0:
196,292,102379,1,8,0:0:0:0:
196,292,103011,1,8,0:0:0:0:
196,292,103643,1,0,0:0:0:0:
196,292,104274,1,0,0:0:0:0:
196,292,104906,1,0,0:0:0:0:
196,292,105222,1,0,0:0:0:0:
196,292,105538,1,0,0:0:0:0:
196,292,106169,1,8,0:0:0:0:
196,292,106801,1,8,0:0:0:0:
196,292,107432,1,0,0:0:0:0:
196,292,108064,1,8,0:0:0:0:
256,192,108695,12,0,110590,0:0:0:0:
256,192,111222,5,4,0:0:0:0:
256,192,111853,1,0,0:0:0:0:
256,192,112169,1,0,0:0:0:0:
256,192,112485,1,8,0:0:0:0:
256,192,113116,1,8,0:0:0:0:
256,192,113748,1,4,0:0:0:0:
256,192,114380,1,8,0:0:0:0:
256,192,115011,1,0,0:0:0:0:
256,192,115643,1,0,0:0:0:0:
256,192,116274,2,8,P|124:184|324:320,1,700
260,252,118801,1,0,0:0:0:0:
260,252,120064,1,12,0:0:0:0:
260,252,121327,1,0,0:0:0:0:
260,252,121959,1,0,0:0:0:0:
260,252,122590,1,12,0:0:0:0:
