osu file format v13

[General]
AudioFilename: Evanescent_aspire.mp3
AudioLeadIn: 0
PreviewTime: 17640
Countdown: 0
SampleSet: Soft
StackLeniency: 0.2
Mode: 0
LetterboxInBreaks: 0
WidescreenStoryboard: 0

[Editor]
Bookmarks: 50275
DistanceSpacing: 0.6
BeatDivisor: 16
GridSize: 4
TimelineZoom: 5.399996

[Metadata]
Title:Evanescent
TitleUnicode:Evanescent
Artist:LeaF
ArtistUnicode:LeaF
Creator:Charles445
Version:Aspire
Source:BMS
Tags:MBC6 Optie POST DRUM'N'BASS dnb bof bms of fighters sen-goku 戦國
BeatmapID:529285
BeatmapSetID:227126

[Difficulty]
HPDrainRate:7
CircleSize:4
OverallDifficulty:8
ApproachRate:9.4
SliderMultiplier:3
SliderTickRate:1

[Events]
//Background and Video events
0,0,"EvanescentBG.png",0,0
Video,-150,"Evanescent.avi"
//Break Periods
//Storyboard Layer 0 (Background)
//Storyboard Layer 1 (Fail)
//Storyboard Layer 2 (Pass)
//Storyboard Layer 3 (Foreground)
//Storyboard Sound Samples
//Background Colour Transformations
3,100,163,162,255

[TimingPoints]
2512,315.789473684211,4,3,0,60,1,0
7525,-151.515151515152,4,3,0,60,0,0
8433,-151.515151515152,4,3,0,25,0,0
8590,-151.515151515152,4,3,0,60,0,0
9380,-200,4,3,0,60,0,0
9854,-151.515151515152,4,3,0,60,0,0
10880,-250,4,3,0,60,0,0
11117,-250,4,2,0,5,0,0
11156,-250,4,3,0,60,0,0
11275,-151.515151515152,4,3,0,60,0,0
12262,-500,4,3,0,60,0,0
12538,-500,4,3,0,5,0,0
12577,-133.333333333333,4,3,0,60,0,0
13564,-100,4,3,0,60,0,0
13683,-100,4,2,0,5,0,0
13722,-100,4,3,0,60,0,0
13880,-133.333333333333,4,3,0,60,0,0
14512,-200,4,3,0,60,0,0
14906,-50,4,2,0,60,0,0
15064,-50,4,2,0,5,0,0
15104,-133.333333333333,4,3,0,60,0,0
18538,-133.333333333333,4,3,0,25,0,0
18696,-133.333333333333,4,3,0,60,0,0
19406,-99.009900990099,4,3,0,60,0,0
19485,-68.4931506849315,4,3,0,60,0,0
19959,-133.333333333333,4,3,0,60,0,0
20985,-66.6666666666667,4,3,0,60,0,0
21301,-133.333333333333,4,3,0,60,0,0
22406,-58.8235294117647,4,2,0,60,0,0
22643,-133.333333333333,4,2,0,5,0,0
22683,-133.333333333333,4,3,0,60,0,0
23590,-100,4,3,0,60,0,0
23788,-100,4,2,0,5,0,0
23827,-100,4,3,0,60,0,0
23906,-133.333333333333,4,3,0,60,0,0
24597,-200,4,3,0,60,0,0
25012,-50,4,2,0,60,0,0
25169,-133.333333333333,4,2,0,5,0,0
25209,-133.333333333333,4,3,0,60,0,0
26906,-133.333333333333,4,3,0,60,0,0
27301,-151.515151515152,4,3,0,60,0,0
27419,-151.515151515152,4,2,0,5,0,0
27459,-151.515151515152,4,3,0,60,0,0
27735,-500,4,2,0,30,0,0
27972,-500,4,2,0,5,0,0
29038,-100,4,3,0,40,0,0
29946,-66.6666666666667,4,2,0,30,0,0
30143,-66.6666666666667,4,2,0,5,0,0
30301,-500,4,2,0,30,0,0
30498,-500,4,2,0,5,0,0
31525,-500,4,3,0,40,0,0
31840,-250,4,3,0,40,0,0
32038,-250,4,2,0,30,0,0
32748,-500,4,2,0,35,0,0
33025,-500,4,2,0,5,0,0
34051,-500,4,3,0,45,0,0
35354,-500,4,2,0,50,0,0
35551,-500,4,2,0,5,0,0
36104,-200,4,2,0,70,0,0
36248,-200,4,2,0,5,0,0
36301,-149.253731343284,4,2,0,60,0,0
36406,-149.253731343284,4,2,0,5,0,0
36459,-125,4,2,0,60,0,0
36564,-125,4,2,0,5,0,0
36617,-100,4,2,0,70,0,0
36722,-100,4,2,0,5,0,0
36775,-142.857142857143,4,2,0,60,0,0
36880,-142.857142857143,4,2,0,5,0,0
36933,-166.666666666667,4,2,0,60,0,0
37038,-166.666666666667,4,2,0,5,0,0
37090,-125,4,2,0,60,0,0
37196,-125,4,2,0,5,0,0
37248,-80,4,2,0,80,0,0
37327,-80,4,2,0,5,0,0
37406,-100,4,2,0,30,0,0
37446,-100,4,2,0,35,0,0
37485,-100,4,2,0,40,0,0
37525,-100,4,2,0,45,0,0
37564,-100,4,2,0,50,0,0
37604,-100,4,2,0,55,0,0
37643,-100,4,2,0,60,0,0
37683,-100,4,2,0,65,0,0
37722,-100,4,2,0,70,0,0
37762,-100,4,2,0,70,0,0
37801,-100,4,2,0,75,0,0
37840,-100,4,3,0,80,0,0
38906,-50,4,3,0,80,0,0
39064,-100,4,2,0,5,0,0
39143,-100,4,3,0,80,0,0
40012,-68.9655172413793,4,3,0,80,0,0
40327,-100,4,3,0,80,0,0
41512,-76.9230769230769,4,3,0,80,0,0
41617,-100,4,3,0,80,0,0
42538,-68.9655172413793,4,3,0,80,0,0
42854,-100,4,2,0,5,0,0
42933,-100,4,3,0,80,0,0
43683,-66.6666666666667,4,3,0,80,0,0
44117,-100,4,3,0,80,0,0
44801,-111.111111111111,4,3,0,80,0,0
45064,-86.9565217391304,4,2,0,5,0,0
45143,-86.9565217391304,4,3,0,80,0,0
45380,-86.9565217391304,4,2,0,5,0,0
45419,-86.9565217391304,4,3,0,80,0,0
46525,-86.9565217391304,4,2,0,80,0,0
46604,-86.9565217391304,4,2,0,5,0,0
46643,-86.9565217391304,4,2,0,80,0,0
46683,-86.9565217391304,4,2,0,5,0,0
46722,-86.9565217391304,4,2,0,80,0,0
46919,-86.9565217391304,4,2,0,5,0,0
46959,-86.9565217391304,4,2,0,80,0,0
46998,-86.9565217391304,4,2,0,5,0,0
47038,-86.9565217391304,4,2,0,80,0,0
47156,-86.9565217391304,4,3,0,80,0,0
48735,-86.9565217391304,4,2,0,5,0,0
48827,-86.9565217391304,4,2,0,90,0,0
48933,-86.9565217391304,4,2,0,5,0,0
48985,-86.9565217391304,4,2,0,90,0,0
49012,-86.9565217391304,4,2,0,5,0,0
49038,-86.9565217391304,4,2,0,90,0,0
49064,-86.9565217391304,4,2,0,5,0,0
49090,-86.9565217391304,4,2,0,90,0,0
49117,-86.9565217391304,4,2,0,5,0,0
49169,-86.9565217391304,4,2,0,90,0,0
49222,-86.9565217391304,4,2,0,5,0,0
49275,-86.9565217391304,4,2,0,90,0,0
49327,-86.9565217391304,4,2,0,5,0,0
49406,-86.9565217391304,4,2,0,90,0,0
49459,-86.9565217391304,4,2,0,5,0,0
49485,-86.9565217391304,4,2,0,90,0,0
49538,-86.9565217391304,4,2,0,5,0,0
49564,-86.9565217391304,4,2,0,90,0,0
49643,-86.9565217391304,4,2,0,5,0,0
49762,-86.9565217391304,4,2,0,90,0,0
49821,-86.9565217391304,4,2,0,5,0,0
49979,-86.9565217391304,4,2,0,90,0,0
50196,-86.9565217391304,4,2,0,50,0,0
50472,-133.333333333333,4,3,0,80,0,0
50933,-133.333333333333,4,3,0,65,0,0
50985,-100,4,3,0,80,0,0
51090,-100,4,3,0,65,0,0
51143,-133.333333333333,4,3,0,80,0,0
51248,-133.333333333333,4,3,0,60,0,0
51301,-133.333333333333,4,3,0,65,0,0
51354,-133.333333333333,4,3,0,70,0,0
51406,-133.333333333333,4,3,0,75,0,0
51459,-133.333333333333,4,3,0,80,0,0
53669,-133.333333333333,4,3,0,62,0,0
53709,-133.333333333333,4,3,0,68,0,0
53748,-133.333333333333,4,3,0,74,0,0
53788,-133.333333333333,4,3,0,80,0,0
54933,-100,4,3,0,80,0,0
55564,-500,4,3,0,80,0,0
55801,-100,4,2,0,5,0,0
55880,-100,4,3,0,80,0,0
57064,-66.6666666666667,4,3,0,80,0,0
57406,-66.6666666666667,4,2,0,5,0,0
57459,-133.333333333333,4,3,0,80,0,0
57748,-133.333333333333,4,3,0,95,0,0
57933,-133.333333333333,4,3,0,80,0,0
57985,-133.333333333333,4,3,0,70,0,0
58038,-133.333333333333,4,3,0,50,0,0
58090,-100,4,3,0,80,0,0
59038,-133.333333333333,4,3,0,80,0,0
59354,-133.333333333333,4,3,0,80,0,0
59459,-133.333333333333,4,3,0,40,0,0
59512,-133.333333333333,4,3,0,50,0,0
59564,-133.333333333333,4,3,0,70,0,0
59617,-133.333333333333,4,3,0,80,0,0
59946,-100,4,3,0,80,0,0
60104,-66.6666666666667,4,2,0,5,0,0
60143,-66.6666666666667,4,3,0,80,0,0
60262,-66.6666666666667,4,2,0,5,0,0
60301,-66.6666666666667,4,3,0,90,0,0
60617,-133.333333333333,4,2,0,5,0,0
61090,-133.333333333333,4,2,0,90,0,0
61169,-133.333333333333,4,2,0,5,0,0
61248,-133.333333333333,4,2,0,90,0,0
61275,-133.333333333333,4,2,0,5,0,0
61301,-133.333333333333,4,2,0,90,0,0
61327,-133.333333333333,4,2,0,5,0,0
61354,-133.333333333333,4,2,0,90,0,0
61380,-133.333333333333,4,2,0,5,0,0
61406,-133.333333333333,4,2,0,90,0,0
61459,-133.333333333333,4,2,0,5,0,0
61512,-133.333333333333,4,2,0,90,0,0
61564,-133.333333333333,4,2,0,5,0,0
61643,-133.333333333333,4,2,0,90,0,0
61669,-133.333333333333,4,2,0,5,0,0
61722,-133.333333333333,4,2,0,90,0,0
61801,-133.333333333333,4,2,0,5,0,0
61827,-133.333333333333,4,2,0,90,0,0
61880,-133.333333333333,4,2,0,5,0,0
62012,-133.333333333333,4,2,0,90,0,0
62038,-133.333333333333,4,2,0,5,0,0
62222,-133.333333333333,4,2,0,90,0,0
62406,-133.333333333333,4,2,0,5,0,0
62512,-133.333333333333,4,2,0,50,0,0
62801,-300,4,2,0,50,0,0
63064,-300,4,2,0,5,0,0
63143,-185.185185185185,4,2,0,60,0,0
63400,-200,4,2,0,5,0,0
63459,-188.679245283019,4,2,0,60,0,0
63913,-200,4,2,0,95,0,0
63972,-200,4,2,0,60,0,0
64031,-200,4,2,0,5,0,0
64090,-166.666666666667,4,2,0,60,0,0
64189,-200,4,2,0,5,0,0
64248,-166.666666666667,4,2,0,60,0,0
64347,-200,4,2,0,5,0,0
64406,-185.185185185185,4,2,0,60,0,0
64663,-200,4,2,0,5,0,0
64722,-106.382978723404,4,2,0,60,0,0
65038,-106.382978723404,4,2,0,5,0,0
65117,-106.382978723404,4,2,0,60,0,0
65590,-151.515151515152,4,3,0,60,0,0
67485,-200,4,3,0,60,0,0
67959,-151.515151515152,4,3,0,60,0,0
68985,-250,4,3,0,60,0,0
69222,-250,4,2,0,5,0,0
69301,-151.515151515152,4,3,0,60,0,0
70090,-161.290322580645,4,3,0,60,0,0
70327,-66.2251655629139,4,2,0,60,0,0
70643,-66.2251655629139,4,2,0,5,0,0
70722,-151.515151515152,4,3,0,45,0,0
71985,-100,4,3,0,50,0,0
72617,-100,4,3,0,55,0,0
73248,-100,4,3,0,60,0,0
74433,-151.515151515152,4,3,0,60,0,0
75459,-133.333333333333,4,2,0,30,0,0
75696,-100,4,2,0,5,0,0
75735,-100,4,3,0,75,0,0
75854,-100,4,3,0,55,0,0
76248,-100,4,3,0,75,0,0
76327,-100,4,3,0,55,0,0
76722,-100,4,3,0,75,0,0
76801,-100,4,3,0,55,0,0
77196,-100,4,3,0,75,0,0
77275,-100,4,3,0,55,0,0
77669,-100,4,3,0,75,0,0
77748,-100,4,3,0,55,0,0
77827,-133.333333333333,4,3,0,55,0,0
77985,-100,4,3,0,75,0,0
78025,-100,4,3,0,55,0,0
78459,-100,4,3,0,75,0,0
78538,-100,4,3,0,55,0,0
78617,-100,4,3,0,75,0,0
78696,-100,4,3,0,55,0,0
78933,-100,4,3,0,75,0,0
79012,-100,4,3,0,55,0,0
79169,-100,4,3,0,75,0,0
79248,-100,4,3,0,55,0,0
79406,-100,4,3,0,75,0,0
79485,-100,4,3,0,55,0,0
79564,-100,4,3,0,75,0,0
79604,-100,4,3,0,55,0,0
80196,-100,4,3,0,75,0,0
80275,-100,4,3,0,55,0,0
80512,-100,4,3,0,75,0,0
80590,-100,4,3,0,55,0,0
80827,-188.679245283019,4,3,0,85,0,0
80906,-100,4,3,0,65,0,0
80985,-100,4,3,0,85,0,0
81064,-100,4,3,0,65,0,0
81459,-172.413793103448,4,3,0,85,0,0
81538,-100,4,3,0,65,0,0
81617,-100,4,3,0,85,0,0
81696,-100,4,3,0,65,0,0
81854,-86.9565217391304,4,3,0,65,0,0
82012,-100,4,3,0,65,0,0
82090,-175.438596491228,4,3,0,85,0,0
82169,-100,4,3,0,65,0,0
82248,-100,4,3,0,85,0,0
82327,-100,4,3,0,65,0,0
82564,-100,4,3,0,85,0,0
82643,-100,4,3,0,65,0,0
82880,-100,4,3,0,85,0,0
82919,-100,4,3,0,65,0,0
83354,-100,4,3,0,85,0,0
83433,-100,4,3,0,65,0,0
83788,-80,4,3,0,85,0,0
83906,-80,4,3,0,85,0,0
83946,-100,4,3,0,85,0,0
84143,-100,4,3,0,50,0,0
84222,-100,4,3,0,85,0,0
84380,-100,4,3,0,50,0,0
84459,-100,4,3,0,85,0,0
84538,-100,4,3,0,50,0,0
84617,-100,4,3,0,85,0,0
84854,-100,4,3,0,50,0,0
84933,-100,4,3,0,70,0,0
85564,-100,4,3,0,95,0,0
85643,-100,4,3,0,25,0,0
85880,-100,4,3,0,30,0,0
86196,-100,4,3,0,35,0,0
86512,-100,4,3,0,40,0,0
86827,-100,4,3,0,45,0,0
87143,-100,4,3,0,50,0,0
87301,-100,4,3,0,55,0,0
87459,-100,4,3,0,60,0,0
87617,-100,4,3,0,65,0,0
87775,-100,4,3,0,95,0,0
87854,-200,4,2,0,30,0,0
88248,-200,4,2,0,70,0,0
88327,-86.9565217391304,4,3,0,70,0,0
89275,-86.9565217391304,4,2,0,60,0,0
89433,-86.9565217391304,4,3,0,70,0,0
90143,-133.333333333333,4,3,0,70,0,0
90617,-86.9565217391304,4,3,0,70,0,0
90854,-86.9565217391304,4,2,0,5,0,0
90933,-86.9565217391304,4,3,0,70,0,0
91643,-133.333333333333,4,3,0,70,0,0
91959,-133.333333333333,4,2,0,5,0,0
92038,-133.333333333333,4,3,0,70,0,0
92117,-86.9565217391304,4,3,0,70,0,0
93064,-62.5,4,3,0,70,0,0
93380,-86.9565217391304,4,2,0,5,0,0
93459,-86.9565217391304,4,3,0,70,0,0
94327,-86.9565217391304,4,2,0,5,0,0
94367,-133.333333333333,4,3,0,70,0,0
94525,-133.333333333333,4,2,0,5,0,0
94564,-133.333333333333,4,3,0,70,0,0
94683,-86.9565217391304,4,3,0,70,0,0
95156,-79.3650793650794,4,3,0,70,0,0
95314,-158.730158730159,4,3,0,70,0,0
95551,-74.0740740740741,4,3,0,70,0,0
95906,-86.9565217391304,4,2,0,5,0,0
95985,-86.9565217391304,4,3,0,70,0,0
99380,-86.9565217391304,4,2,0,60,0,0
99538,-86.9565217391304,4,3,0,70,0,0
100248,-66.6666666666667,4,3,0,70,0,0
100406,-50,4,3,0,70,0,0
100722,-80,4,3,0,70,0,0
100801,-86.9565217391304,4,3,0,70,0,0
100959,-86.9565217391304,4,2,0,5,0,0
101038,-86.9565217391304,4,3,0,70,0,0
101748,-50,4,3,0,70,0,0
102222,-86.9565217391304,4,3,0,70,0,0
103169,-500,4,3,0,70,0,0
103485,-86.9565217391304,4,2,0,5,0,0
103564,-86.9565217391304,4,3,0,70,0,0
104472,-64.5161290322581,4,3,0,70,0,0
104630,-64.5161290322581,4,2,0,5,0,0
104669,-86.9565217391304,4,3,0,70,0,0
105380,-250,4,3,0,70,0,0
105854,-31.9,4,3,0,70,0,0
106012,-31.9,4,2,0,5,0,0
106051,-86.9565217391304,4,3,0,70,0,0
107788,-86.9565217391304,4,3,0,70,0,0
108104,-86.9565217391304,4,2,0,5,0,0
108143,-86.9565217391304,4,3,0,70,0,0
108577,-90.9090909090909,4,3,0,70,0,0
108656,-90.9090909090909,4,2,0,5,0,0
109544,-149.253731343284,4,3,0,70,0,0
109801,-149.253731343284,4,2,0,5,0,0
109880,-149.253731343284,4,3,0,70,0,0
110985,-86.9565217391304,4,3,0,70,0,0
111893,-133.333333333333,4,3,0,70,0,0
112169,-133.333333333333,4,2,0,5,0,0
112209,-50,4,3,0,70,0,0
112327,-86.9565217391304,4,2,0,5,0,0
112406,-86.9565217391304,4,3,0,70,0,0
112840,-71.9424460431655,4,3,0,70,0,0
113156,-50,4,3,0,70,0,0
113235,-50,4,2,0,5,0,0
113669,-90.9090909090909,4,3,0,70,0,0
114577,-81.9672131147541,4,3,0,70,0,0
114735,-81.9672131147541,4,2,0,5,0,0
114775,-76.9230769230769,4,3,0,70,0,0
114854,-90.9090909090909,4,3,0,70,0,0
115485,-200,4,3,0,70,0,0
115880,-50,4,3,0,70,0,0
116117,-90.9090909090909,4,2,0,5,0,0
116196,-90.9090909090909,4,3,0,70,0,0
118643,-500,4,2,0,12,0,0
119946,-500,4,2,0,45,0,0
120025,-500,4,2,0,12,0,0
122433,-2000,4,2,0,40,0,0
122650,-2000,4,2,0,20,0,0
124722,-2000,4,2,0,20,0,0

[Colours]
Combo1 : 255,255,0
Combo2 : 5,240,5
Combo3 : 0,153,244
Combo4 : 251,51,51
Combo5 : 255,150,0
Combo6 : 252,50,247
Combo7 : 164,193,193
Combo8 : 99,143,143

[HitObjects]
148,76,7564,85,8,0:0:0:0:
179,62,7643,1,0,0:0:0:0:
212,55,7722,2,0,P|240:52|264:56,1,49.499999848938
396,144,7880,1,0,1:0:0:0:
147,159,8038,5,8,0:0:0:0:
178,145,8117,1,0,0:0:0:0:
211,138,8196,2,0,P|239:135|263:139,1,49.499999848938
395,227,8354,1,0,1:0:0:0:
196,336,8512,101,4,2:2:0:0:
196,336,8827,5,8,0:0:0:0:
171,312,8906,1,0,0:0:0:0:
158,280,8985,2,0,P|152:258|155:222,1,49.499999848938
212,56,9143,1,0,1:0:0:0:
272,192,9301,101,8,0:0:0:0:
352,192,9459,2,0,L|428:192,1,75,8|0,0:0|0:0,0:0:0:0:
427,192,9775,1,0,1:0:0:0:
427,192,10090,5,8,0:0:0:0:
412,152,10169,1,0,0:0:0:0:
397,112,10248,2,0,L|332:93,1,49.499999848938
212,56,10406,1,0,1:0:0:0:
288,232,10564,101,8,0:0:0:0:
273,192,10643,1,0,0:0:0:0:
258,152,10722,2,0,L|193:133,1,49.499999848938
69,51,10880,6,0,P|40:83|24:131,1,90,0|0,1:0|0:0,0:0:0:0:
60,291,11196,101,12,0:0:0:0:
144,264,11354,5,8,0:0:0:0:
160,264,11433,1,2,0:1:0:0:
176,264,11512,1,2,0:1:0:0:
224,264,11669,101,2,1:1:0:0:
272,264,11826,5,2,0:1:0:0:
288,264,11906,1,2,0:1:0:0:
304,264,11985,1,2,0:1:0:0:
320,264,12064,1,2,0:1:0:0:
336,264,12143,1,2,0:1:0:0:
384,264,12301,102,0,L|432:264,1,45,2|0,2:2|2:0,0:0:0:0:
448,92,12617,5,8,0:0:0:0:
420,116,12696,1,0,0:0:0:0:
392,140,12775,2,0,P|363:146|328:139,1,56.2500021457673
180,76,12933,1,0,1:0:0:0:
180,76,13090,101,8,0:0:0:0:
196,108,13169,1,0,0:0:0:0:
210,142,13248,2,0,P|218:169|214:201,1,56.2500021457673
104,312,13406,1,0,1:0:0:0:
104,312,13564,6,0,L|214:278,1,112.5,2|0,2:2|0:0,0:0:0:0:
215,197,13722,2,0,L|286:175,1,75,2|0,2:2|2:0,0:0:0:0:
392,140,13880,101,8,0:0:0:0:
431,152,13959,1,0,0:0:0:0:
459,182,14038,1,0,0:0:0:0:
465,223,14117,1,0,0:0:0:0:
450,261,14196,2,0,P|426:283|399:292,1,56.2500021457673,0|0,1:0|0:0,0:0:0:0:
326,217,14354,2,0,L|288:176,1,56.2500021457673,8|0,0:0|0:0,0:0:0:0:
276,52,14512,2,0,P|200:72|124:44,1,150,8|0,0:0|1:0,0:0:0:0:
276,51,14985,6,0,B|208:75|208:75|133:50,1,150
72,104,15143,101,8,0:0:0:0:
55,142,15222,1,0,0:0:0:0:
49,183,15301,1,0,0:0:0:0:
56,223,15380,1,0,0:0:0:0:
79,257,15459,2,0,P|108:275|145:276,1,56.2500021457673,0|0,1:0|0:0,0:0:0:0:
236,160,15617,1,8,0:0:0:0:
197,147,15696,1,0,0:0:0:0:
156,165,15775,1,0,0:0:0:0:
144,205,15854,1,0,0:0:0:0:
168,240,15933,5,0,1:0:0:0:
316,152,16090,1,0,0:0:0:0:
428,220,16248,1,12,0:0:0:0:
404,266,16327,1,12,0:0:0:0:
380,312,16406,101,4,0:1:0:0:
328,316,16485,1,2,0:1:0:0:
276,320,16564,1,6,0:1:0:0:
380,312,16722,5,2,1:1:0:0:
220,236,16880,101,6,0:1:0:0:
272,232,16959,1,2,0:1:0:0:
324,228,17038,1,2,0:1:0:0:
376,224,17117,1,2,0:1:0:0:
428,220,17196,1,2,1:1:0:0:
220,236,17354,5,4,3:0:0:0:
220,236,17669,102,0,L|172:300,1,56.2500021457673,12|0,0:0|0:0,0:0:0:0:
120,364,17827,1,0,0:0:0:0:
100,328,17906,1,0,0:0:0:0:
80,292,17985,2,0,L|52:242,1,56.2500021457673,2|0,1:3|0:0,0:0:0:0:
152,176,18143,1,8,0:0:0:0:
184,152,18222,1,0,0:0:0:0:
216,128,18301,2,0,L|261:94,1,56.2500021457673
128,32,18459,1,2,1:3:0:0:
392,140,18617,5,4,2:2:0:0:
392,140,18933,101,8,0:0:0:0:
422,164,19012,1,0,0:0:0:0:
437,199,19090,1,0,0:0:0:0:
434,238,19169,1,0,0:0:0:0:
411,270,19248,1,2,1:3:0:0:
374,283,19327,1,0,0:0:0:0:
334,277,19406,2,0,L|368:208,1,75.7499984973908,8|0,0:0|0:0,0:0:0:0:
392,140,19564,2,0,P|304:178|334:277,1,219.000006015015,8|2,0:0|0:0,0:0:0:0:
334,277,19880,1,0,1:0:0:0:
136,236,20196,5,8,0:0:0:0:
116,200,20275,1,0,0:0:0:0:
96,164,20354,2,0,L|160:172,1,56.2500021457673,0|2,0:0|0:0,0:0:0:0:
264,188,20512,1,2,1:3:0:0:
264,188,20669,101,8,0:0:0:0:
244,152,20748,1,0,0:0:0:0:
224,116,20827,2,0,L|288:124,1,56.2500021457673
392,140,20985,6,0,B|400:148|400:148|396:144|396:144|408:156|408:156|404:152|404:152|416:164|416:164|412:160|412:160|424:172|424:172|420:168|420:168|432:180|432:180|428:176|428:176|439:188|439:188|436:184|436:184|448:196|448:196|444:192|444:192|456:204|456:204|452:200|452:200|464:212|464:212|460:208|460:208|472:220|472:220|468:216|468:216|476:224|476:224|476:231|476:231|466:249|466:249|473:239|473:239|454:261|454:261|460:256|460:256|401:312|328:275,1,450.000017166138,2|12,1:3|0:0,0:0:0:0:
128,88,21459,101,8,0:0:0:0:
144,88,21538,1,2,0:1:0:0:
160,88,21617,1,2,0:1:0:0:
232,88,21774,5,2,1:1:0:0:
304,88,21933,101,2,0:1:0:0:
320,88,22011,1,2,0:1:0:0:
336,88,22090,1,2,0:1:0:0:
352,88,22169,1,2,0:1:0:0:
368,88,22248,1,2,1:1:0:0:
440,88,22406,6,0,L|56:88,1,382.500007295609,2|0,2:2|0:0,0:0:0:0:
32,184,22722,101,8,0:0:0:0:
18,226,22801,1,0,0:0:0:0:
25,270,22880,2,0,P|36:294|59:317,1,56.2500021457673
208,356,23038,1,2,1:3:0:0:
208,356,23196,1,8,0:0:0:0:
252,356,23275,1,0,0:0:0:0:
284,332,23354,2,0,P|303:315|318:286,1,56.2500021457673
317,135,23512,1,2,1:3:0:0:
317,135,23669,6,0,L|263:236,1,112.5,2|0,2:2|0:0,0:0:0:0:
316,288,23827,2,0,L|254:223,1,75,2|0,2:2|2:0,0:0:0:0:
385,193,23985,101,8,0:0:0:0:
404,148,24064,1,2,0:0:0:0:
408,96,24143,2,0,P|408:64|392:36,1,56.2500021457673
316,136,24301,1,2,1:3:0:0:
96,60,24459,1,8,0:0:0:0:
96,60,24617,2,0,P|116:104|84:196,1,150,8|0,0:0|1:0,0:0:0:0:
96,60,25090,6,0,B|121:126|121:126|84:196,1,150
49,287,25248,101,8,0:0:0:0:
90,270,25327,1,0,0:0:0:0:
134,263,25406,1,0,0:0:0:0:
178,272,25485,1,2,0:0:0:0:
216,294,25564,2,0,P|244:303|274:304,1,56.2500021457673,2|0,1:3|0:0,0:0:0:0:
371,253,25722,1,8,0:0:0:0:
394,214,25801,1,0,0:0:0:0:
383,170,25880,1,0,0:0:0:0:
344,147,25959,1,0,0:0:0:0:
300,158,26038,5,2,1:3:0:0:
456,268,26196,1,2,0:0:0:0:
232,192,26354,1,6,0:0:0:0:
176,176,26433,1,6,0:0:0:0:
124,156,26512,102,0,L|64:148,1,56.2500021457673,4|2,0:1|0:0,0:0:0:0:
256,96,26669,2,0,L|196:88,1,56.2500021457673,4|0,0:1|0:0,0:0:0:0:
388,36,26827,2,0,L|328:28,1,56.2500021457673,2|0,1:3|0:0,0:0:0:0:
123,156,26985,2,0,P|95:234|113:315,1,168.750006437302,4|0,0:1|0:0,0:0:0:0:
220,280,27301,2,0,P|256:272|292:280,1,74.249999773407,0|0,1:0|0:0,0:0:0:0:
256,348,27459,5,4,0:0:0:0:
256,160,27775,101,4,0:1:0:0:
164,75,27933,6,0,P|256:48|348:76,1,195
256,160,29038,5,2,3:2:0:0:
256,176,29117,1,0,0:0:0:0:
256,192,29196,1,0,0:0:0:0:
256,208,29275,1,0,0:0:0:0:
256,224,29354,1,0,0:0:0:0:
256,240,29433,1,0,0:0:0:0:
256,256,29512,2,0,L|256:336,1,75
362,160,29669,21,2,3:2:0:0:
362,176,29748,1,0,0:0:0:0:
362,192,29827,1,0,0:0:0:0:
362,208,29906,1,0,0:0:0:0:
362,224,29985,2,0,B|362:298|362:298|362:294|362:294|362:301|362:301|362:298|362:298|362:305|362:305|362:301|362:301|362:308|362:308|362:305|362:305|362:312|362:312|362:308|362:308|362:316|362:316|362:312|362:312|362:319|362:319|362:316|362:316|362:323|362:323|362:319|362:319|362:327|362:327|362:323|362:323|362:330|362:330|362:327|362:327|362:334|362:334|362:330|362:330|362:337|362:337|362:334|362:334|362:341|362:341|362:337|362:337|362:345|362:345|362:341|362:341|362:348|362:348|362:345|362:345|362:352|362:352|362:348|362:348|362:356|362:356|362:352|362:352|362:356,1,225.000008583069
147,160,30301,5,2,0:0:0:0:
164,76,30459,54,0,P|255:48|347:76,1,195
469,160,31564,85,2,3:2:0:0:
469,176,31643,1,0,0:0:0:0:
469,192,31722,1,0,0:0:0:0:
469,208,31801,1,0,0:0:0:0:
469,224,31880,2,0,L|468:296,1,60
256,160,32196,54,0,B|256:249|256:249|256:244|256:244|256:256|256:256|256:252|256:252|256:264|256:264|256:260|256:260,1,120,2|0,0:0|0:0,0:0:0:0:
40,160,32827,37,2,0:0:0:0:
164,75,32985,38,0,P|256:48|348:76,1,195
472,160,34090,101,0,0:0:0:0:
447,170,34169,1,0,0:0:0:0:
422,180,34248,1,0,0:0:0:0:
397,190,34327,1,0,0:0:0:0:
373,200,34406,1,0,0:0:0:0:
348,210,34485,1,0,0:0:0:0:
323,220,34564,1,0,0:0:0:0:
299,230,34643,1,0,0:0:0:0:
274,240,34722,1,0,0:0:0:0:
249,250,34801,1,0,0:0:0:0:
224,260,34880,1,0,0:0:0:0:
200,270,34959,1,0,0:0:0:0:
176,280,35038,1,0,2:0:0:0:
176,32,35354,5,2,0:0:0:0:
176,109,35512,2,0,L|176:184,1,75
185,233,36143,102,0,P|176:208|176:184,1,50,4|4,0:0|0:0,0:0:0:0:
222,289,36301,2,0,P|214:267|185:234,1,66.9999968307497
297,263,36459,2,0,L|221:289,1,80
386,298,36617,2,0,P|336:292|288:250,1,100,4|0,0:0|0:0,0:0:0:0:
393,230,36775,2,0,P|396:269|386:300,1,69.9999978637696
370,176,36933,2,0,P|374:203|397:233,1,59.9999981689454
310,122,37090,2,0,L|375:182,1,80
220,104,37248,2,0,L|318:124,1,93.75,4|0,1:3|0:0,0:0:0:0:
154,165,37406,86,0,B|151:162|151:162|156:167|156:167|156:162|156:162|151:167|151:167|154:162|154:162|156:165|156:165|154:167|154:167|151:165|151:165,10,37.5,2|2|2|2|2|2|2|2|2|2|2,0:3|0:3|0:3|0:3|0:3|0:3|0:3|0:3|0:3|0:3|0:3,0:3:0:0:
47,259,37880,22,0,L|154:259,1,75,4|0,0:0|0:0,0:0:0:0:
236,340,38038,1,0,0:0:0:0:
252,344,38117,1,0,0:0:0:0:
268,348,38196,2,0,L|352:348,1,75,2|0,1:3|0:0,0:0:0:0:
292,184,38354,1,8,0:0:0:0:
308,188,38433,1,0,0:0:0:0:
324,192,38512,1,0,0:0:0:0:
340,196,38590,1,0,0:0:0:0:
356,200,38669,2,0,L|440:200,1,75,2|0,1:3|0:0,0:0:0:0:
48,104,38985,86,0,B|29:140|-57:129|15:23|49:105,1,150
48,104,39143,22,0,L|132:104,1,75,4|0,0:0|0:0,0:0:0:0:
256,36,39301,1,0,0:0:0:0:
292,48,39380,1,0,0:0:0:0:
328,60,39459,2,0,L|408:60,1,75,2|0,1:3|0:0,0:0:0:0:
181,192,39617,2,0,L|256:192,1,75,8|0,0:0|0:0,0:0:0:0:
256,192,39775,2,0,L|331:192,1,75,8|0,0:0|0:0,0:0:0:0:
256,276,39932,53,2,0:2:0:0:
256,360,40090,2,2,B|256:355|256:355|256:360|256:360|256:350|256:350|256:355|256:355|256:346|256:346|256:350|256:350|256:341|256:341|256:346|256:346|256:336|256:336|256:341|256:341|256:332|256:332|256:336|256:336|256:327|256:327|256:332|256:332|256:323|256:323|256:327|256:327|256:318|256:318|256:323|256:323|256:313|256:313|256:318|256:318|256:309|256:309|256:313|256:313|256:304|256:304|256:309|256:309|256:299|256:299|256:304|256:304|256:295|256:295|256:299|256:299|256:290|256:290|256:295|256:295|256:286|256:286|256:290|256:290|256:281|256:281|256:286|256:286|256:181,1,326.25000995636,6|0,1:3|0:0,0:0:0:0:
220,88,40406,53,4,0:0:0:0:
200,100,40485,1,0,0:0:0:0:
180,112,40565,2,0,L|180:37,1,75
332,192,40722,2,0,L|332:117,1,75,2|0,1:3|0:0,0:0:0:0:
160,216,40880,1,8,0:0:0:0:
140,228,40959,1,0,0:0:0:0:
120,240,41038,54,0,L|120:156,1,75
256,104,41196,2,0,L|256:24,1,75,2|0,1:3|0:0,0:0:0:0:
224,308,41354,2,0,L|224:224,1,75
360,172,41512,2,0,B|360:124|360:124|412:124,1,97.4999955368044,8|0,0:3|0:2,0:0:0:0:
444,288,41669,53,4,0:0:0:0:
424,300,41748,1,0,0:0:0:0:
404,312,41828,2,0,L|404:237,1,75
256,180,41985,2,0,L|256:105,1,75,2|0,1:3|0:0,0:0:0:0:
160,366,42143,2,0,L|160:291,1,75,8|0,0:0|0:0,0:0:0:0:
160,291,42301,2,0,L|160:216,1,75,8|0,0:0|0:0,0:0:0:0:
160,216,42459,69,0,0:0:0:0:
160,216,42617,2,0,B|164:211|164:211|160:216|160:216|168:207|168:207|164:211|164:211|171:204|171:204|168:207|168:207|175:200|175:200|171:204|171:204|179:196|179:196|175:200|175:200|182:193|182:193|179:196|179:196|186:189|186:189|182:193|182:193|189:186|189:186|186:189|186:189|193:182|193:182|189:186|189:186|193:182|193:182|201:174|201:174|197:178|197:178|205:170|205:170|201:174|201:174|205:170|205:170|212:163|212:163|209:166|209:166|216:159|216:159|212:163|212:163|216:159|216:159|219:156|219:156|314:61,1,326.25000995636
360,172,42933,38,0,L|419:112,1,75,4|0,0:0|0:0,0:0:0:0:
161,95,43090,2,0,L|220:35,1,75
307,225,43248,1,2,1:3:0:0:
307,225,43406,70,0,L|366:165,1,75,8|0,0:0|0:0,0:0:0:0:
108,148,43564,2,0,L|167:88,1,75,0|0,0:0|0:0,0:0:0:0:
159,216,43722,2,0,B|222:154|222:154|259:159|259:159|332:87|332:87,2,225.000008583069,2|2|2,1:3|0:0|0:0,0:0:0:0:
360,172,44196,38,0,L|419:112,1,75,4|0,0:0|0:0,0:0:0:0:
308,224,44354,1,0,0:0:0:0:
324,264,44433,1,0,0:0:0:0:
340,304,44512,2,0,L|399:244,1,75,2|0,1:3|0:0,0:0:0:0:
184,352,44669,2,0,L|243:292,1,75,8|0,0:0|0:0,0:0:0:0:
108,148,44827,38,2,B|196:76|196:76|236:56|244:104|208:124,1,202.499993820191,4|0,0:0|0:0,0:0:0:0:
209,123,45143,2,2,B|204:52|308:48|308:148|308:148|308:224,1,258.750004935265,4|0,0:0|0:0,0:0:0:0:
184,265,45459,70,0,L|184:361,1,86.2500016450882,4|0,0:0|0:0,0:0:0:0:
308,224,45617,1,0,0:0:0:0:
352,236,45696,1,0,0:0:0:0:
396,248,45775,2,0,L|396:344,1,86.2500016450882,2|0,1:3|0:0,0:0:0:0:
472,136,45933,2,0,L|472:232,1,86.2500016450882
384,48,46090,37,0,0:0:0:0:
288,72,46248,2,0,L|288:168,1,86.2500016450882,2|0,0:0|0:0,0:0:0:0:
188,100,46406,2,0,L|188:196,1,86.2500016450882,2|0,1:3|0:0,0:0:0:0:
88,128,46564,2,0,L|88:188,1,43.1250008225441,2|0,3:3|0:0,0:0:0:0:
44,144,46643,2,0,L|44:204,1,43.1250008225441,2|0,3:3|0:0,0:0:0:0:
0,160,46722,69,4,3:3:0:0:
156,216,46880,2,0,L|156:276,1,43.1250008225441,6|0,3:3|0:0,0:0:0:0:
204,232,46959,2,0,L|204:292,1,43.1250008225441,2|0,3:3|0:0,0:0:0:0:
244,244,47038,2,0,L|244:340,1,86.2500016450882,2|0,1:3|3:3,0:0:0:0:
348,272,47196,2,0,L|348:368,1,86.2500016450882,2|0,0:1|0:0,0:0:0:0:
448,144,47354,2,0,L|448:316,1,172.500003290176,6|0,3:1|0:0,0:0:0:0:
348,100,47590,2,0,L|348:272,1,172.500003290176,2|0,0:0|0:0,0:0:0:0:
244,158,47827,2,0,L|244:244,1,86.2500016450882,2|0,0:0|0:0,0:0:0:0:
144,116,47985,5,4,0:0:0:0:
348,100,48143,1,2,1:3:0:0:
244,158,48301,1,2,1:3:0:0:
448,144,48459,1,4,0:0:0:0:
256,192,48775,12,0,50196,0:0:0:0:
72,260,50512,6,0,P|116:284|148:284,1,56.2500021457673,4|0,0:1|0:0,0:0:0:0:
194,199,50669,1,0,1:0:0:0:
223,173,50748,1,0,0:0:0:0:
260,160,50827,2,0,P|287:155|348:165,1,75.000002861023,2|0,1:3|0:0,0:0:0:0:
459,234,50985,2,0,L|375:290,1,100,2|0,0:0|0:0,0:0:0:0:
241,322,51143,6,0,P|203:309|156:314,1,75.000002861023,2|0,1:3|0:0,0:0:0:0:
71,260,51301,2,0,L|19:280,2,37.5000014305115,0|0|0,3:0|3:0|3:0,0:0:0:0:
112,168,51459,1,2,1:3:0:0:
277,241,51617,1,2,1:3:0:0:
356,79,51775,6,0,L|376:46,3,28.1250010728836,0|0|0|0,1:0|3:0|3:0|3:0,0:0:0:0:
412,152,51933,1,2,1:3:0:0:
388,188,52012,1,0,0:0:0:0:
400,228,52090,1,2,1:3:0:0:
376,264,52169,1,0,1:0:0:0:
388,304,52248,1,2,1:3:0:0:
364,340,52327,1,2,1:3:0:0:
336,356,52406,6,0,P|304:352|268:356,1,56.2500021457673
236,260,52564,2,0,P|208:277|183:303,1,56.2500021457673,0|0,0:0|0:0,0:0:0:0:
180,168,52722,2,0,P|159:177|150:191,3,28.1250010728836,2|2|2|2,1:3|0:0|0:0|0:0,0:0:0:0:
240,88,52880,6,0,L|220:44,3,28.1250010728836,0|0|0|0,1:0|0:0|0:0|0:0,0:0:0:0:
336,120,53038,1,0,1:0:0:0:
336,120,53196,6,0,L|356:76,3,28.1250010728836,0|0|0|0,1:0|0:0|0:0|0:0,1:0:0:0:
408,216,53354,1,0,1:0:0:0:
400,264,53433,1,0,1:0:0:0:
376,308,53512,2,0,P|344:328|312:328,1,56.2500021457673,2|2,1:3|1:3,0:0:0:0:
184,348,53669,2,0,L|144:344,3,28.1250010728836,0|0|0|0,1:0|3:0|3:0|3:0,0:0:0:0:
236,260,53827,2,0,L|264:212,1,56.2500021457673,2|0,1:3|1:0,0:0:0:0:
172,128,53985,37,2,1:2:0:0:
256,336,54143,1,0,1:0:0:0:
336,120,54301,5,2,1:3:0:0:
352,88,54380,1,0,0:0:0:0:
368,56,54459,1,0,0:0:0:0:
400,72,54538,5,2,1:3:0:0:
432,88,54617,1,0,0:0:0:0:
464,104,54696,1,0,0:0:0:0:
476,144,54775,5,2,1:3:0:0:
488,184,54854,1,0,1:3:0:0:
476,224,54933,6,0,B|432:244|372:220|372:220|420:232|472:212,1,200,2|2,1:3|1:3,0:0:0:0:
392,304,55248,5,2,1:3:0:0:
336,328,55327,1,2,1:3:0:0:
280,352,55406,37,0,0:0:0:0:
224,324,55485,1,0,1:0:0:0:
168,296,55564,86,0,L|120:272,1,45,4|0,2:1|0:0,0:0:0:0:
56,128,55880,37,0,1:0:0:0:
99,157,55959,1,0,1:0:0:0:
151,162,56038,1,0,1:3:0:0:
200,143,56117,1,0,1:0:0:0:
239,109,56196,2,0,L|148:73,1,75,2|2,1:3|1:3,0:0:0:0:
300,164,56354,2,0,L|209:128,1,75,0|2,1:3|1:3,0:0:0:0:
205,226,56512,2,0,L|296:190,1,75,2|0,1:3|1:3,0:0:0:0:
144,281,56669,2,0,L|235:245,1,75,2|0,1:3|1:3,0:0:0:0:
280,352,56827,5,0,1:0:0:0:
394,149,56985,1,0,1:0:0:0:
402,164,57064,2,0,B|435:184|462:170|462:170|520:65|433:248,1,225.000008583069,2|0,1:3|0:0,0:0:0:0:
319,289,57301,2,0,B|290:247|290:247|248:304|189:320,1,150.000005722046,2|0,1:3|0:0,0:0:0:0:
134,339,57459,6,0,L|94:359,3,28.1250010728836,2|2|2|2,1:3|0:0|0:0|0:0,0:0:0:0:
121,231,57617,2,0,L|184:183,1,56.2500021457673,0|0,1:0|1:0,0:0:0:0:
189,75,57775,2,0,L|215:55,5,18.7500007152558,0|0|0|0|0|0,0:0|0:0|0:0|0:0|0:0|0:0,0:0:0:0:
275,125,57933,2,0,L|316:152,2,37.5000014305115,0|0|0,0:0|0:0|0:0,0:0:0:0:
372,32,58090,5,2,1:3:0:0:
435,134,58248,1,0,1:0:0:0:
461,179,58327,1,2,1:3:0:0:
464,231,58406,2,0,P|461:270|436:307,1,75,0|0,1:0|1:0,0:0:0:0:
316,260,58564,2,0,L|392:248,1,75,2|0,1:3|1:0,0:0:0:0:
256,312,58722,2,0,L|327:337,1,75,2|0,1:3|1:0,0:0:0:0:
200,256,58880,1,0,1:0:0:0:
216,212,58959,1,2,1:3:0:0:
224,168,59038,6,0,L|224:124,3,28.1250010728836,2|2|2|2,0:0|0:0|0:0|0:0,0:0:0:0:
188,76,59196,2,0,L|160:48,3,28.1250010728836,2|2|2|2,0:0|0:0|0:0|0:0,0:0:0:0:
136,140,59354,38,0,P|112:168|60:184,1,75.000002861023,2|0,0:0|0:0,0:0:0:0:
60,276,59512,2,0,L|20:268,2,37.5000014305115,0|2|2,0:0|0:0|0:0,0:0:0:0:
152,320,59669,5,2,1:3:0:0:
196,328,59748,1,0,0:0:0:0:
240,336,59827,1,2,1:3:0:0:
284,332,59906,1,2,3:0:0:0:
328,328,59985,6,0,P|368:304|384:244,1,112.5,2|0,1:3|0:0,0:0:0:0:
328,168,60143,2,0,P|360:200|343:128,1,168.750006437302,4|0,0:0|0:0,0:0:0:0:
256,84,60301,5,12,0:2:0:0:
256,192,60617,12,0,62512,0:0:0:0:
144,268,62827,38,0,P|117:256|144:240,1,75
216,248,63143,6,0,B|272:248|272:248|289:233|289:233|343:233,1,131.625003213501,4|0,3:3|0:0,0:0:0:0:
481,234,63459,1,2,1:3:0:0:
404,108,63617,2,0,B|320:108|320:108|293:130|293:130|203:130,1,208.687500318432,4|0,3:3|0:0,0:0:0:0:
52,134,64090,2,0,P|32:176|32:192,1,56.2499982833863,2|0,1:3|0:0,0:0:0:0:
72,296,64248,2,0,P|84:272|84:240,1,56.2499982833863,2|0,0:0|0:0,0:0:0:0:
216,248,64406,102,0,B|272:248|272:248|289:262|289:262|346:262,1,131.625003213501,4|0,3:3|0:0,0:0:0:0:
481,234,64722,2,0,B|432:234|432:234|407:261|407:261|289:262|289:262|272:248|272:248|200:248,1,281.999995697022,2|0,1:3|0:0,0:0:0:0:
72,296,65196,5,2,0:0:0:0:
340,140,65354,1,12,0:0:0:0:
340,140,65669,101,8,0:0:0:0:
308,116,65748,1,0,0:0:0:0:
270,102,65827,2,0,P|242:94|213:96,1,49.499999848938,0|0,0:0|0:0,0:0:0:0:
72,112,65985,1,2,1:3:0:0:
296,248,66143,5,8,0:0:0:0:
264,224,66222,1,0,0:0:0:0:
226,210,66301,2,0,P|198:202|169:204,1,49.499999848938,0|0,0:0|0:0,0:0:0:0:
28,220,66459,1,2,1:3:0:0:
72,296,66775,101,2,2:2:0:0:
156,332,66933,5,8,0:0:0:0:
194,343,67012,1,2,0:0:0:0:
233,343,67090,2,0,P|261:340|286:330,1,49.499999848938
380,216,67248,1,2,1:3:0:0:
227,210,67406,101,8,0:0:0:0:
256,144,67564,2,0,L|292:64,1,75,8|2,0:0|0:0,0:0:0:0:
287,75,67880,1,0,1:0:0:0:
40,108,68196,5,8,0:0:0:0:
71,132,68275,1,0,0:0:0:0:
108,145,68354,2,0,P|134:149|162:146,1,49.499999848938,0|2,0:0|0:0,0:0:0:0:
287,75,68512,1,2,1:3:0:0:
144,77,68669,101,8,0:0:0:0:
120,108,68748,1,0,0:0:0:0:
107,145,68827,2,0,P|103:171|106:199,1,49.499999848938
176,324,68985,2,0,B|188:336|188:336|256:348|256:348|264:360,1,90,2|0,1:3|0:0,0:0:0:0:
380,216,69301,5,8,3:3:0:0:
428,84,69459,101,8,0:0:0:0:
404,84,69538,1,2,0:0:0:0:
380,84,69617,1,0,0:0:0:0:
356,84,69696,1,2,0:0:0:0:
332,84,69775,1,2,1:3:0:0:
256,84,69933,1,8,0:0:0:0:
181,84,70090,2,0,L|88:84,1,92.999996310425,0|2,0:0|1:3,0:0:0:0:
88,84,70406,6,0,L|428:84,1,339.74999611187,2|0,0:0|0:0,0:0:0:0:
512,192,70722,101,4,0:0:0:0:
380,216,70880,1,0,0:0:0:0:
360,224,70959,1,0,0:0:0:0:
344,276,71038,1,4,0:0:0:0:
308,152,71196,1,0,0:0:0:0:
288,160,71275,1,0,0:0:0:0:
272,212,71354,1,4,0:0:0:0:
236,88,71512,1,0,0:0:0:0:
216,96,71591,1,0,0:0:0:0:
200,148,71670,1,4,0:0:0:0:
164,24,71827,1,0,0:0:0:0:
144,32,71906,1,0,0:0:0:0:
128,84,71985,54,0,P|85:127|-13:145,1,150,4|0,0:0|0:0,0:0:0:0:
140,176,72222,1,0,0:0:0:0:
28,252,72301,2,0,P|87:237|180:274,1,150,4|0,0:0|0:0,0:0:0:0:
256,316,72538,1,0,0:0:0:0:
342,265,72617,54,0,P|411:238|484:252,1,150,4|0,0:0|0:0,0:0:0:0:
372,176,72854,1,0,0:0:0:0:
511,147,72933,2,0,P|438:134|384:84,1,150,4|0,0:0|0:0,0:0:0:0:
324,120,73169,1,0,0:0:0:0:
372,177,73248,53,4,0:0:0:0:
140,176,73406,1,4,0:0:0:0:
327,314,73564,1,4,0:0:0:0:
256,93,73722,1,4,0:0:0:0:
184,314,73880,1,4,0:0:0:0:
372,176,74038,1,4,0:0:0:0:
139,177,74196,1,4,0:0:0:0:
327,314,74354,1,4,0:0:0:0:
256,93,74512,70,0,L|256:197,1,98.999999697876,4|0,0:2|0:0,0:0:0:0:
432,232,74748,1,0,0:0:0:0:
355,192,74827,102,0,L|251:192,1,98.999999697876,2|0,0:0|0:0,0:0:0:0:
80,232,75064,1,0,0:0:0:0:
157,192,75143,2,0,L|261:192,1,98.999999697876,2|0,0:0|0:0,0:0:0:0:
256,380,75380,1,0,0:0:0:0:
256,304,75459,6,0,B|256:241|256:241|256:246|256:246|256:234|256:234|256:237|256:237|256:224|256:224|256:229|256:229|256:214|256:214|256:224|256:224|256:210|256:210|256:215|256:215|256:188,1,168.750006437302,2|0,0:0|0:0,0:0:0:0:
200,120,75775,5,4,1:2:0:0:
156,108,75854,1,0,0:0:0:0:
112,108,75933,1,0,0:0:0:0:
72,128,76012,1,0,0:0:0:0:
44,160,76090,1,0,0:0:0:0:
312,120,76248,53,4,1:2:0:0:
356,108,76327,1,0,0:0:0:0:
400,108,76406,1,0,0:0:0:0:
440,128,76485,1,0,0:0:0:0:
468,160,76563,1,0,0:0:0:0:
200,224,76722,53,4,1:2:0:0:
161,246,76801,1,0,0:0:0:0:
150,289,76880,1,0,0:0:0:0:
163,331,76959,1,0,0:0:0:0:
198,359,77038,2,0,P|230:365|272:357,1,75
388,197,77196,53,4,1:2:0:0:
361,233,77275,1,0,0:0:0:0:
358,277,77354,1,0,0:0:0:0:
377,317,77433,1,0,0:0:0:0:
412,344,77512,2,0,P|446:350|485:342,1,75
468,160,77669,53,4,1:2:0:0:
471,193,77748,1,0,0:0:0:0:
465,226,77827,2,0,P|459:255|436:288,1,56.2500021457673
325,144,77985,54,0,P|288:215|290:296,2,150,4|0|0,1:2|0:0|0:0,0:0:0:0:
405,82,78380,1,0,0:0:0:0:
306,31,78459,54,0,L|228:31,1,75,4|0,1:2|0:0,0:0:0:0:
324,144,78617,53,4,1:2:0:0:
350,180,78696,1,0,0:0:0:0:
370,219,78775,2,0,P|377:262|363:304,1,75
223,185,78933,53,4,1:2:0:0:
216,213,79012,1,0,0:0:0:0:
209,241,79090,1,0,0:0:0:0:
143,173,79169,53,4,1:2:0:0:
122,193,79248,1,0,0:0:0:0:
102,213,79326,1,0,0:0:0:0:
79,121,79406,53,4,1:2:0:0:
51,128,79485,1,0,0:0:0:0:
108,56,79564,54,0,P|170:86|306:32,1,225,4|0,1:2|0:0,0:0:0:0:
399,97,79880,1,0,0:0:0:0:
419,137,79959,1,0,0:0:0:0:
425,181,80038,2,0,P|421:244|405:279,1,75
168,203,80196,53,4,1:2:0:0:
205,177,80275,1,0,0:0:0:0:
252,173,80354,2,0,P|275:171|327:186,1,75,0|0,0:0|0:0,0:0:0:0:
108,280,80512,53,4,1:2:0:0:
145,306,80591,1,0,0:0:0:0:
192,310,80670,2,0,P|215:312|267:297,1,75,0|0,0:0|0:0,0:0:0:0:
58,163,80827,54,0,L|35:197,1,39.7500000606537,4|0,1:2|0:0,0:0:0:0:
126,137,80985,53,4,1:2:0:0:
166,118,81064,1,0,0:0:0:0:
203,92,81143,1,0,0:0:0:0:
228,54,81222,1,0,0:0:0:0:
270,68,81301,2,0,P|306:75|343:66,1,75
252,173,81459,54,0,L|294:163,1,43.5000013275147,4|0,1:2|0:0,0:0:0:0:
207,235,81617,53,4,1:2:0:0:
249,250,81696,1,0,0:0:0:0:
294,249,81775,1,0,0:0:0:0:
337,237,81854,1,0,0:0:0:0:
382,217,81933,2,0,P|424:206|467:212,1,86.2500016450882
368,320,82090,54,0,L|408:304,1,42.7499994781494,4|0,1:2|0:0,0:0:0:0:
296,344,82248,53,4,1:2:0:0:
251,350,82327,1,0,0:0:0:0:
206,346,82406,2,0,P|168:336|136:314,1,75
74,135,82564,53,4,1:2:0:0:
41,166,82643,1,0,0:0:0:0:
26,208,82722,2,0,P|21:243|32:287,1,75
185,114,82880,54,0,P|168:189|116:238,1,150,4|0,1:2|0:0,0:0:0:0:
252,172,83117,1,0,0:0:0:0:
292,152,83196,2,0,L|337:130,2,50,0|0|0,1:0|1:0|1:0,0:0:0:0:
188,276,83354,53,4,1:2:0:0:
226,252,83433,1,0,0:0:0:0:
271,251,83512,1,0,0:0:0:0:
309,274,83590,1,0,0:0:0:0:
353,275,83669,1,0,0:0:0:0:
394,257,83748,1,0,0:0:0:0:
419,219,83827,2,0,B|434:178|434:178|415:131,1,93.75,8|0,0:0|0:0,0:0:0:0:
240,36,83985,54,0,P|297:70|382:65,1,150,4|0,1:2|0:0,0:0:0:0:
146,187,84222,54,0,L|292:151,1,150,4|0,1:2|0:0,0:0:0:0:
254,358,84459,54,0,L|288:291,1,75,4|0,1:2|0:0,0:0:0:0:
505,328,84617,54,0,L|353:138,1,225,4|0,1:2|0:0,0:0:0:0:
240,36,84933,1,0,0:0:0:0:
208,88,85012,1,0,0:0:0:0:
176,136,85090,1,0,0:0:0:0:
144,188,85169,1,0,0:0:0:0:
112,236,85248,2,0,L|73:300,3,75,0|0|0|0,0:0|0:0|0:0|0:0,0:0:0:0:
166,381,85564,53,4,0:0:0:0:
208,369,85643,1,0,0:0:0:0:
251,357,85722,1,0,0:0:0:0:
293,343,85801,1,0,0:0:0:0:
335,329,85880,53,8,0:0:0:0:
298,317,85959,1,0,0:0:0:0:
261,305,86038,1,0,0:0:0:0:
223,293,86117,1,0,0:0:0:0:
186,281,86196,53,8,0:0:0:0:
218,268,86275,1,0,0:0:0:0:
251,257,86354,1,0,0:0:0:0:
283,245,86433,1,0,0:0:0:0:
316,237,86512,53,8,0:0:0:0:
288,225,86590,1,0,0:0:0:0:
261,213,86669,1,0,0:0:0:0:
233,200,86748,1,0,0:0:0:0:
206,189,86827,53,8,0:0:0:0:
228,177,86906,1,0,0:0:0:0:
251,165,86985,1,0,0:0:0:0:
273,153,87064,1,0,0:0:0:0:
296,140,87143,53,8,0:0:0:0:
261,129,87222,1,0,0:0:0:0:
226,117,87301,53,8,0:0:0:0:
251,105,87380,1,0,0:0:0:0:
276,93,87459,53,8,0:0:0:0:
261,80,87538,1,0,0:0:0:0:
244,69,87617,53,8,0:0:0:0:
250,42,87696,1,0,0:0:0:0:
256,15,87775,53,4,0:0:0:0:
352,52,87933,86,0,L|440:52,2,75,2|2|2,0:0|0:0|0:0,0:0:0:0:
104,44,88406,53,4,0:0:0:0:
63,76,88485,1,0,0:0:0:0:
45,124,88564,1,0,0:0:0:0:
50,175,88643,1,0,0:0:0:0:
75,220,88722,2,0,P|104:243|151:252,1,86.2500016450882,2|0,1:3|0:0,0:0:0:0:
364,188,88880,22,0,P|259:119|142:176,1,258.750004935265,8|0,0:0|0:0,0:0:0:0:
71,333,89196,1,2,1:3:0:0:
364,188,89354,85,12,2:2:0:0:
364,188,89669,21,4,0:0:0:0:
385,235,89748,1,2,0:0:0:0:
372,284,89827,1,0,0:0:0:0:
332,318,89906,1,0,0:0:0:0:
280,326,89985,2,0,B|219:332|183:277|190:228|190:228|180:212,1,172.500003290176,2|8,1:3|0:0,0:0:0:0:
180,212,90301,86,0,L|196:98,1,112.500004291535,8|2,0:0|0:0,0:0:0:0:
195,100,90617,22,0,P|287:155|294:43,1,258.750004935265,0|0,1:0|0:0,0:0:0:0:
120,24,90933,85,4,0:0:0:0:
74,48,91012,1,0,0:0:0:0:
44,89,91090,1,0,0:0:0:0:
34,139,91169,1,2,0:0:0:0:
36,190,91248,2,0,P|46:233|71:265,1,86.2500016450882,2|0,1:3|0:0,0:0:0:0:
200,180,91406,22,0,P|296:160|440:236,1,258.750004935265,8|0,0:0|0:0,0:0:0:0:
434,229,91722,2,0,B|418:286|470:295|528:271|477:195|435:229,1,168.750006437302,2|0,1:3|0:0,0:0:0:0:
434,229,92038,85,12,0:0:0:0:
424,72,92196,21,4,0:0:0:0:
392,112,92275,1,2,0:1:0:0:
360,152,92354,1,2,0:1:0:0:
260,272,92512,85,2,1:1:0:0:
296,40,92669,21,2,3:1:0:0:
264,80,92748,1,2,0:1:0:0:
232,120,92827,1,2,0:1:0:0:
200,160,92906,1,2,0:1:0:0:
168,200,92985,1,2,1:1:0:0:
70,321,93143,86,0,L|296:40,1,360,2|0,2:2|0:0,0:0:0:0:
424,72,93459,21,4,0:0:0:0:
449,117,93538,1,0,0:0:0:0:
455,168,93617,1,0,0:0:0:0:
449,219,93696,1,0,0:0:0:0:
429,266,93775,2,0,P|399:299|345:311,1,86.2500016450882,2|0,1:3|0:0,0:0:0:0:
130,253,93933,86,0,P|190:197|366:241,1,258.750004935265,8|0,0:0|0:0,0:0:0:0:
360,311,94248,2,0,L|352:224,1,86.2500016450882,2|0,1:3|0:0,0:0:0:0:
340,60,94406,22,0,L|244:104,1,84.3750032186509,2|0,2:2|2:0,0:0:0:0:
212,72,94564,2,0,L|262:95,1,56.2500021457673,2|0,2:2|2:0,0:0:0:0:
356,148,94722,85,4,0:0:0:0:
308,172,94801,1,2,0:0:0:0:
256,180,94880,1,0,0:0:0:0:
204,172,94959,1,0,0:0:0:0:
156,148,95038,2,0,P|126:119|115:73,1,86.2500016450882,2|0,1:3|0:0,0:0:0:0:
256,260,95196,22,0,B|272:284|272:284|252:324|252:324|256:344,1,94.499997116089,8|0,0:0|0:0,0:0:0:0:
256,260,95354,86,0,B|240:283|240:283|259:323|259:323|256:343,1,94.499997116089,8|2,0:0|0:0,0:0:0:0:
255,344,95669,22,0,L|256:36,1,303.750001158714,0|0,1:0|0:0,0:0:0:0:
352,36,95985,85,4,0:0:0:0:
370,84,96064,1,0,0:0:0:0:
374,135,96143,1,0,0:0:0:0:
363,185,96222,1,2,0:0:0:0:
332,226,96301,2,0,P|298:252|251:259,1,86.2500016450882,2|0,1:3|0:0,0:0:0:0:
160,36,96459,21,8,0:0:0:0:
142,84,96538,1,0,0:0:0:0:
138,135,96617,1,0,0:0:0:0:
149,185,96696,1,0,0:0:0:0:
180,226,96775,2,0,P|214:252|261:259,1,86.2500016450882,2|0,1:3|0:0,0:0:0:0:
352,36,96933,85,2,0:0:0:0:
428,216,97090,1,10,0:0:0:0:
448,272,97169,1,10,0:0:0:0:
464,324,97248,21,4,3:1:0:0:
412,332,97327,1,2,0:1:0:0:
360,340,97406,2,0,L|274:353,1,86.2500016450882,6|0,0:1|0:0,0:0:0:0:
148,292,97564,2,0,L|233:278,1,86.2500016450882,2|0,1:1|0:0,0:0:0:0:
332,180,97722,85,6,1:1:0:0:
280,188,97801,1,2,0:1:0:0:
228,196,97880,1,2,0:1:0:0:
176,204,97959,1,2,0:1:0:0:
124,212,98038,1,2,1:1:0:0:
384,108,98196,21,4,0:0:0:0:
384,108,98512,85,4,0:0:0:0:
343,76,98590,1,0,0:0:0:0:
295,55,98669,1,0,0:0:0:0:
243,47,98748,1,0,0:0:0:0:
191,46,98827,2,0,P|145:52|106:72,1,86.2500016450882,2|0,1:3|0:0,0:0:0:0:
45,275,98985,22,0,P|130:331|319:278,1,258.750004935265,8|0,0:0|0:0,0:0:0:0:
384,232,99301,1,2,1:3:0:0:
256,144,99459,85,12,2:2:0:0:
256,144,99775,21,4,0:0:0:0:
268,194,99854,1,2,0:0:0:0:
245,239,99933,1,0,0:0:0:0:
199,254,100012,1,0,0:0:0:0:
153,235,100090,1,2,1:3:0:0:
132,191,100169,1,0,0:0:0:0:
144,144,100248,2,0,L|256:144,1,112.500004291535,8|0,0:0|0:0,0:0:0:0:
256,144,100406,2,0,P|194:36|144:144,1,300,8|2,0:0|0:0,0:0:0:0:
144,144,100722,86,0,B|201:120|201:120|257:144|257:144|318:120|318:120|377:144|377:144|404:132|404:132,1,281.25,0|0,1:0|0:0,0:0:0:0:
432,119,101038,21,4,0:0:0:0:
464,160,101117,1,0,0:0:0:0:
479,209,101196,1,0,0:0:0:0:
474,260,101275,1,2,0:0:0:0:
457,309,101354,2,0,P|428:344|381:361,1,86.2500016450882,2|0,1:3|0:0,0:0:0:0:
170,269,101512,86,0,P|222:216|377:274,1,258.750004935265,8|0,0:0|0:0,0:0:0:0:
170,269,101827,22,0,B|156:269|156:269|164:268|164:268|140:265|140:265|147:268|147:268|126:258|126:258|132:262|132:262|113:248|113:248|119:253|119:253|103:237|103:237|108:242|108:242|97:223|97:223|99:229|99:229|96:207|96:207|95:215|95:215|96:188|96:188|94:197|94:197|100:171|100:171|95:180|95:180|106:156|106:156|103:163|103:163|111:150|111:150|125:140|125:140|117:144|117:144|141:132|141:132|133:136|133:136|181:114|181:114|175:117|175:117|321:48,1,600,2|8,1:3|0:0,0:0:0:0:
169,269,102301,85,4,0:0:0:0:
124,294,102380,1,2,0:1:0:0:
79,319,102459,1,2,0:1:0:0:
288,200,102617,21,2,1:1:0:0:
168,40,102775,85,2,0:1:0:0:
213,65,102854,1,2,0:1:0:0:
258,90,102933,1,2,0:1:0:0:
303,115,103012,1,2,0:1:0:0:
348,140,103091,1,2,1:1:0:0:
116,200,103248,22,0,L|64:200,1,45,2|0,2:2|0:0,0:0:0:0:
200,336,103564,85,4,0:0:0:0:
245,361,103643,1,0,0:0:0:0:
296,366,103722,1,0,0:0:0:0:
346,353,103801,1,0,0:0:0:0:
386,320,103880,2,0,P|397:277|390:234,1,86.2500016450882,2|0,1:3|0:0,0:0:0:0:
206,218,104038,22,0,P|297:218|324:66,1,258.750004935265,8|0,0:0|0:0,0:0:0:0:
168,40,104354,1,2,1:3:0:0:
116,200,104512,86,0,L|45:376,1,174.375001330376,2|0,2:2|2:0,0:0:0:0:
136,342,104669,2,0,L|52:362,1,86.2500016450882,2|0,2:2|2:0,0:0:0:0:
9,207,104827,21,4,0:0:0:0:
1,155,104906,1,2,0:0:0:0:
12,104,104985,1,0,0:0:0:0:
38,59,105064,1,0,0:0:0:0:
85,37,105143,2,0,P|112:30|174:42,1,86.2500016450882,2|0,1:3|0:0,0:0:0:0:
256,112,105301,86,0,L|332:152,1,86.2500016450882,8|0,0:0|0:0,0:0:0:0:
332,152,105459,2,0,L|333:224,1,60,8|2,0:0|0:0,0:0:0:0:
332,302,105775,1,0,1:0:0:0:
332,302,105933,22,0,B|256:261|256:261|256:110,1,235.109720679851,0|0,2:2|0:0,0:0:0:0:
320,48,106090,85,4,0:0:0:0:
368,29,106169,1,0,0:0:0:0:
419,33,106248,1,0,0:0:0:0:
459,64,106327,1,2,0:0:0:0:
483,109,106406,2,0,P|488:160|481:194,1,86.2500016450882,2|0,1:3|0:0,0:0:0:0:
256,112,106564,22,0,P|176:101|66:246,1,258.750004935265,8|0,0:0|0:0,0:0:0:0:
74,337,106880,85,2,0:0:0:0:
211,244,107038,1,2,0:0:0:0:
350,151,107196,1,10,0:0:0:0:
392,122,107275,1,10,0:0:0:0:
434,93,107354,22,0,L|505:43,1,86.2500016450882,4|0,0:1|0:0,0:0:0:0:
404,220,107512,2,0,L|475:170,1,86.2500016450882,4|0,0:1|0:0,0:0:0:0:
374,348,107669,2,0,L|445:298,1,86.2500016450882,2|0,1:3|0:0,0:0:0:0:
350,151,107827,86,0,P|261:246|162:147,1,301.875005757809,4|0,0:1|0:0,0:0:0:0:
256,112,108143,1,2,1:3:0:0:
256,344,108301,21,4,0:0:0:0:
256,344,108617,86,0,B|330:344|379:282|379:282|393:260|393:260|390:267|390:267|401:238|401:238|398:247|398:247|405:217|405:217|404:226|404:226|408:192|408:192|406:169|406:169|407:183|407:183|403:150|403:150|405:163|405:163|397:133|397:133|401:145|401:145|394:128|394:128|372:94|372:94|391:123|391:123|381:107|381:107|389:118|389:118|372:95|372:95|386:113|386:113|351:72|351:72|368:89|368:89|356:77|356:77|363:84|363:84|338:65|338:65|310:51|310:51|321:55|321:55|293:46|293:46|270:42|270:42|279:42|279:42|287:43|287:43|298:47|298:47|302:47|302:47|256:40|256:40,1,907.500027694703,4|0,2:1|0:0,0:0:0:0:
256,40,109564,54,0,L|256:192,1,150.749992869187,2|0,2:2|0:0,0:0:0:0:
32,264,109880,5,4,1:2:0:0:
88,264,109959,1,0,1:0:0:0:
144,264,110038,1,0,1:0:0:0:
200,264,110117,1,0,1:0:0:0:
256,264,110196,1,4,1:2:0:0:
312,264,110275,1,0,1:0:0:0:
368,264,110354,1,4,1:2:0:0:
424,264,110433,1,0,1:0:0:0:
480,264,110512,1,0,1:0:0:0:
256,112,110669,101,2,2:2:0:0:
340,344,110827,5,12,2:2:0:0:
340,344,111143,37,4,0:0:0:0:
387,324,111222,1,0,0:0:0:0:
416,281,111301,1,0,0:0:0:0:
430,231,111380,1,2,0:0:0:0:
434,179,111459,2,0,P|423:134|393:101,1,86.2500016450882,2|0,1:3|0:0,0:0:0:0:
256,188,111617,22,0,B|184:236|184:236|44:132,1,258.750004935265,8|0,0:0|0:0,0:0:0:0:
45,133,111933,2,0,B|2:101|34:50|98:58|103:124|46:134,1,168.750006437302,2|0,1:3|0:0,0:0:0:0:
45,133,112248,86,0,B|112:92|112:92|196:92,1,150,12|0,0:0|2:2,0:0:0:0:
277,71,112406,21,4,0:0:0:0:
326,81,112485,1,2,0:1:0:0:
375,92,112564,1,2,0:1:0:0:
425,103,112643,85,0,0:0:0:0:
390,151,112722,1,2,1:1:0:0:
354,199,112801,1,0,0:0:0:0:
318,244,112880,22,0,P|171:226|186:90,1,312.750009544373,8|0,0:0|0:0,0:0:0:0:
366,22,113196,86,0,B|316:71|316:71|348:48|348:48|295:101|295:101|327:77|327:77|274:130|274:130|306:107|306:107|253:159|253:159|285:136|285:136|233:188|233:188|264:165|264:165|212:218|212:218|243:194|243:194|191:247|191:247,1,750,2|0,1:3|0:0,0:0:0:0:
104,304,113669,21,4,0:0:0:0:
60,280,113748,1,0,0:0:0:0:
32,238,113827,1,0,0:0:0:0:
22,189,113906,1,0,0:0:0:0:
24,139,113985,2,0,P|38:104|71:73,1,82.5000025177003,2|0,1:3|0:0,0:0:0:0:
192,245,114143,86,0,P|272:303|436:242,1,247.500007553101,8|0,0:0|0:0,0:0:0:0:
495,110,114459,1,2,1:3:0:0:
366,22,114617,22,0,P|304:64|244:67,1,137.249994345474,2|0,2:2|2:2,0:0:0:0:
311,138,114775,2,0,L|244:68,1,97.4999955368044,2|0,2:2|2:2,0:0:0:0:
133,32,114933,85,4,0:0:0:0:
159,73,115012,1,2,0:0:0:0:
173,119,115090,1,0,0:0:0:0:
170,168,115169,1,0,0:0:0:0:
160,216,115248,2,0,P|132:258|102:276,1,82.5000025177003,2|0,1:3|0:0,0:0:0:0:
268,208,115406,2,0,L|350:208,1,82.5000025177003,8|0,0:0|0:0,0:0:0:0:
452,136,115564,2,0,P|470:215|452:279,1,150,8|2,0:0|1:3,0:0:0:0:
452,136,116038,22,0,B|473:212|473:212|452:279,1,150,0|0,2:2|0:0,0:0:0:0:
356,344,116196,85,4,0:0:0:0:
308,358,116275,1,0,0:0:0:0:
258,361,116354,1,0,0:0:0:0:
208,356,116433,1,2,0:0:0:0:
162,336,116512,2,0,P|132:309|117:269,1,82.5000025177003,2|0,1:3|0:0,0:0:0:0:
104,124,116669,22,0,P|212:180|336:160,1,247.500007553101,8|0,0:0|0:0,0:0:0:0:
502,38,116985,1,2,1:3:0:0:
350,71,117143,1,2,0:0:0:0:
200,104,117301,1,2,0:0:0:0:
152,114,117380,1,2,0:0:0:0:
104,124,117459,86,0,L|16:144,1,82.5000025177003,4|0,0:1|0:0,0:0:0:0:
164,216,117617,2,0,L|76:236,1,82.5000025177003,4|0,0:1|0:0,0:0:0:0:
224,308,117775,2,0,L|136:328,1,82.5000025177003,2|0,1:3|0:0,0:0:0:0:
104,124,117933,22,0,L|353:180,1,247.500007553101,4|0,0:1|0:0,0:0:0:0:
504,216,118248,1,2,1:3:0:0:
372,320,118406,85,4,0:0:0:0:
372,320,118722,54,0,B|257:373|140:320|140:320|256:380|372:320|372:320,1,480,4|2,2:1|0:0,0:0:0:0:
256,192,122512,53,2,0:0:0:0:
256,192,124880,54,0,B|255:192|255:192|257:192|257:192|254:192,2,5.625,0|0|2,0:0|0:0|0:0,0:0:0:0:
