osu file format v12

[General]
AudioFilename: Doppelganger.mp3
AudioLeadIn: 0
PreviewTime: 123481
Countdown: 0
SampleSet: Soft
StackLeniency: 0.7
Mode: 3
LetterboxInBreaks: 0
SpecialStyle: 0
WidescreenStoryboard: 1

[Editor]
DistanceSpacing: 0.8
BeatDivisor: 4
GridSize: 8

[Metadata]
Title:Doppelganger
TitleUnicode:Doppelganger
Artist:LeaF
ArtistUnicode:LeaF
Creator:Remillion Cross
Version:eXtremies
Source:BMS
Tags:bms of fighters 2013 konzertsaal
BeatmapID:326241
BeatmapSetID:128981

[Difficulty]
HPDrainRate:8
CircleSize:7
OverallDifficulty:8
ApproachRate:5
SliderMultiplier:1.4
SliderTickRate:1

[Events]
//Background and Video events
0,0,"BG.jpg",0,0
//Break Periods
//Storyboard Layer 0 (Background)
//Storyboard Layer 1 (Fail)
//Storyboard Layer 2 (Pass)
//Storyboard Layer 3 (Foreground)
//Storyboard Sound Samples
//Background Colour Transformations
3,100,163,162,255

[TimingPoints]
53,214.285714285714,4,2,1,40,1,0
16767,-500,4,2,1,40,0,0
16820,-250,4,2,1,40,0,0
16874,-166.666666666667,4,2,1,40,0,0
16927,-125,4,2,1,40,0,0
16981,-100,4,2,1,40,0,0
17035,-86.9565217391304,4,2,1,40,0,0
17088,-74.0740740740741,4,2,1,40,0,0
17142,-66.6666666666667,4,2,1,40,0,0
17195,-100,4,2,1,40,0,0
18910,-133.333333333333,4,2,1,40,0,0
29195,-100,4,2,1,40,0,0
32195,-200,4,2,1,40,0,0
32838,-100,4,2,1,40,0,0
34767,-100,4,2,1,40,0,0
60910,-200,4,2,1,40,0,0
62624,-100,4,2,1,40,0,0
67767,-200,4,2,1,40,0,1
67767,-100,4,2,1,40,0,1
68195,-100,4,2,1,40,0,1
74624,-100,4,2,1,40,0,0
75481,-133.333333333333,4,2,1,40,0,0
80624,-100,4,2,1,40,0,0
82338,-100,4,2,1,40,0,1
83195,-200,4,2,1,40,0,1
84052,-100,4,2,1,40,0,1
89195,-100,4,2,1,40,0,0
92624,-200,4,2,1,40,0,0
94338,-100,4,2,1,40,0,0
108910,-200,4,2,1,40,0,0
116624,-133.333333333333,4,2,1,40,0,0
121767,-100,4,2,1,40,0,0
123481,-100,4,2,1,40,0,1
140517,-400,4,2,1,40,0,1
140624,-200,4,2,1,40,0,0
140838,-133.333333333333,4,2,1,40,0,0
141052,-100,4,2,1,40,0,0

[HitObjects]
36,192,53,1,0,0:0:0:0:
256,192,53,1,0,0:0:0:0:
475,192,53,1,0,0:0:0:0:
475,192,160,1,0,0:0:0:0:
36,192,160,1,0,0:0:0:0:
256,192,160,1,0,0:0:0:0:
109,192,374,1,0,0:0:0:0:
402,192,374,1,0,0:0:0:0:
109,192,588,1,0,0:0:0:0:
402,192,588,1,0,0:0:0:0:
402,192,802,1,0,0:0:0:0:
109,192,802,1,0,0:0:0:0:
475,192,1017,1,0,0:0:0:0:
36,192,1124,1,0,0:0:0:0:
475,192,1231,1,0,0:0:0:0:
36,192,1338,1,0,0:0:0:0:
182,192,1338,128,0,1552:0:0:0:0:
329,192,1552,128,0,1767:0:0:0:0:
109,192,1767,1,0,0:0:0:0:
402,192,1767,1,0,0:0:0:0:
36,192,1981,1,0,0:0:0:0:
475,192,1981,1,0,0:0:0:0:
256,192,1981,1,0,0:0:0:0:
475,192,2088,1,0,0:0:0:0:
36,192,2088,1,0,0:0:0:0:
256,192,2088,1,0,0:0:0:0:
182,192,2302,1,0,0:0:0:0:
329,192,2302,1,0,0:0:0:0:
329,192,2517,1,0,0:0:0:0:
182,192,2517,1,0,0:0:0:0:
36,192,2731,1,0,0:0:0:0:
329,192,2731,1,0,0:0:0:0:
475,192,2838,1,0,0:0:0:0:
182,192,2838,1,0,0:0:0:0:
36,192,2945,1,0,0:0:0:0:
329,192,2945,1,0,0:0:0:0:
182,192,3052,1,0,0:0:0:0:
475,192,3052,1,0,0:0:0:0:
329,192,3160,1,0,0:0:0:0:
36,192,3160,1,0,0:0:0:0:
109,192,3213,1,0,0:0:0:0:
182,192,3267,1,0,0:0:0:0:
475,192,3320,1,0,0:0:0:0:
256,192,3320,1,0,0:0:0:0:
402,192,3374,1,0,0:0:0:0:
182,192,3374,1,0,0:0:0:0:
329,192,3427,1,0,0:0:0:0:
109,192,3427,1,0,0:0:0:0:
256,192,3481,1,0,0:0:0:0:
36,192,3481,1,0,0:0:0:0:
402,192,3588,1,0,0:0:0:0:
475,192,3695,128,0,3910:0:0:0:0:
109,192,3695,1,0,0:0:0:0:
329,192,3695,1,0,0:0:0:0:
182,192,3802,1,0,0:0:0:0:
402,192,3910,128,0,4124:0:0:0:0:
256,192,3910,1,0,0:0:0:0:
36,192,3910,1,0,0:0:0:0:
182,192,4017,1,0,0:0:0:0:
329,192,4124,128,0,4338:0:0:0:0:
256,192,4124,1,0,0:0:0:0:
109,192,4124,1,0,0:0:0:0:
182,192,4231,1,0,0:0:0:0:
36,192,4338,128,0,4552:0:0:0:0:
475,192,4338,1,0,0:0:0:0:
256,192,4338,1,0,0:0:0:0:
402,192,4445,1,0,0:0:0:0:
109,192,4552,128,0,4767:0:0:0:0:
329,192,4552,1,0,0:0:0:0:
475,192,4552,1,0,0:0:0:0:
256,192,4660,1,0,0:0:0:0:
182,192,4767,128,0,4981:0:0:0:0:
329,192,4767,1,0,0:0:0:0:
475,192,4767,1,0,0:0:0:0:
36,192,4874,1,0,0:0:0:0:
256,192,4981,128,0,5195:0:0:0:0:
402,192,4981,1,0,0:0:0:0:
109,192,4981,1,0,0:0:0:0:
109,192,5195,128,0,5410:0:0:0:0:
402,192,5195,128,0,5410:0:0:0:0:
182,192,5410,1,0,0:0:0:0:
475,192,5410,1,0,0:0:0:0:
36,192,5517,1,0,0:0:0:0:
329,192,5517,1,0,0:0:0:0:
182,192,5624,1,0,0:0:0:0:
475,192,5624,1,0,0:0:0:0:
36,192,5731,1,0,0:0:0:0:
329,192,5731,1,0,0:0:0:0:
182,192,5838,1,0,0:0:0:0:
475,192,5838,1,0,0:0:0:0:
329,192,5945,1,0,0:0:0:0:
36,192,5945,1,0,0:0:0:0:
109,192,6160,1,0,0:0:0:0:
402,192,6160,1,0,0:0:0:0:
109,192,6267,1,0,0:0:0:0:
402,192,6267,1,0,0:0:0:0:
36,192,6481,1,0,0:0:0:0:
329,192,6481,1,0,0:0:0:0:
36,192,6695,1,0,0:0:0:0:
182,192,6695,1,0,0:0:0:0:
109,192,6749,1,0,0:0:0:0:
256,192,6749,1,0,0:0:0:0:
182,192,6802,1,0,0:0:0:0:
329,192,6802,1,0,0:0:0:0:
256,192,6856,1,0,0:0:0:0:
402,192,6856,1,0,0:0:0:0:
329,192,6910,1,0,0:0:0:0:
475,192,6910,1,0,0:0:0:0:
109,192,7017,1,0,0:0:0:0:
36,192,7124,128,0,7338:0:0:0:0:
256,192,7124,1,0,0:0:0:0:
402,192,7124,1,0,0:0:0:0:
182,192,7231,1,0,0:0:0:0:
109,192,7338,128,0,7552:0:0:0:0:
329,192,7338,1,0,0:0:0:0:
475,192,7338,1,0,0:0:0:0:
402,192,7445,1,0,0:0:0:0:
182,192,7552,128,0,7767:0:0:0:0:
256,192,7552,1,0,0:0:0:0:
36,192,7552,1,0,0:0:0:0:
329,192,7660,1,0,0:0:0:0:
475,192,7767,128,0,7981:0:0:0:0:
109,192,7767,1,0,0:0:0:0:
402,192,7767,1,0,0:0:0:0:
36,192,7874,1,0,0:0:0:0:
402,192,7981,128,0,8195:0:0:0:0:
256,192,7981,1,0,0:0:0:0:
182,192,7981,1,0,0:0:0:0:
109,192,8088,1,0,0:0:0:0:
329,192,8195,128,0,8410:0:0:0:0:
36,192,8195,1,0,0:0:0:0:
256,192,8195,1,0,0:0:0:0:
475,192,8302,1,0,0:0:0:0:
256,192,8410,128,0,8624:0:0:0:0:
182,192,8410,1,0,0:0:0:0:
36,192,8410,1,0,0:0:0:0:
475,192,8517,1,0,0:0:0:0:
109,192,8624,128,0,8838:0:0:0:0:
402,192,8624,128,0,8838:0:0:0:0:
182,192,8838,1,0,0:0:0:0:
475,192,8838,1,0,0:0:0:0:
36,192,8945,1,0,0:0:0:0:
329,192,8945,1,0,0:0:0:0:
182,192,9052,1,0,0:0:0:0:
475,192,9052,1,0,0:0:0:0:
36,192,9160,1,0,0:0:0:0:
329,192,9160,1,0,0:0:0:0:
182,192,9267,1,0,0:0:0:0:
475,192,9267,1,0,0:0:0:0:
36,192,9481,1,0,0:0:0:0:
256,192,9481,1,0,0:0:0:0:
402,192,9481,1,0,0:0:0:0:
109,192,9535,1,0,0:0:0:0:
182,192,9588,1,0,0:0:0:0:
256,192,9642,1,0,0:0:0:0:
36,192,9695,1,0,0:0:0:0:
329,192,9695,1,0,0:0:0:0:
475,192,9695,1,0,0:0:0:0:
256,192,9749,1,0,0:0:0:0:
182,192,9802,1,0,0:0:0:0:
109,192,9856,1,0,0:0:0:0:
36,192,9910,1,0,0:0:0:0:
475,192,9910,1,0,0:0:0:0:
109,192,9963,1,0,0:0:0:0:
182,192,10017,1,0,0:0:0:0:
256,192,10070,1,0,0:0:0:0:
475,192,10124,1,0,0:0:0:0:
402,192,10177,1,0,0:0:0:0:
329,192,10231,1,0,0:0:0:0:
256,192,10285,1,0,0:0:0:0:
182,192,10338,1,0,0:0:0:0:
36,192,10338,1,0,0:0:0:0:
402,192,10445,1,0,0:0:0:0:
475,192,10552,128,0,10767:0:0:0:0:
109,192,10552,1,0,0:0:0:0:
256,192,10552,1,0,0:0:0:0:
402,192,10660,1,0,0:0:0:0:
329,192,10767,128,0,10981:0:0:0:0:
36,192,10767,1,0,0:0:0:0:
182,192,10767,1,0,0:0:0:0:
109,192,10874,1,0,0:0:0:0:
182,192,10981,128,0,11195:0:0:0:0:
402,192,10981,1,0,0:0:0:0:
256,192,10981,1,0,0:0:0:0:
475,192,11088,1,0,0:0:0:0:
36,192,11195,128,0,11410:0:0:0:0:
402,192,11195,1,0,0:0:0:0:
109,192,11195,1,0,0:0:0:0:
256,192,11302,1,0,0:0:0:0:
182,192,11410,128,0,11624:0:0:0:0:
329,192,11410,1,0,0:0:0:0:
475,192,11410,1,0,0:0:0:0:
402,192,11517,1,0,0:0:0:0:
475,192,11624,128,0,11838:0:0:0:0:
256,192,11624,1,0,0:0:0:0:
109,192,11624,1,0,0:0:0:0:
36,192,11731,1,0,0:0:0:0:
329,192,11838,128,0,12052:0:0:0:0:
109,192,11838,1,0,0:0:0:0:
402,192,11838,1,0,0:0:0:0:
182,192,11945,1,0,0:0:0:0:
109,192,12052,1,0,0:0:0:0:
256,192,12052,1,0,0:0:0:0:
402,192,12160,1,0,0:0:0:0:
36,192,12267,128,0,12481:0:0:0:0:
182,192,12267,1,0,0:0:0:0:
329,192,12267,1,0,0:0:0:0:
475,192,12374,1,0,0:0:0:0:
109,192,12481,128,0,12695:0:0:0:0:
329,192,12481,1,0,0:0:0:0:
402,192,12481,1,0,0:0:0:0:
256,192,12588,1,0,0:0:0:0:
475,192,12695,1,0,0:0:0:0:
182,192,12695,128,0,12910:0:0:0:0:
329,192,12695,1,0,0:0:0:0:
36,192,12802,1,0,0:0:0:0:
475,192,12910,128,0,13124:0:0:0:0:
109,192,12910,1,0,0:0:0:0:
256,192,12910,1,0,0:0:0:0:
329,192,13017,1,0,0:0:0:0:
402,192,13124,128,0,13338:0:0:0:0:
109,192,13124,1,0,0:0:0:0:
256,192,13124,1,0,0:0:0:0:
36,192,13231,1,0,0:0:0:0:
329,192,13338,128,0,13552:0:0:0:0:
109,192,13338,1,0,0:0:0:0:
182,192,13338,1,0,0:0:0:0:
475,192,13445,1,0,0:0:0:0:
256,192,13552,128,0,13767:0:0:0:0:
402,192,13552,1,0,0:0:0:0:
36,192,13552,1,0,0:0:0:0:
109,192,13660,1,0,0:0:0:0:
182,192,13767,1,0,0:0:0:0:
329,192,13767,1,0,0:0:0:0:
475,192,13981,1,0,0:0:0:0:
402,192,14008,1,0,0:0:0:0:
329,192,14035,1,0,0:0:0:0:
256,192,14061,1,0,0:0:0:0:
36,192,14088,1,0,0:0:0:0:
109,192,14115,1,0,0:0:0:0:
182,192,14142,1,0,0:0:0:0:
256,192,14169,1,0,0:0:0:0:
475,192,14195,1,0,0:0:0:0:
402,192,14222,1,0,0:0:0:0:
329,192,14249,1,0,0:0:0:0:
256,192,14276,1,0,0:0:0:0:
36,192,14302,1,0,0:0:0:0:
109,192,14356,1,0,0:0:0:0:
182,192,14410,1,0,0:0:0:0:
256,192,14463,1,0,0:0:0:0:
109,192,14517,1,0,0:0:0:0:
182,192,14570,1,0,0:0:0:0:
256,192,14624,1,0,0:0:0:0:
329,192,14677,1,0,0:0:0:0:
182,192,14731,1,0,0:0:0:0:
256,192,14785,1,0,0:0:0:0:
329,192,14838,1,0,0:0:0:0:
402,192,14892,1,0,0:0:0:0:
475,192,14945,1,0,0:0:0:0:
402,192,14999,1,0,0:0:0:0:
329,192,15052,1,0,0:0:0:0:
256,192,15106,1,0,0:0:0:0:
182,192,15160,1,0,0:0:0:0:
329,192,15160,1,0,0:0:0:0:
109,192,15213,1,0,0:0:0:0:
402,192,15213,1,0,0:0:0:0:
36,192,15267,1,0,0:0:0:0:
475,192,15267,1,0,0:0:0:0:
109,192,15481,128,0,15802:0:0:0:0:
256,192,15481,1,0,0:0:0:0:
402,192,15481,1,0,0:0:0:0:
402,192,15802,128,0,16124:0:0:0:0:
182,192,15802,1,0,0:0:0:0:
329,192,15802,1,0,0:0:0:0:
36,192,16124,128,0,16445:0:0:0:0:
109,192,16124,1,0,0:0:0:0:
256,192,16124,1,0,0:0:0:0:
475,192,16445,128,0,16767:0:0:0:0:
329,192,16445,1,0,0:0:0:0:
182,192,16445,1,0,0:0:0:0:
36,192,16767,1,0,0:0:0:0:
256,192,16767,1,0,0:0:0:0:
36,192,17195,1,0,0:0:0:0:
475,192,17195,1,0,0:0:0:0:
256,192,17195,128,0,18052:0:0:0:0:
109,192,17249,1,0,0:0:0:0:
402,192,17249,1,0,0:0:0:0:
182,192,17302,1,0,0:0:0:0:
329,192,17302,1,0,0:0:0:0:
36,192,17356,1,0,0:0:0:0:
475,192,17356,1,0,0:0:0:0:
109,192,17410,1,0,0:0:0:0:
402,192,17410,1,0,0:0:0:0:
329,192,17463,1,0,0:0:0:0:
182,192,17463,1,0,0:0:0:0:
36,192,17517,1,0,0:0:0:0:
475,192,17517,1,0,0:0:0:0:
109,192,17570,1,0,0:0:0:0:
402,192,17570,1,0,0:0:0:0:
182,192,17624,1,0,0:0:0:0:
329,192,17624,1,0,0:0:0:0:
36,192,17677,1,0,0:0:0:0:
475,192,17677,1,0,0:0:0:0:
402,192,17731,1,0,0:0:0:0:
109,192,17731,1,0,0:0:0:0:
329,192,17785,1,0,0:0:0:0:
182,192,17785,1,0,0:0:0:0:
475,192,17838,1,0,0:0:0:0:
36,192,17838,1,0,0:0:0:0:
402,192,17892,1,0,0:0:0:0:
109,192,17892,1,0,0:0:0:0:
329,192,17945,1,0,0:0:0:0:
182,192,17945,1,0,0:0:0:0:
402,192,17999,1,0,0:0:0:0:
109,192,17999,1,0,0:0:0:0:
475,192,18052,1,0,0:0:0:0:
36,192,18052,1,0,0:0:0:0:
109,192,18267,1,0,0:0:0:0:
256,192,18374,1,0,0:0:0:0:
402,192,18481,1,0,0:0:0:0:
182,192,18695,1,0,0:0:0:0:
36,192,18910,128,0,19124:0:0:0:0:
475,192,18910,1,0,0:0:0:0:
256,192,18910,1,0,0:0:0:0:
402,192,19124,1,0,0:0:0:0:
109,192,19338,128,0,19552:0:0:0:0:
256,192,19338,1,0,0:0:0:0:
36,192,19338,1,0,0:0:0:0:
329,192,19552,1,0,0:0:0:0:
475,192,19767,128,0,19981:0:0:0:0:
182,192,19767,1,0,0:0:0:0:
402,192,19767,1,0,0:0:0:0:
36,192,19981,1,0,0:0:0:0:
256,192,20088,1,0,0:0:0:0:
329,192,20195,128,0,20410:0:0:0:0:
475,192,20195,1,0,0:0:0:0:
109,192,20410,1,0,0:0:0:0:
475,192,20624,128,0,20838:0:0:0:0:
402,192,20624,1,0,0:0:0:0:
182,192,20624,1,0,0:0:0:0:
256,192,20838,1,0,0:0:0:0:
329,192,21052,128,0,21267:0:0:0:0:
36,192,21052,1,0,0:0:0:0:
182,192,21052,1,0,0:0:0:0:
475,192,21267,1,0,0:0:0:0:
256,192,21374,1,0,0:0:0:0:
182,192,21481,128,0,21695:0:0:0:0:
36,192,21481,1,0,0:0:0:0:
475,192,21695,1,0,0:0:0:0:
329,192,21802,1,0,0:0:0:0:
36,192,21910,128,0,22124:0:0:0:0:
182,192,21910,1,0,0:0:0:0:
109,192,22124,1,0,0:0:0:0:
256,192,22231,1,0,0:0:0:0:
402,192,22338,1,0,0:0:0:0:
475,192,22338,128,0,22552:0:0:0:0:
329,192,22552,1,0,0:0:0:0:
402,192,22767,128,0,22981:0:0:0:0:
182,192,22767,1,0,0:0:0:0:
36,192,22767,1,0,0:0:0:0:
329,192,22981,1,0,0:0:0:0:
182,192,23088,1,0,0:0:0:0:
329,192,23195,128,0,23410:0:0:0:0:
36,192,23195,1,0,0:0:0:0:
475,192,23410,1,0,0:0:0:0:
256,192,23624,128,0,23838:0:0:0:0:
182,192,23624,1,0,0:0:0:0:
402,192,23624,1,0,0:0:0:0:
36,192,23838,1,0,0:0:0:0:
182,192,23945,1,0,0:0:0:0:
329,192,24052,1,0,0:0:0:0:
36,192,24052,128,0,24267:0:0:0:0:
475,192,24267,1,0,0:0:0:0:
109,192,24481,128,0,24695:0:0:0:0:
256,192,24481,1,0,0:0:0:0:
402,192,24588,1,0,0:0:0:0:
256,192,24695,1,0,0:0:0:0:
36,192,24802,1,0,0:0:0:0:
182,192,24910,128,0,25124:0:0:0:0:
329,192,24910,1,0,0:0:0:0:
109,192,25124,1,0,0:0:0:0:
256,192,25338,128,0,25552:0:0:0:0:
402,192,25338,1,0,0:0:0:0:
182,192,25552,1,0,0:0:0:0:
475,192,25767,128,0,25981:0:0:0:0:
36,192,25767,1,0,0:0:0:0:
329,192,25767,1,0,0:0:0:0:
256,192,25981,1,0,0:0:0:0:
329,192,26195,128,0,26410:0:0:0:0:
109,192,26195,1,0,0:0:0:0:
402,192,26195,1,0,0:0:0:0:
256,192,26410,1,0,0:0:0:0:
36,192,26624,128,0,26838:0:0:0:0:
475,192,26624,1,0,0:0:0:0:
182,192,26624,1,0,0:0:0:0:
475,192,26838,1,0,0:0:0:0:
402,192,26892,1,0,0:0:0:0:
329,192,26945,1,0,0:0:0:0:
256,192,26999,1,0,0:0:0:0:
182,192,27052,128,0,27267:0:0:0:0:
36,192,27267,1,0,0:0:0:0:
402,192,27481,128,0,27695:0:0:0:0:
256,192,27481,1,0,0:0:0:0:
475,192,27481,1,0,0:0:0:0:
182,192,27588,1,0,0:0:0:0:
329,192,27695,1,0,0:0:0:0:
109,192,27910,128,0,28124:0:0:0:0:
36,192,27910,1,0,0:0:0:0:
256,192,27910,1,0,0:0:0:0:
182,192,28124,1,0,0:0:0:0:
256,192,28338,128,0,28552:0:0:0:0:
36,192,28338,1,0,0:0:0:0:
475,192,28338,1,0,0:0:0:0:
109,192,28392,1,0,0:0:0:0:
402,192,28392,1,0,0:0:0:0:
182,192,28445,1,0,0:0:0:0:
329,192,28445,1,0,0:0:0:0:
36,192,28552,1,0,0:0:0:0:
475,192,28552,1,0,0:0:0:0:
256,192,28767,128,0,28981:0:0:0:0:
36,192,28767,1,0,0:0:0:0:
109,192,28820,1,0,0:0:0:0:
182,192,28874,1,0,0:0:0:0:
329,192,28927,1,0,0:0:0:0:
402,192,28981,1,0,0:0:0:0:
475,192,28981,1,0,0:0:0:0:
36,192,29195,1,0,0:0:0:0:
182,192,29195,1,0,0:0:0:0:
475,192,29410,1,0,0:0:0:0:
329,192,29410,1,0,0:0:0:0:
36,192,29624,1,0,0:0:0:0:
475,192,29624,1,0,0:0:0:0:
182,192,29731,1,0,0:0:0:0:
329,192,29731,1,0,0:0:0:0:
36,192,29838,1,0,0:0:0:0:
475,192,29838,1,0,0:0:0:0:
182,192,29945,1,0,0:0:0:0:
329,192,29945,1,0,0:0:0:0:
109,192,30052,1,0,0:0:0:0:
402,192,30052,1,0,0:0:0:0:
256,192,30160,1,0,0:0:0:0:
109,192,30267,1,0,0:0:0:0:
402,192,30267,1,0,0:0:0:0:
256,192,30374,1,0,0:0:0:0:
36,192,30374,128,0,30695:0:0:0:0:
475,192,30374,128,0,30695:0:0:0:0:
109,192,30588,1,0,0:0:0:0:
402,192,30588,1,0,0:0:0:0:
256,192,30695,1,0,0:0:0:0:
182,192,30910,128,0,31231:0:0:0:0:
109,192,30910,1,0,0:0:0:0:
402,192,30910,1,0,0:0:0:0:
329,192,31231,128,0,31552:0:0:0:0:
36,192,31231,1,0,0:0:0:0:
475,192,31231,1,0,0:0:0:0:
109,192,31552,128,0,31874:0:0:0:0:
182,192,31552,1,0,0:0:0:0:
402,192,31552,1,0,0:0:0:0:
402,192,31874,128,0,32195:0:0:0:0:
36,192,31874,1,0,0:0:0:0:
475,192,31874,1,0,0:0:0:0:
256,192,32195,128,0,32838:0:0:0:0:
109,192,32195,1,0,0:0:0:0:
36,192,32838,128,0,33052:0:0:0:0:
182,192,32838,1,0,0:0:0:0:
402,192,33052,128,0,33267:0:0:0:0:
256,192,33052,1,0,0:0:0:0:
182,192,33267,128,0,33481:0:0:0:0:
329,192,33267,1,0,0:0:0:0:
475,192,33481,128,0,33802:0:0:0:0:
109,192,33481,1,0,0:0:0:0:
402,192,33481,1,0,0:0:0:0:
36,192,33802,128,0,34124:0:0:0:0:
182,192,33802,1,0,0:0:0:0:
329,192,33802,1,0,0:0:0:0:
402,192,34124,128,0,34445:0:0:0:0:
109,192,34124,1,0,0:0:0:0:
256,192,34124,1,0,0:0:0:0:
109,192,34445,128,0,34767:0:0:0:0:
182,192,34445,1,0,0:0:0:0:
329,192,34445,1,0,0:0:0:0:
256,192,34767,128,0,36910:0:0:0:0:
36,192,34767,1,0,0:0:0:0:
475,192,34767,1,0,0:0:0:0:
36,192,35195,1,0,0:0:0:0:
109,192,35249,1,0,0:0:0:0:
182,192,35302,1,0,0:0:0:0:
329,192,35356,1,0,0:0:0:0:
402,192,35410,1,0,0:0:0:0:
182,192,35463,1,0,0:0:0:0:
329,192,35517,1,0,0:0:0:0:
402,192,35570,1,0,0:0:0:0:
475,192,35624,1,0,0:0:0:0:
402,192,35677,1,0,0:0:0:0:
329,192,35731,1,0,0:0:0:0:
182,192,35785,1,0,0:0:0:0:
402,192,35838,1,0,0:0:0:0:
329,192,35892,1,0,0:0:0:0:
182,192,35945,1,0,0:0:0:0:
109,192,35999,1,0,0:0:0:0:
36,192,36052,1,0,0:0:0:0:
475,192,36106,1,0,0:0:0:0:
402,192,36160,1,0,0:0:0:0:
329,192,36213,1,0,0:0:0:0:
182,192,36267,1,0,0:0:0:0:
109,192,36320,1,0,0:0:0:0:
402,192,36374,1,0,0:0:0:0:
329,192,36427,1,0,0:0:0:0:
182,192,36481,1,0,0:0:0:0:
109,192,36535,1,0,0:0:0:0:
36,192,36588,1,0,0:0:0:0:
109,192,36642,1,0,0:0:0:0:
182,192,36695,1,0,0:0:0:0:
329,192,36749,1,0,0:0:0:0:
402,192,36802,1,0,0:0:0:0:
475,192,36856,1,0,0:0:0:0:
329,192,36910,1,0,0:0:0:0:
182,192,36910,1,0,0:0:0:0:
402,192,37017,1,0,0:0:0:0:
109,192,37124,1,0,0:0:0:0:
256,192,37124,1,0,0:0:0:0:
36,192,37231,1,0,0:0:0:0:
475,192,37338,1,0,0:0:0:0:
329,192,37338,1,0,0:0:0:0:
402,192,37445,1,0,0:0:0:0:
256,192,37445,1,0,0:0:0:0:
329,192,37552,1,0,0:0:0:0:
182,192,37552,1,0,0:0:0:0:
256,192,37660,1,0,0:0:0:0:
109,192,37660,1,0,0:0:0:0:
182,192,37767,1,0,0:0:0:0:
36,192,37767,1,0,0:0:0:0:
109,192,37981,1,0,0:0:0:0:
402,192,37981,1,0,0:0:0:0:
109,192,38088,1,0,0:0:0:0:
402,192,38088,1,0,0:0:0:0:
256,192,38088,1,0,0:0:0:0:
182,192,38302,1,0,0:0:0:0:
475,192,38302,1,0,0:0:0:0:
182,192,38410,1,0,0:0:0:0:
475,192,38410,1,0,0:0:0:0:
329,192,38410,1,0,0:0:0:0:
36,192,38624,1,0,0:0:0:0:
109,192,38677,1,0,0:0:0:0:
182,192,38731,1,0,0:0:0:0:
256,192,38785,1,0,0:0:0:0:
475,192,38838,1,0,0:0:0:0:
402,192,38892,1,0,0:0:0:0:
329,192,38945,1,0,0:0:0:0:
256,192,38999,1,0,0:0:0:0:
182,192,39052,1,0,0:0:0:0:
36,192,39052,1,0,0:0:0:0:
475,192,39267,1,0,0:0:0:0:
329,192,39267,1,0,0:0:0:0:
402,192,39267,1,0,0:0:0:0:
36,192,39374,1,0,0:0:0:0:
109,192,39374,1,0,0:0:0:0:
182,192,39374,1,0,0:0:0:0:
402,192,39481,1,0,0:0:0:0:
329,192,39481,1,0,0:0:0:0:
256,192,39481,1,0,0:0:0:0:
36,192,39695,1,0,0:0:0:0:
109,192,39749,1,0,0:0:0:0:
182,192,39802,1,0,0:0:0:0:
256,192,39856,1,0,0:0:0:0:
329,192,39910,1,0,0:0:0:0:
475,192,39910,1,0,0:0:0:0:
402,192,39910,1,0,0:0:0:0:
36,192,40124,1,0,0:0:0:0:
182,192,40124,1,0,0:0:0:0:
109,192,40124,1,0,0:0:0:0:
475,192,40338,1,0,0:0:0:0:
256,192,40338,1,0,0:0:0:0:
182,192,40338,1,0,0:0:0:0:
109,192,40445,1,0,0:0:0:0:
36,192,40552,1,0,0:0:0:0:
329,192,40552,1,0,0:0:0:0:
402,192,40552,1,0,0:0:0:0:
256,192,40660,1,0,0:0:0:0:
182,192,40767,1,0,0:0:0:0:
36,192,40767,1,0,0:0:0:0:
475,192,40767,1,0,0:0:0:0:
329,192,40874,1,0,0:0:0:0:
109,192,40981,1,0,0:0:0:0:
256,192,40981,1,0,0:0:0:0:
402,192,40981,1,0,0:0:0:0:
36,192,41088,1,0,0:0:0:0:
475,192,41195,1,0,0:0:0:0:
329,192,41195,1,0,0:0:0:0:
182,192,41195,1,0,0:0:0:0:
402,192,41302,1,0,0:0:0:0:
36,192,41410,1,0,0:0:0:0:
109,192,41410,1,0,0:0:0:0:
256,192,41410,1,0,0:0:0:0:
329,192,41517,1,0,0:0:0:0:
475,192,41624,1,0,0:0:0:0:
402,192,41624,1,0,0:0:0:0:
182,192,41624,1,0,0:0:0:0:
109,192,41731,1,0,0:0:0:0:
36,192,41838,1,0,0:0:0:0:
256,192,41838,1,0,0:0:0:0:
475,192,41838,1,0,0:0:0:0:
36,192,42052,1,0,0:0:0:0:
109,192,42106,1,0,0:0:0:0:
182,192,42160,1,0,0:0:0:0:
256,192,42213,1,0,0:0:0:0:
475,192,42267,1,0,0:0:0:0:
329,192,42267,1,0,0:0:0:0:
36,192,42267,1,0,0:0:0:0:
256,192,42320,1,0,0:0:0:0:
182,192,42374,1,0,0:0:0:0:
109,192,42427,1,0,0:0:0:0:
36,192,42481,1,0,0:0:0:0:
402,192,42481,1,0,0:0:0:0:
475,192,42481,1,0,0:0:0:0:
256,192,42588,1,0,0:0:0:0:
109,192,42695,1,0,0:0:0:0:
402,192,42695,1,0,0:0:0:0:
402,192,42802,1,0,0:0:0:0:
256,192,42802,1,0,0:0:0:0:
109,192,42802,1,0,0:0:0:0:
36,192,43017,1,0,0:0:0:0:
475,192,43017,1,0,0:0:0:0:
256,192,43017,1,0,0:0:0:0:
109,192,43124,1,0,0:0:0:0:
402,192,43124,1,0,0:0:0:0:
256,192,43124,1,0,0:0:0:0:
36,192,43338,1,0,0:0:0:0:
182,192,43338,1,0,0:0:0:0:
329,192,43338,1,0,0:0:0:0:
109,192,43552,1,0,0:0:0:0:
256,192,43552,1,0,0:0:0:0:
402,192,43552,1,0,0:0:0:0:
36,192,43767,1,0,0:0:0:0:
475,192,43767,1,0,0:0:0:0:
109,192,43794,1,0,0:0:0:0:
182,192,43820,1,0,0:0:0:0:
256,192,43847,1,0,0:0:0:0:
329,192,43874,1,0,0:0:0:0:
182,192,43901,1,0,0:0:0:0:
256,192,43927,1,0,0:0:0:0:
329,192,43954,1,0,0:0:0:0:
36,192,43981,1,0,0:0:0:0:
475,192,43981,1,0,0:0:0:0:
402,192,43981,1,0,0:0:0:0:
182,192,44088,1,0,0:0:0:0:
109,192,44195,1,0,0:0:0:0:
256,192,44195,1,0,0:0:0:0:
402,192,44195,1,0,0:0:0:0:
475,192,44302,1,0,0:0:0:0:
36,192,44410,1,0,0:0:0:0:
329,192,44410,1,0,0:0:0:0:
182,192,44517,1,0,0:0:0:0:
475,192,44517,1,0,0:0:0:0:
109,192,44731,1,0,0:0:0:0:
256,192,44731,1,0,0:0:0:0:
182,192,44838,1,0,0:0:0:0:
329,192,44838,1,0,0:0:0:0:
475,192,44838,1,0,0:0:0:0:
402,192,44945,1,0,0:0:0:0:
36,192,45052,1,0,0:0:0:0:
256,192,45052,1,0,0:0:0:0:
109,192,45052,1,0,0:0:0:0:
329,192,45160,1,0,0:0:0:0:
182,192,45267,1,0,0:0:0:0:
402,192,45267,1,0,0:0:0:0:
475,192,45267,1,0,0:0:0:0:
36,192,45481,1,0,0:0:0:0:
475,192,45481,1,0,0:0:0:0:
109,192,45535,1,0,0:0:0:0:
182,192,45588,1,0,0:0:0:0:
256,192,45642,1,0,0:0:0:0:
475,192,45695,1,0,0:0:0:0:
402,192,45749,1,0,0:0:0:0:
329,192,45802,1,0,0:0:0:0:
256,192,45856,1,0,0:0:0:0:
36,192,45910,1,0,0:0:0:0:
109,192,45963,1,0,0:0:0:0:
182,192,46017,1,0,0:0:0:0:
256,192,46070,1,0,0:0:0:0:
329,192,46124,1,0,0:0:0:0:
475,192,46124,1,0,0:0:0:0:
402,192,46124,1,0,0:0:0:0:
182,192,46338,1,0,0:0:0:0:
329,192,46338,1,0,0:0:0:0:
109,192,46392,1,0,0:0:0:0:
402,192,46392,1,0,0:0:0:0:
36,192,46445,1,0,0:0:0:0:
475,192,46445,1,0,0:0:0:0:
109,192,46499,1,0,0:0:0:0:
402,192,46499,1,0,0:0:0:0:
182,192,46552,1,0,0:0:0:0:
329,192,46552,1,0,0:0:0:0:
109,192,46606,1,0,0:0:0:0:
402,192,46606,1,0,0:0:0:0:
36,192,46660,1,0,0:0:0:0:
475,192,46660,1,0,0:0:0:0:
109,192,46713,1,0,0:0:0:0:
402,192,46713,1,0,0:0:0:0:
182,192,46767,1,0,0:0:0:0:
329,192,46767,1,0,0:0:0:0:
256,192,46767,1,0,0:0:0:0:
109,192,46981,1,0,0:0:0:0:
256,192,46981,1,0,0:0:0:0:
402,192,46981,1,0,0:0:0:0:
475,192,47195,1,0,0:0:0:0:
256,192,47195,1,0,0:0:0:0:
36,192,47195,1,0,0:0:0:0:
109,192,47410,1,0,0:0:0:0:
329,192,47410,1,0,0:0:0:0:
402,192,47410,1,0,0:0:0:0:
256,192,47517,1,0,0:0:0:0:
36,192,47624,1,0,0:0:0:0:
182,192,47624,1,0,0:0:0:0:
475,192,47624,1,0,0:0:0:0:
402,192,47731,1,0,0:0:0:0:
109,192,47838,1,0,0:0:0:0:
256,192,47838,1,0,0:0:0:0:
182,192,47945,1,0,0:0:0:0:
329,192,47945,1,0,0:0:0:0:
36,192,48052,1,0,0:0:0:0:
256,192,48052,1,0,0:0:0:0:
475,192,48052,1,0,0:0:0:0:
109,192,48374,1,0,0:0:0:0:
256,192,48374,1,0,0:0:0:0:
109,192,48481,1,0,0:0:0:0:
256,192,48481,1,0,0:0:0:0:
182,192,48588,1,0,0:0:0:0:
402,192,48588,1,0,0:0:0:0:
182,192,48695,1,0,0:0:0:0:
402,192,48695,1,0,0:0:0:0:
36,192,48910,1,0,0:0:0:0:
475,192,48910,1,0,0:0:0:0:
256,192,48910,1,0,0:0:0:0:
36,192,49017,1,0,0:0:0:0:
256,192,49017,1,0,0:0:0:0:
475,192,49017,1,0,0:0:0:0:
109,192,49231,1,0,0:0:0:0:
256,192,49231,1,0,0:0:0:0:
402,192,49231,1,0,0:0:0:0:
36,192,49338,1,0,0:0:0:0:
182,192,49338,1,0,0:0:0:0:
329,192,49338,1,0,0:0:0:0:
109,192,49499,1,0,0:0:0:0:
256,192,49499,1,0,0:0:0:0:
402,192,49499,1,0,0:0:0:0:
36,192,49660,1,0,0:0:0:0:
256,192,49660,1,0,0:0:0:0:
475,192,49660,1,0,0:0:0:0:
182,192,49767,1,0,0:0:0:0:
329,192,49767,1,0,0:0:0:0:
109,192,49767,128,0,49981:0:0:0:0:
402,192,49767,128,0,49981:0:0:0:0:
256,192,49874,1,0,0:0:0:0:
182,192,49981,1,0,0:0:0:0:
402,192,50195,128,0,50410:0:0:0:0:
109,192,50195,128,0,50410:0:0:0:0:
329,192,50195,1,0,0:0:0:0:
36,192,50195,1,0,0:0:0:0:
256,192,50302,1,0,0:0:0:0:
329,192,50410,1,0,0:0:0:0:
36,192,50624,1,0,0:0:0:0:
475,192,50624,1,0,0:0:0:0:
182,192,50624,1,0,0:0:0:0:
329,192,50624,1,0,0:0:0:0:
402,192,50785,1,0,0:0:0:0:
475,192,50785,1,0,0:0:0:0:
329,192,50785,1,0,0:0:0:0:
36,192,50892,1,0,0:0:0:0:
109,192,50892,1,0,0:0:0:0:
182,192,50892,1,0,0:0:0:0:
109,192,51106,1,0,0:0:0:0:
36,192,51106,1,0,0:0:0:0:
182,192,51106,1,0,0:0:0:0:
475,192,51213,1,0,0:0:0:0:
402,192,51213,1,0,0:0:0:0:
329,192,51213,1,0,0:0:0:0:
36,192,51374,1,0,0:0:0:0:
109,192,51374,1,0,0:0:0:0:
256,192,51374,1,0,0:0:0:0:
475,192,51481,1,0,0:0:0:0:
402,192,51508,1,0,0:0:0:0:
329,192,51535,1,0,0:0:0:0:
256,192,51561,1,0,0:0:0:0:
182,192,51588,1,0,0:0:0:0:
36,192,51588,1,0,0:0:0:0:
109,192,51642,1,0,0:0:0:0:
182,192,51695,1,0,0:0:0:0:
256,192,51749,1,0,0:0:0:0:
329,192,51802,1,0,0:0:0:0:
402,192,51856,1,0,0:0:0:0:
475,192,51910,1,0,0:0:0:0:
402,192,51936,1,0,0:0:0:0:
329,192,51963,1,0,0:0:0:0:
256,192,51990,1,0,0:0:0:0:
36,192,52017,1,0,0:0:0:0:
109,192,52044,1,0,0:0:0:0:
182,192,52070,1,0,0:0:0:0:
256,192,52097,1,0,0:0:0:0:
329,192,52124,1,0,0:0:0:0:
475,192,52124,1,0,0:0:0:0:
402,192,52177,1,0,0:0:0:0:
329,192,52231,1,0,0:0:0:0:
256,192,52285,1,0,0:0:0:0:
182,192,52338,1,0,0:0:0:0:
36,192,52338,1,0,0:0:0:0:
329,192,52445,1,0,0:0:0:0:
475,192,52445,1,0,0:0:0:0:
109,192,52552,1,0,0:0:0:0:
256,192,52552,1,0,0:0:0:0:
329,192,52660,1,0,0:0:0:0:
402,192,52660,1,0,0:0:0:0:
182,192,52767,1,0,0:0:0:0:
109,192,52767,1,0,0:0:0:0:
475,192,52874,1,0,0:0:0:0:
256,192,52874,1,0,0:0:0:0:
36,192,52981,1,0,0:0:0:0:
182,192,52981,1,0,0:0:0:0:
329,192,53088,1,0,0:0:0:0:
402,192,53088,1,0,0:0:0:0:
109,192,53302,1,0,0:0:0:0:
182,192,53302,1,0,0:0:0:0:
36,192,53410,1,0,0:0:0:0:
256,192,53410,1,0,0:0:0:0:
475,192,53410,1,0,0:0:0:0:
402,192,53624,1,0,0:0:0:0:
256,192,53624,1,0,0:0:0:0:
109,192,53624,1,0,0:0:0:0:
182,192,53838,1,0,0:0:0:0:
256,192,53838,1,0,0:0:0:0:
329,192,53838,1,0,0:0:0:0:
36,192,54052,1,0,0:0:0:0:
475,192,54052,128,0,54267:0:0:0:0:
256,192,54052,1,0,0:0:0:0:
109,192,54267,1,0,0:0:0:0:
182,192,54481,1,0,0:0:0:0:
402,192,54481,128,0,54695:0:0:0:0:
256,192,54695,1,0,0:0:0:0:
36,192,54910,128,0,55124:0:0:0:0:
475,192,54910,128,0,55124:0:0:0:0:
109,192,54910,1,0,0:0:0:0:
329,192,55124,1,0,0:0:0:0:
256,192,55231,1,0,0:0:0:0:
402,192,55338,128,0,55552:0:0:0:0:
109,192,55338,128,0,55552:0:0:0:0:
182,192,55338,1,0,0:0:0:0:
475,192,55552,1,0,0:0:0:0:
36,192,55767,128,0,55981:0:0:0:0:
182,192,55767,1,0,0:0:0:0:
329,192,55767,1,0,0:0:0:0:
475,192,55981,1,0,0:0:0:0:
256,192,56195,1,0,0:0:0:0:
402,192,56195,1,0,0:0:0:0:
109,192,56195,128,0,56410:0:0:0:0:
36,192,56410,1,0,0:0:0:0:
182,192,56517,1,0,0:0:0:0:
475,192,56624,128,0,56838:0:0:0:0:
329,192,56624,1,0,0:0:0:0:
329,192,56838,1,0,0:0:0:0:
182,192,56945,1,0,0:0:0:0:
402,192,57052,128,0,57267:0:0:0:0:
36,192,57052,1,0,0:0:0:0:
182,192,57267,1,0,0:0:0:0:
329,192,57374,1,0,0:0:0:0:
182,192,57481,128,0,57695:0:0:0:0:
475,192,57481,1,0,0:0:0:0:
109,192,57481,1,0,0:0:0:0:
256,192,57695,1,0,0:0:0:0:
329,192,57910,128,0,58124:0:0:0:0:
36,192,57910,1,0,0:0:0:0:
402,192,57910,1,0,0:0:0:0:
256,192,58124,1,0,0:0:0:0:
109,192,58338,128,0,58552:0:0:0:0:
182,192,58338,1,0,0:0:0:0:
329,192,58338,1,0,0:0:0:0:
475,192,58552,1,0,0:0:0:0:
402,192,58767,128,0,58981:0:0:0:0:
256,192,58767,1,0,0:0:0:0:
36,192,58981,1,0,0:0:0:0:
182,192,59088,1,0,0:0:0:0:
329,192,59195,1,0,0:0:0:0:
475,192,59195,1,0,0:0:0:0:
109,192,59195,1,0,0:0:0:0:
36,192,59410,1,0,0:0:0:0:
182,192,59410,1,0,0:0:0:0:
402,192,59410,1,0,0:0:0:0:
36,192,59624,1,0,0:0:0:0:
109,192,59624,1,0,0:0:0:0:
402,192,59731,1,0,0:0:0:0:
475,192,59731,1,0,0:0:0:0:
109,192,59838,1,0,0:0:0:0:
182,192,59838,1,0,0:0:0:0:
329,192,59945,1,0,0:0:0:0:
402,192,59945,1,0,0:0:0:0:
182,192,60052,1,0,0:0:0:0:
256,192,60052,1,0,0:0:0:0:
329,192,60052,1,0,0:0:0:0:
36,192,60267,1,0,0:0:0:0:
109,192,60267,1,0,0:0:0:0:
182,192,60267,1,0,0:0:0:0:
329,192,60481,1,0,0:0:0:0:
402,192,60481,1,0,0:0:0:0:
475,192,60481,1,0,0:0:0:0:
36,192,60910,1,0,0:0:0:0:
475,192,60910,128,0,61124:0:0:0:0:
182,192,61124,1,0,0:0:0:0:
329,192,61338,1,0,0:0:0:0:
36,192,61338,128,0,61552:0:0:0:0:
475,192,61552,1,0,0:0:0:0:
182,192,61767,1,0,0:0:0:0:
475,192,61981,1,0,0:0:0:0:
402,192,62035,1,0,0:0:0:0:
329,192,62088,1,0,0:0:0:0:
256,192,62142,1,0,0:0:0:0:
182,192,62195,1,0,0:0:0:0:
36,192,62195,1,0,0:0:0:0:
402,192,62410,1,0,0:0:0:0:
36,192,62624,128,0,62838:0:0:0:0:
109,192,62624,1,0,0:0:0:0:
256,192,62624,1,0,0:0:0:0:
475,192,62838,128,0,63052:0:0:0:0:
182,192,62838,1,0,0:0:0:0:
329,192,62838,1,0,0:0:0:0:
109,192,63052,128,0,63267:0:0:0:0:
402,192,63052,1,0,0:0:0:0:
256,192,63052,1,0,0:0:0:0:
402,192,63267,128,0,63481:0:0:0:0:
182,192,63267,1,0,0:0:0:0:
329,192,63267,1,0,0:0:0:0:
36,192,63481,128,0,63695:0:0:0:0:
109,192,63481,1,0,0:0:0:0:
182,192,63535,1,0,0:0:0:0:
329,192,63535,1,0,0:0:0:0:
256,192,63588,1,0,0:0:0:0:
329,192,63642,1,0,0:0:0:0:
182,192,63642,1,0,0:0:0:0:
402,192,63695,1,0,0:0:0:0:
109,192,63695,1,0,0:0:0:0:
475,192,63910,128,0,64124:0:0:0:0:
36,192,63910,1,0,0:0:0:0:
402,192,63910,1,0,0:0:0:0:
109,192,63963,1,0,0:0:0:0:
182,192,64017,1,0,0:0:0:0:
256,192,64070,1,0,0:0:0:0:
329,192,64124,1,0,0:0:0:0:
256,192,64177,1,0,0:0:0:0:
329,192,64231,1,0,0:0:0:0:
402,192,64285,1,0,0:0:0:0:
475,192,64338,1,0,0:0:0:0:
36,192,64338,1,0,0:0:0:0:
182,192,64338,1,0,0:0:0:0:
329,192,64499,1,0,0:0:0:0:
109,192,64552,1,0,0:0:0:0:
256,192,64552,1,0,0:0:0:0:
402,192,64552,1,0,0:0:0:0:
256,192,64713,1,0,0:0:0:0:
475,192,64767,1,0,0:0:0:0:
329,192,64767,1,0,0:0:0:0:
36,192,64767,1,0,0:0:0:0:
256,192,64927,1,0,0:0:0:0:
109,192,64981,1,0,0:0:0:0:
182,192,64981,1,0,0:0:0:0:
402,192,64981,1,0,0:0:0:0:
256,192,65142,1,0,0:0:0:0:
475,192,65195,1,0,0:0:0:0:
329,192,65195,1,0,0:0:0:0:
36,192,65195,1,0,0:0:0:0:
182,192,65356,1,0,0:0:0:0:
109,192,65410,1,0,0:0:0:0:
402,192,65410,1,0,0:0:0:0:
256,192,65410,1,0,0:0:0:0:
402,192,65570,1,0,0:0:0:0:
36,192,65624,1,0,0:0:0:0:
182,192,65624,1,0,0:0:0:0:
475,192,65624,1,0,0:0:0:0:
256,192,65785,1,0,0:0:0:0:
402,192,65838,1,0,0:0:0:0:
109,192,65838,1,0,0:0:0:0:
329,192,65838,1,0,0:0:0:0:
109,192,66052,1,0,0:0:0:0:
182,192,66052,1,0,0:0:0:0:
36,192,66052,1,0,0:0:0:0:
256,192,66267,1,0,0:0:0:0:
329,192,66267,1,0,0:0:0:0:
402,192,66267,1,0,0:0:0:0:
109,192,66481,1,0,0:0:0:0:
182,192,66481,1,0,0:0:0:0:
256,192,66481,1,0,0:0:0:0:
329,192,66695,1,0,0:0:0:0:
402,192,66695,1,0,0:0:0:0:
475,192,66695,1,0,0:0:0:0:
36,192,66910,1,0,0:0:0:0:
182,192,66910,1,0,0:0:0:0:
329,192,66910,1,0,0:0:0:0:
475,192,66910,1,0,0:0:0:0:
256,192,66910,128,0,67767:0:0:0:0:
36,192,67338,1,0,0:0:0:0:
329,192,67338,1,0,0:0:0:0:
109,192,67392,1,0,0:0:0:0:
402,192,67392,1,0,0:0:0:0:
182,192,67445,1,0,0:0:0:0:
475,192,67445,1,0,0:0:0:0:
36,192,67499,1,0,0:0:0:0:
402,192,67499,1,0,0:0:0:0:
109,192,67552,1,0,0:0:0:0:
329,192,67552,1,0,0:0:0:0:
182,192,67606,1,0,0:0:0:0:
402,192,67606,1,0,0:0:0:0:
36,192,67660,1,0,0:0:0:0:
475,192,67660,1,0,0:0:0:0:
109,192,67713,1,0,0:0:0:0:
402,192,67713,1,0,0:0:0:0:
182,192,67767,1,0,0:0:0:0:
329,192,67767,1,0,0:0:0:0:
36,192,68195,1,0,0:0:0:0:
256,192,68195,1,0,0:0:0:0:
475,192,68195,1,0,0:0:0:0:
36,192,68302,1,0,0:0:0:0:
256,192,68302,1,0,0:0:0:0:
475,192,68302,1,0,0:0:0:0:
36,192,68410,1,0,0:0:0:0:
256,192,68410,1,0,0:0:0:0:
475,192,68410,1,0,0:0:0:0:
109,192,68624,1,0,0:0:0:0:
256,192,68624,1,0,0:0:0:0:
402,192,68624,1,0,0:0:0:0:
36,192,68838,1,0,0:0:0:0:
329,192,68838,1,0,0:0:0:0:
36,192,68945,1,0,0:0:0:0:
329,192,68945,1,0,0:0:0:0:
182,192,68945,1,0,0:0:0:0:
256,192,69160,1,0,0:0:0:0:
475,192,69160,1,0,0:0:0:0:
36,192,69267,1,0,0:0:0:0:
109,192,69294,1,0,0:0:0:0:
182,192,69320,1,0,0:0:0:0:
256,192,69347,1,0,0:0:0:0:
475,192,69374,1,0,0:0:0:0:
402,192,69401,1,0,0:0:0:0:
329,192,69427,1,0,0:0:0:0:
256,192,69454,1,0,0:0:0:0:
182,192,69481,1,0,0:0:0:0:
475,192,69508,1,0,0:0:0:0:
402,192,69535,1,0,0:0:0:0:
329,192,69561,1,0,0:0:0:0:
256,192,69588,1,0,0:0:0:0:
36,192,69615,1,0,0:0:0:0:
109,192,69642,1,0,0:0:0:0:
182,192,69669,1,0,0:0:0:0:
256,192,69695,1,0,0:0:0:0:
402,192,69695,1,0,0:0:0:0:
109,192,69802,1,0,0:0:0:0:
256,192,69802,1,0,0:0:0:0:
402,192,69802,1,0,0:0:0:0:
182,192,70017,1,0,0:0:0:0:
329,192,70017,1,0,0:0:0:0:
36,192,70124,1,0,0:0:0:0:
109,192,70177,1,0,0:0:0:0:
182,192,70231,1,0,0:0:0:0:
256,192,70285,1,0,0:0:0:0:
329,192,70338,1,0,0:0:0:0:
475,192,70338,1,0,0:0:0:0:
329,192,70552,1,0,0:0:0:0:
475,192,70552,1,0,0:0:0:0:
36,192,70767,1,0,0:0:0:0:
256,192,70767,1,0,0:0:0:0:
36,192,70874,1,0,0:0:0:0:
256,192,70874,1,0,0:0:0:0:
475,192,70874,1,0,0:0:0:0:
256,192,71088,1,0,0:0:0:0:
475,192,71088,1,0,0:0:0:0:
475,192,71195,1,0,0:0:0:0:
256,192,71195,1,0,0:0:0:0:
109,192,71195,128,0,71624:0:0:0:0:
402,192,71249,1,0,0:0:0:0:
329,192,71302,1,0,0:0:0:0:
256,192,71356,1,0,0:0:0:0:
182,192,71410,1,0,0:0:0:0:
402,192,71624,128,0,72052:0:0:0:0:
36,192,71624,1,0,0:0:0:0:
329,192,71624,1,0,0:0:0:0:
256,192,71677,1,0,0:0:0:0:
182,192,71731,1,0,0:0:0:0:
109,192,71785,1,0,0:0:0:0:
36,192,71838,1,0,0:0:0:0:
36,192,72052,1,0,0:0:0:0:
329,192,72052,1,0,0:0:0:0:
109,192,72267,1,0,0:0:0:0:
475,192,72267,1,0,0:0:0:0:
109,192,72374,1,0,0:0:0:0:
475,192,72374,1,0,0:0:0:0:
329,192,72374,1,0,0:0:0:0:
36,192,72588,1,0,0:0:0:0:
402,192,72588,1,0,0:0:0:0:
36,192,72695,1,0,0:0:0:0:
402,192,72695,1,0,0:0:0:0:
109,192,72722,1,0,0:0:0:0:
182,192,72749,1,0,0:0:0:0:
256,192,72776,1,0,0:0:0:0:
329,192,72802,1,0,0:0:0:0:
475,192,72829,1,0,0:0:0:0:
402,192,72856,1,0,0:0:0:0:
329,192,72883,1,0,0:0:0:0:
256,192,72910,1,0,0:0:0:0:
182,192,72936,1,0,0:0:0:0:
109,192,72963,1,0,0:0:0:0:
36,192,72990,1,0,0:0:0:0:
475,192,73017,1,0,0:0:0:0:
402,192,73044,1,0,0:0:0:0:
329,192,73070,1,0,0:0:0:0:
256,192,73097,1,0,0:0:0:0:
182,192,73124,1,0,0:0:0:0:
36,192,73124,1,0,0:0:0:0:
475,192,73231,1,0,0:0:0:0:
402,192,73231,1,0,0:0:0:0:
329,192,73231,1,0,0:0:0:0:
36,192,73445,1,0,0:0:0:0:
182,192,73445,1,0,0:0:0:0:
475,192,73552,1,0,0:0:0:0:
402,192,73579,1,0,0:0:0:0:
329,192,73606,1,0,0:0:0:0:
256,192,73633,1,0,0:0:0:0:
36,192,73660,1,0,0:0:0:0:
109,192,73686,1,0,0:0:0:0:
182,192,73713,1,0,0:0:0:0:
256,192,73740,1,0,0:0:0:0:
329,192,73767,1,0,0:0:0:0:
475,192,73767,1,0,0:0:0:0:
329,192,73981,1,0,0:0:0:0:
475,192,73981,1,0,0:0:0:0:
402,192,73981,1,0,0:0:0:0:
36,192,74195,1,0,0:0:0:0:
182,192,74195,1,0,0:0:0:0:
329,192,74302,1,0,0:0:0:0:
402,192,74302,1,0,0:0:0:0:
475,192,74302,1,0,0:0:0:0:
329,192,74517,1,0,0:0:0:0:
475,192,74517,1,0,0:0:0:0:
182,192,74624,1,0,0:0:0:0:
109,192,74624,1,0,0:0:0:0:
36,192,74624,1,0,0:0:0:0:
402,192,74838,1,0,0:0:0:0:
256,192,74945,1,0,0:0:0:0:
109,192,75052,1,0,0:0:0:0:
329,192,75267,1,0,0:0:0:0:
36,192,75481,128,0,76124:0:0:0:0:
475,192,75481,128,0,75695:0:0:0:0:
182,192,75481,1,0,0:0:0:0:
402,192,75695,1,0,0:0:0:0:
329,192,75910,128,0,76124:0:0:0:0:
109,192,75910,1,0,0:0:0:0:
402,192,76124,1,0,0:0:0:0:
256,192,76231,1,0,0:0:0:0:
475,192,76338,128,0,76981:0:0:0:0:
36,192,76338,128,0,76552:0:0:0:0:
109,192,76338,1,0,0:0:0:0:
109,192,76552,1,0,0:0:0:0:
256,192,76660,1,0,0:0:0:0:
182,192,76767,128,0,76981:0:0:0:0:
402,192,76767,1,0,0:0:0:0:
109,192,76981,1,0,0:0:0:0:
36,192,77195,128,0,77410:0:0:0:0:
256,192,77195,1,0,0:0:0:0:
402,192,77195,1,0,0:0:0:0:
182,192,77410,1,0,0:0:0:0:
109,192,77624,128,0,77838:0:0:0:0:
329,192,77624,1,0,0:0:0:0:
475,192,77624,1,0,0:0:0:0:
36,192,77838,1,0,0:0:0:0:
182,192,77945,1,0,0:0:0:0:
475,192,78052,128,0,78267:0:0:0:0:
329,192,78052,1,0,0:0:0:0:
402,192,78267,1,0,0:0:0:0:
256,192,78374,1,0,0:0:0:0:
402,192,78481,128,0,78695:0:0:0:0:
109,192,78481,1,0,0:0:0:0:
475,192,78695,1,0,0:0:0:0:
329,192,78802,1,0,0:0:0:0:
36,192,78910,128,0,79124:0:0:0:0:
256,192,78910,1,0,0:0:0:0:
109,192,78910,1,0,0:0:0:0:
475,192,79124,1,0,0:0:0:0:
182,192,79338,128,0,79552:0:0:0:0:
256,192,79338,1,0,0:0:0:0:
402,192,79338,1,0,0:0:0:0:
36,192,79552,1,0,0:0:0:0:
256,192,79660,1,0,0:0:0:0:
329,192,79767,128,0,79981:0:0:0:0:
475,192,79767,1,0,0:0:0:0:
36,192,79981,1,0,0:0:0:0:
182,192,79981,1,0,0:0:0:0:
475,192,80195,128,0,80410:0:0:0:0:
256,192,80195,1,0,0:0:0:0:
329,192,80410,1,0,0:0:0:0:
182,192,80517,1,0,0:0:0:0:
36,192,80624,1,0,0:0:0:0:
475,192,80624,1,0,0:0:0:0:
109,192,80838,1,0,0:0:0:0:
402,192,80838,1,0,0:0:0:0:
402,192,80945,1,0,0:0:0:0:
109,192,80945,1,0,0:0:0:0:
256,192,80945,1,0,0:0:0:0:
36,192,81160,1,0,0:0:0:0:
182,192,81160,1,0,0:0:0:0:
109,192,81213,1,0,0:0:0:0:
256,192,81213,1,0,0:0:0:0:
182,192,81267,1,0,0:0:0:0:
329,192,81267,1,0,0:0:0:0:
256,192,81320,1,0,0:0:0:0:
402,192,81320,1,0,0:0:0:0:
329,192,81374,1,0,0:0:0:0:
475,192,81374,1,0,0:0:0:0:
256,192,81427,1,0,0:0:0:0:
402,192,81427,1,0,0:0:0:0:
182,192,81481,1,0,0:0:0:0:
329,192,81481,1,0,0:0:0:0:
402,192,81642,1,0,0:0:0:0:
36,192,81695,128,0,81910:0:0:0:0:
109,192,81695,1,0,0:0:0:0:
256,192,81695,1,0,0:0:0:0:
475,192,81856,1,0,0:0:0:0:
256,192,81910,128,0,82124:0:0:0:0:
402,192,81910,1,0,0:0:0:0:
182,192,81910,1,0,0:0:0:0:
36,192,82070,1,0,0:0:0:0:
475,192,82124,128,0,82338:0:0:0:0:
329,192,82124,1,0,0:0:0:0:
109,192,82124,1,0,0:0:0:0:
182,192,82177,1,0,0:0:0:0:
256,192,82231,1,0,0:0:0:0:
329,192,82285,1,0,0:0:0:0:
402,192,82338,1,0,0:0:0:0:
36,192,82338,1,0,0:0:0:0:
182,192,82338,1,0,0:0:0:0:
329,192,82445,1,0,0:0:0:0:
109,192,82552,1,0,0:0:0:0:
256,192,82552,1,0,0:0:0:0:
475,192,82552,1,0,0:0:0:0:
182,192,82660,1,0,0:0:0:0:
402,192,82767,1,0,0:0:0:0:
329,192,82767,1,0,0:0:0:0:
36,192,82767,1,0,0:0:0:0:
475,192,82874,1,0,0:0:0:0:
109,192,82981,1,0,0:0:0:0:
256,192,82981,1,0,0:0:0:0:
402,192,82981,1,0,0:0:0:0:
182,192,83195,128,0,83410:0:0:0:0:
402,192,83517,1,0,0:0:0:0:
109,192,83624,1,0,0:0:0:0:
475,192,83838,1,0,0:0:0:0:
36,192,83838,1,0,0:0:0:0:
36,192,84052,1,0,0:0:0:0:
256,192,84052,1,0,0:0:0:0:
475,192,84052,1,0,0:0:0:0:
109,192,84267,1,0,0:0:0:0:
182,192,84267,1,0,0:0:0:0:
402,192,84267,1,0,0:0:0:0:
36,192,84481,1,0,0:0:0:0:
329,192,84481,1,0,0:0:0:0:
475,192,84481,1,0,0:0:0:0:
109,192,84535,1,0,0:0:0:0:
182,192,84588,1,0,0:0:0:0:
256,192,84642,1,0,0:0:0:0:
402,192,84695,1,0,0:0:0:0:
36,192,84695,1,0,0:0:0:0:
329,192,84749,1,0,0:0:0:0:
256,192,84802,1,0,0:0:0:0:
182,192,84856,1,0,0:0:0:0:
109,192,84910,1,0,0:0:0:0:
475,192,84910,1,0,0:0:0:0:
402,192,84910,1,0,0:0:0:0:
475,192,85070,1,0,0:0:0:0:
109,192,85070,1,0,0:0:0:0:
182,192,85070,1,0,0:0:0:0:
36,192,85231,1,0,0:0:0:0:
402,192,85231,1,0,0:0:0:0:
256,192,85231,1,0,0:0:0:0:
109,192,85338,1,0,0:0:0:0:
329,192,85338,1,0,0:0:0:0:
475,192,85338,1,0,0:0:0:0:
36,192,85445,1,0,0:0:0:0:
182,192,85445,1,0,0:0:0:0:
402,192,85445,1,0,0:0:0:0:
109,192,85552,1,0,0:0:0:0:
256,192,85552,1,0,0:0:0:0:
475,192,85552,1,0,0:0:0:0:
329,192,85660,1,0,0:0:0:0:
182,192,85660,1,0,0:0:0:0:
36,192,85660,1,0,0:0:0:0:
109,192,85767,1,0,0:0:0:0:
475,192,85767,1,0,0:0:0:0:
402,192,85767,1,0,0:0:0:0:
36,192,85981,128,0,86195:0:0:0:0:
475,192,85981,128,0,86195:0:0:0:0:
182,192,85981,1,0,0:0:0:0:
109,192,86195,128,0,86410:0:0:0:0:
402,192,86195,128,0,86410:0:0:0:0:
329,192,86195,1,0,0:0:0:0:
182,192,86410,128,0,86624:0:0:0:0:
329,192,86410,128,0,86624:0:0:0:0:
475,192,86410,1,0,0:0:0:0:
36,192,86624,128,0,86838:0:0:0:0:
475,192,86624,128,0,86838:0:0:0:0:
109,192,86624,1,0,0:0:0:0:
182,192,86838,128,0,87052:0:0:0:0:
329,192,86838,128,0,87052:0:0:0:0:
256,192,86838,1,0,0:0:0:0:
402,192,87052,128,0,87267:0:0:0:0:
109,192,87052,128,0,87267:0:0:0:0:
475,192,87052,1,0,0:0:0:0:
36,192,87267,128,0,87481:0:0:0:0:
475,192,87267,128,0,87481:0:0:0:0:
182,192,87267,1,0,0:0:0:0:
256,192,87481,1,0,0:0:0:0:
329,192,87588,1,0,0:0:0:0:
36,192,87695,1,0,0:0:0:0:
182,192,87695,1,0,0:0:0:0:
402,192,87695,1,0,0:0:0:0:
109,192,87910,1,0,0:0:0:0:
256,192,87910,1,0,0:0:0:0:
182,192,87910,1,0,0:0:0:0:
329,192,88017,1,0,0:0:0:0:
475,192,88017,1,0,0:0:0:0:
402,192,88017,1,0,0:0:0:0:
36,192,88124,1,0,0:0:0:0:
182,192,88124,1,0,0:0:0:0:
109,192,88124,1,0,0:0:0:0:
256,192,88231,1,0,0:0:0:0:
402,192,88231,1,0,0:0:0:0:
329,192,88231,1,0,0:0:0:0:
36,192,88338,1,0,0:0:0:0:
182,192,88338,1,0,0:0:0:0:
475,192,88338,1,0,0:0:0:0:
36,192,88552,1,0,0:0:0:0:
329,192,88552,1,0,0:0:0:0:
475,192,88552,1,0,0:0:0:0:
36,192,88767,1,0,0:0:0:0:
402,192,88767,1,0,0:0:0:0:
109,192,88820,1,0,0:0:0:0:
182,192,88874,1,0,0:0:0:0:
256,192,88927,1,0,0:0:0:0:
36,192,88981,1,0,0:0:0:0:
329,192,88981,1,0,0:0:0:0:
109,192,89035,1,0,0:0:0:0:
402,192,89035,1,0,0:0:0:0:
182,192,89088,1,0,0:0:0:0:
475,192,89088,1,0,0:0:0:0:
256,192,89142,1,0,0:0:0:0:
329,192,89195,1,0,0:0:0:0:
36,192,89195,128,0,90910:0:0:0:0:
475,192,89410,1,0,0:0:0:0:
329,192,89410,1,0,0:0:0:0:
256,192,89624,1,0,0:0:0:0:
402,192,89624,1,0,0:0:0:0:
329,192,89838,1,0,0:0:0:0:
182,192,89838,1,0,0:0:0:0:
109,192,90052,1,0,0:0:0:0:
256,192,90052,1,0,0:0:0:0:
329,192,90160,1,0,0:0:0:0:
475,192,90160,1,0,0:0:0:0:
182,192,90267,1,0,0:0:0:0:
109,192,90267,1,0,0:0:0:0:
256,192,90374,1,0,0:0:0:0:
402,192,90374,1,0,0:0:0:0:
182,192,90481,1,0,0:0:0:0:
475,192,90481,1,0,0:0:0:0:
329,192,90588,1,0,0:0:0:0:
109,192,90588,1,0,0:0:0:0:
402,192,90695,1,0,0:0:0:0:
256,192,90695,1,0,0:0:0:0:
182,192,90802,1,0,0:0:0:0:
475,192,90802,1,0,0:0:0:0:
402,192,90910,128,0,91124:0:0:0:0:
109,192,90910,128,0,91124:0:0:0:0:
256,192,90910,1,0,0:0:0:0:
182,192,91124,1,0,0:0:0:0:
109,192,91338,128,0,91552:0:0:0:0:
402,192,91338,128,0,91552:0:0:0:0:
329,192,91338,1,0,0:0:0:0:
256,192,91552,1,0,0:0:0:0:
402,192,91767,128,0,91981:0:0:0:0:
109,192,91767,128,0,91981:0:0:0:0:
36,192,91767,1,0,0:0:0:0:
475,192,91981,1,0,0:0:0:0:
256,192,92195,128,0,92624:0:0:0:0:
109,192,92195,1,0,0:0:0:0:
402,192,92195,1,0,0:0:0:0:
475,192,93052,1,0,0:0:0:0:
36,192,93052,1,0,0:0:0:0:
109,192,93052,128,0,94338:0:0:0:0:
182,192,93160,128,0,93695:0:0:0:0:
256,192,93213,128,0,93695:0:0:0:0:
329,192,93267,128,0,93695:0:0:0:0:
402,192,93695,128,0,94338:0:0:0:0:
36,192,94338,1,0,0:0:0:0:
182,192,94392,1,0,0:0:0:0:
256,192,94445,1,0,0:0:0:0:
329,192,94499,1,0,0:0:0:0:
475,192,94552,1,0,0:0:0:0:
36,192,94552,1,0,0:0:0:0:
109,192,94660,1,0,0:0:0:0:
402,192,94660,1,0,0:0:0:0:
182,192,94767,1,0,0:0:0:0:
329,192,94767,1,0,0:0:0:0:
36,192,94874,1,0,0:0:0:0:
475,192,94874,1,0,0:0:0:0:
402,192,94981,1,0,0:0:0:0:
109,192,94981,1,0,0:0:0:0:
182,192,95088,1,0,0:0:0:0:
329,192,95088,1,0,0:0:0:0:
36,192,95410,1,0,0:0:0:0:
182,192,95410,1,0,0:0:0:0:
402,192,95410,1,0,0:0:0:0:
109,192,95731,1,0,0:0:0:0:
329,192,95731,1,0,0:0:0:0:
475,192,95731,1,0,0:0:0:0:
36,192,96052,1,0,0:0:0:0:
109,192,96079,1,0,0:0:0:0:
182,192,96106,1,0,0:0:0:0:
256,192,96133,1,0,0:0:0:0:
475,192,96160,1,0,0:0:0:0:
402,192,96186,1,0,0:0:0:0:
329,192,96213,1,0,0:0:0:0:
256,192,96240,1,0,0:0:0:0:
182,192,96267,1,0,0:0:0:0:
36,192,96267,128,0,96802:0:0:0:0:
109,192,96695,1,0,0:0:0:0:
256,192,96695,1,0,0:0:0:0:
402,192,96695,1,0,0:0:0:0:
402,192,96802,1,0,0:0:0:0:
109,192,96802,1,0,0:0:0:0:
256,192,96802,1,0,0:0:0:0:
182,192,96802,128,0,97124:0:0:0:0:
329,192,96802,128,0,97124:0:0:0:0:
36,192,97124,128,0,97445:0:0:0:0:
475,192,97124,128,0,97445:0:0:0:0:
402,192,97124,1,0,0:0:0:0:
402,192,97445,128,0,97767:0:0:0:0:
256,192,97445,128,0,97767:0:0:0:0:
109,192,97445,1,0,0:0:0:0:
329,192,97767,1,0,0:0:0:0:
36,192,97767,128,0,98517:0:0:0:0:
182,192,97767,1,0,0:0:0:0:
109,192,97981,1,0,0:0:0:0:
402,192,97981,1,0,0:0:0:0:
109,192,98410,1,0,0:0:0:0:
402,192,98410,1,0,0:0:0:0:
402,192,98517,1,0,0:0:0:0:
109,192,98517,1,0,0:0:0:0:
36,192,98838,1,0,0:0:0:0:
256,192,98838,1,0,0:0:0:0:
475,192,98838,1,0,0:0:0:0:
109,192,99160,1,0,0:0:0:0:
402,192,99160,1,0,0:0:0:0:
256,192,99160,1,0,0:0:0:0:
402,192,99267,1,0,0:0:0:0:
256,192,99267,1,0,0:0:0:0:
109,192,99267,1,0,0:0:0:0:
36,192,99481,1,0,0:0:0:0:
109,192,99535,1,0,0:0:0:0:
182,192,99588,1,0,0:0:0:0:
256,192,99642,1,0,0:0:0:0:
329,192,99695,1,0,0:0:0:0:
475,192,99695,1,0,0:0:0:0:
329,192,99802,1,0,0:0:0:0:
475,192,99802,1,0,0:0:0:0:
402,192,99802,1,0,0:0:0:0:
36,192,100017,128,0,100552:0:0:0:0:
256,192,100124,128,0,100552:0:0:0:0:
329,192,100552,128,0,100874:0:0:0:0:
109,192,100552,128,0,100874:0:0:0:0:
475,192,100552,1,0,0:0:0:0:
402,192,100874,128,0,101195:0:0:0:0:
182,192,100874,128,0,101195:0:0:0:0:
36,192,100874,1,0,0:0:0:0:
256,192,101195,128,0,101517:0:0:0:0:
475,192,101195,128,0,101517:0:0:0:0:
109,192,101195,1,0,0:0:0:0:
36,192,101463,1,0,0:0:0:0:
182,192,101624,1,0,0:0:0:0:
109,192,101731,1,0,0:0:0:0:
402,192,101731,1,0,0:0:0:0:
182,192,101945,128,0,102267:0:0:0:0:
36,192,101945,1,0,0:0:0:0:
475,192,101945,1,0,0:0:0:0:
329,192,102267,128,0,102588:0:0:0:0:
402,192,102267,1,0,0:0:0:0:
109,192,102267,1,0,0:0:0:0:
256,192,102588,128,0,102910:0:0:0:0:
36,192,102588,1,0,0:0:0:0:
475,192,102588,1,0,0:0:0:0:
109,192,102695,1,0,0:0:0:0:
402,192,102695,1,0,0:0:0:0:
36,192,102910,1,0,0:0:0:0:
475,192,102910,1,0,0:0:0:0:
109,192,103124,128,0,103660:0:0:0:0:
182,192,103338,128,0,103660:0:0:0:0:
256,192,103552,128,0,103660:0:0:0:0:
329,192,103660,128,0,104356:0:0:0:0:
475,192,103767,1,0,0:0:0:0:
36,192,103767,1,0,0:0:0:0:
475,192,103981,1,0,0:0:0:0:
36,192,103981,1,0,0:0:0:0:
182,192,103981,1,0,0:0:0:0:
36,192,104302,1,0,0:0:0:0:
402,192,104302,1,0,0:0:0:0:
36,192,104410,1,0,0:0:0:0:
402,192,104410,1,0,0:0:0:0:
182,192,104517,1,0,0:0:0:0:
475,192,104517,1,0,0:0:0:0:
182,192,104624,1,0,0:0:0:0:
475,192,104624,1,0,0:0:0:0:
402,192,104651,1,0,0:0:0:0:
329,192,104677,1,0,0:0:0:0:
256,192,104704,1,0,0:0:0:0:
182,192,104731,1,0,0:0:0:0:
109,192,104758,1,0,0:0:0:0:
36,192,104785,1,0,0:0:0:0:
475,192,104811,1,0,0:0:0:0:
402,192,104838,1,0,0:0:0:0:
329,192,104865,1,0,0:0:0:0:
256,192,104892,1,0,0:0:0:0:
182,192,104919,1,0,0:0:0:0:
109,192,104945,1,0,0:0:0:0:
36,192,104972,1,0,0:0:0:0:
475,192,104999,1,0,0:0:0:0:
402,192,105026,1,0,0:0:0:0:
329,192,105052,1,0,0:0:0:0:
182,192,105052,1,0,0:0:0:0:
109,192,105267,1,0,0:0:0:0:
402,192,105267,1,0,0:0:0:0:
36,192,105695,1,0,0:0:0:0:
182,192,105695,1,0,0:0:0:0:
402,192,105695,1,0,0:0:0:0:
475,192,106017,1,0,0:0:0:0:
329,192,106017,1,0,0:0:0:0:
109,192,106017,1,0,0:0:0:0:
36,192,106338,1,0,0:0:0:0:
182,192,106338,1,0,0:0:0:0:
402,192,106338,1,0,0:0:0:0:
256,192,106552,1,0,0:0:0:0:
402,192,106552,1,0,0:0:0:0:
109,192,106552,1,0,0:0:0:0:
182,192,106981,128,0,107231:0:0:0:0:
329,192,106981,128,0,107231:0:0:0:0:
36,192,107231,128,0,107517:0:0:0:0:
256,192,107231,128,0,107517:0:0:0:0:
475,192,107231,1,0,0:0:0:0:
475,192,107517,128,0,107838:0:0:0:0:
182,192,107517,128,0,107838:0:0:0:0:
329,192,107517,1,0,0:0:0:0:
109,192,107838,128,0,108052:0:0:0:0:
402,192,107838,128,0,108052:0:0:0:0:
36,192,107838,1,0,0:0:0:0:
475,192,108267,128,0,108910:0:0:0:0:
36,192,108267,128,0,108910:0:0:0:0:
109,192,108267,1,0,0:0:0:0:
182,192,108320,1,0,0:0:0:0:
402,192,108374,1,0,0:0:0:0:
329,192,108427,1,0,0:0:0:0:
182,192,108481,1,0,0:0:0:0:
109,192,108535,1,0,0:0:0:0:
256,192,108588,1,0,0:0:0:0:
329,192,108642,1,0,0:0:0:0:
182,192,108695,1,0,0:0:0:0:
256,192,108749,1,0,0:0:0:0:
402,192,108802,1,0,0:0:0:0:
329,192,108856,1,0,0:0:0:0:
182,192,108910,1,0,0:0:0:0:
256,192,108910,128,0,115767:0:0:0:0:
36,192,109338,1,0,0:0:0:0:
475,192,109552,1,0,0:0:0:0:
109,192,109767,1,0,0:0:0:0:
402,192,109767,1,0,0:0:0:0:
475,192,110195,1,0,0:0:0:0:
36,192,110410,1,0,0:0:0:0:
109,192,110624,1,0,0:0:0:0:
402,192,110624,1,0,0:0:0:0:
36,192,111052,1,0,0:0:0:0:
475,192,111052,1,0,0:0:0:0:
329,192,111267,1,0,0:0:0:0:
109,192,111481,1,0,0:0:0:0:
402,192,111481,1,0,0:0:0:0:
182,192,111910,1,0,0:0:0:0:
329,192,111910,1,0,0:0:0:0:
36,192,112338,1,0,0:0:0:0:
475,192,112338,1,0,0:0:0:0:
109,192,112767,1,0,0:0:0:0:
402,192,112767,1,0,0:0:0:0:
475,192,112981,1,0,0:0:0:0:
36,192,113195,1,0,0:0:0:0:
329,192,113195,1,0,0:0:0:0:
475,192,113624,1,0,0:0:0:0:
182,192,113624,1,0,0:0:0:0:
329,192,113838,1,0,0:0:0:0:
109,192,113838,1,0,0:0:0:0:
36,192,114052,1,0,0:0:0:0:
402,192,114052,1,0,0:0:0:0:
36,192,114481,1,0,0:0:0:0:
329,192,114481,1,0,0:0:0:0:
402,192,114695,1,0,0:0:0:0:
182,192,114910,1,0,0:0:0:0:
475,192,114910,1,0,0:0:0:0:
109,192,115338,1,0,0:0:0:0:
402,192,115338,1,0,0:0:0:0:
475,192,116624,128,0,118338:0:0:0:0:
36,192,116624,1,0,0:0:0:0:
329,192,116624,1,0,0:0:0:0:
402,192,116624,128,0,116838:0:0:0:0:
109,192,116838,1,0,0:0:0:0:
329,192,117052,128,0,117267:0:0:0:0:
182,192,117052,1,0,0:0:0:0:
402,192,117052,1,0,0:0:0:0:
36,192,117267,1,0,0:0:0:0:
36,192,117481,128,0,117695:0:0:0:0:
329,192,117481,1,0,0:0:0:0:
109,192,117481,1,0,0:0:0:0:
402,192,117695,1,0,0:0:0:0:
256,192,117802,1,0,0:0:0:0:
109,192,117910,128,0,118124:0:0:0:0:
36,192,117910,1,0,0:0:0:0:
402,192,118124,1,0,0:0:0:0:
36,192,118338,128,0,119195:0:0:0:0:
256,192,118338,128,0,118552:0:0:0:0:
109,192,118338,1,0,0:0:0:0:
329,192,118338,1,0,0:0:0:0:
475,192,118552,1,0,0:0:0:0:
402,192,118767,128,0,118981:0:0:0:0:
182,192,118767,1,0,0:0:0:0:
329,192,118767,1,0,0:0:0:0:
109,192,118981,1,0,0:0:0:0:
182,192,119088,1,0,0:0:0:0:
475,192,119195,128,0,120052:0:0:0:0:
329,192,119195,128,0,119410:0:0:0:0:
256,192,119195,1,0,0:0:0:0:
402,192,119410,1,0,0:0:0:0:
256,192,119517,1,0,0:0:0:0:
109,192,119624,128,0,119838:0:0:0:0:
36,192,119624,1,0,0:0:0:0:
402,192,119838,1,0,0:0:0:0:
256,192,119945,1,0,0:0:0:0:
36,192,120052,128,0,121767:0:0:0:0:
402,192,120052,128,0,120267:0:0:0:0:
109,192,120052,1,0,0:0:0:0:
329,192,120052,1,0,0:0:0:0:
182,192,120267,1,0,0:0:0:0:
329,192,120481,128,0,120695:0:0:0:0:
256,192,120481,1,0,0:0:0:0:
475,192,120481,1,0,0:0:0:0:
109,192,120695,1,0,0:0:0:0:
256,192,120802,1,0,0:0:0:0:
109,192,120910,128,0,121124:0:0:0:0:
402,192,120910,1,0,0:0:0:0:
182,192,121124,1,0,0:0:0:0:
256,192,121338,128,0,121552:0:0:0:0:
475,192,121338,1,0,0:0:0:0:
329,192,121338,1,0,0:0:0:0:
109,192,121552,1,0,0:0:0:0:
329,192,121660,1,0,0:0:0:0:
475,192,121767,1,0,0:0:0:0:
109,192,121981,1,0,0:0:0:0:
402,192,121981,1,0,0:0:0:0:
109,192,122088,1,0,0:0:0:0:
402,192,122088,1,0,0:0:0:0:
36,192,122142,1,0,0:0:0:0:
182,192,122195,1,0,0:0:0:0:
329,192,122195,1,0,0:0:0:0:
109,192,122249,1,0,0:0:0:0:
402,192,122249,1,0,0:0:0:0:
36,192,122302,1,0,0:0:0:0:
475,192,122302,1,0,0:0:0:0:
182,192,122356,1,0,0:0:0:0:
329,192,122356,1,0,0:0:0:0:
256,192,122410,1,0,0:0:0:0:
402,192,122410,1,0,0:0:0:0:
109,192,122570,1,0,0:0:0:0:
182,192,122624,1,0,0:0:0:0:
402,192,122624,1,0,0:0:0:0:
475,192,122624,1,0,0:0:0:0:
256,192,122785,1,0,0:0:0:0:
36,192,122838,1,0,0:0:0:0:
109,192,122838,1,0,0:0:0:0:
329,192,122838,1,0,0:0:0:0:
182,192,122999,1,0,0:0:0:0:
109,192,123052,1,0,0:0:0:0:
256,192,123052,1,0,0:0:0:0:
402,192,123052,1,0,0:0:0:0:
36,192,123052,128,0,123481:0:0:0:0:
402,192,123213,1,0,0:0:0:0:
109,192,123267,1,0,0:0:0:0:
329,192,123267,1,0,0:0:0:0:
475,192,123267,1,0,0:0:0:0:
475,192,123481,128,0,124338:0:0:0:0:
402,192,123481,128,0,123588:0:0:0:0:
256,192,123481,1,0,0:0:0:0:
109,192,123481,1,0,0:0:0:0:
182,192,123588,1,0,0:0:0:0:
329,192,123695,128,0,123802:0:0:0:0:
109,192,123695,1,0,0:0:0:0:
36,192,123695,1,0,0:0:0:0:
256,192,123802,1,0,0:0:0:0:
182,192,123910,128,0,124017:0:0:0:0:
109,192,123910,1,0,0:0:0:0:
402,192,123910,1,0,0:0:0:0:
256,192,124017,1,0,0:0:0:0:
36,192,124124,1,0,0:0:0:0:
109,192,124124,128,0,124231:0:0:0:0:
329,192,124124,1,0,0:0:0:0:
402,192,124231,1,0,0:0:0:0:
256,192,124338,128,0,124445:0:0:0:0:
329,192,124338,1,0,0:0:0:0:
182,192,124338,1,0,0:0:0:0:
36,192,124338,128,0,125195:0:0:0:0:
402,192,124445,1,0,0:0:0:0:
182,192,124552,1,0,0:0:0:0:
475,192,124552,128,0,124660:0:0:0:0:
402,192,124660,128,0,124767:0:0:0:0:
256,192,124660,1,0,0:0:0:0:
109,192,124767,1,0,0:0:0:0:
329,192,124767,128,0,124874:0:0:0:0:
109,192,124981,1,0,0:0:0:0:
475,192,124981,1,0,0:0:0:0:
402,192,124981,1,0,0:0:0:0:
256,192,124981,128,0,125088:0:0:0:0:
475,192,125195,128,0,126052:0:0:0:0:
109,192,125195,128,0,125302:0:0:0:0:
402,192,125195,1,0,0:0:0:0:
182,192,125195,1,0,0:0:0:0:
256,192,125302,1,0,0:0:0:0:
182,192,125410,128,0,125517:0:0:0:0:
329,192,125410,1,0,0:0:0:0:
36,192,125410,1,0,0:0:0:0:
256,192,125517,1,0,0:0:0:0:
402,192,125624,128,0,125731:0:0:0:0:
329,192,125624,1,0,0:0:0:0:
109,192,125624,1,0,0:0:0:0:
36,192,125838,1,0,0:0:0:0:
109,192,125838,128,0,125945:0:0:0:0:
182,192,125945,1,0,0:0:0:0:
402,192,125945,128,0,126052:0:0:0:0:
36,192,126052,128,0,126910:0:0:0:0:
256,192,126052,1,0,0:0:0:0:
329,192,126052,128,0,126160:0:0:0:0:
109,192,126267,1,0,0:0:0:0:
256,192,126267,128,0,126374:0:0:0:0:
475,192,126374,128,0,126481:0:0:0:0:
329,192,126374,1,0,0:0:0:0:
402,192,126481,1,0,0:0:0:0:
182,192,126481,128,0,126588:0:0:0:0:
475,192,126695,1,0,0:0:0:0:
109,192,126695,128,0,126802:0:0:0:0:
182,192,126802,1,0,0:0:0:0:
256,192,126802,128,0,126910:0:0:0:0:
402,192,126910,128,0,127017:0:0:0:0:
329,192,126910,1,0,0:0:0:0:
475,192,126910,128,0,127767:0:0:0:0:
109,192,127017,1,0,0:0:0:0:
256,192,127124,128,0,127231:0:0:0:0:
182,192,127124,1,0,0:0:0:0:
329,192,127124,1,0,0:0:0:0:
402,192,127231,1,0,0:0:0:0:
109,192,127338,128,0,127445:0:0:0:0:
329,192,127338,1,0,0:0:0:0:
36,192,127338,1,0,0:0:0:0:
182,192,127445,1,0,0:0:0:0:
402,192,127552,1,0,0:0:0:0:
329,192,127552,128,0,127660:0:0:0:0:
109,192,127660,1,0,0:0:0:0:
182,192,127660,128,0,127767:0:0:0:0:
402,192,127767,1,0,0:0:0:0:
256,192,127767,128,0,127874:0:0:0:0:
36,192,127767,128,0,128624:0:0:0:0:
329,192,127874,1,0,0:0:0:0:
109,192,127981,1,0,0:0:0:0:
475,192,127981,1,0,0:0:0:0:
402,192,127981,128,0,128195:0:0:0:0:
182,192,128088,1,0,0:0:0:0:
329,192,128195,1,0,0:0:0:0:
109,192,128195,1,0,0:0:0:0:
329,192,128410,1,0,0:0:0:0:
475,192,128410,128,0,128517:0:0:0:0:
256,192,128517,1,0,0:0:0:0:
182,192,128517,128,0,128624:0:0:0:0:
402,192,128624,128,0,129481:0:0:0:0:
109,192,128624,128,0,128731:0:0:0:0:
329,192,128624,1,0,0:0:0:0:
475,192,128731,1,0,0:0:0:0:
329,192,128838,128,0,128945:0:0:0:0:
256,192,128838,1,0,0:0:0:0:
36,192,128838,1,0,0:0:0:0:
36,192,129052,128,0,129160:0:0:0:0:
109,192,129052,1,0,0:0:0:0:
475,192,129160,128,0,129267:0:0:0:0:
256,192,129160,1,0,0:0:0:0:
36,192,129267,128,0,129374:0:0:0:0:
109,192,129267,1,0,0:0:0:0:
475,192,129374,128,0,129481:0:0:0:0:
256,192,129374,1,0,0:0:0:0:
109,192,129481,128,0,130338:0:0:0:0:
329,192,129481,128,0,129695:0:0:0:0:
182,192,129481,1,0,0:0:0:0:
256,192,129588,1,0,0:0:0:0:
182,192,129695,128,0,129910:0:0:0:0:
475,192,129695,1,0,0:0:0:0:
36,192,129695,1,0,0:0:0:0:
329,192,129802,1,0,0:0:0:0:
402,192,129910,128,0,130124:0:0:0:0:
256,192,129910,1,0,0:0:0:0:
475,192,129910,1,0,0:0:0:0:
36,192,130124,128,0,130338:0:0:0:0:
182,192,130124,1,0,0:0:0:0:
256,192,130177,1,0,0:0:0:0:
329,192,130231,1,0,0:0:0:0:
402,192,130285,1,0,0:0:0:0:
475,192,130338,128,0,131195:0:0:0:0:
182,192,130338,128,0,130445:0:0:0:0:
256,192,130338,1,0,0:0:0:0:
109,192,130445,1,0,0:0:0:0:
256,192,130552,128,0,130660:0:0:0:0:
36,192,130552,1,0,0:0:0:0:
329,192,130552,1,0,0:0:0:0:
109,192,130660,1,0,0:0:0:0:
36,192,130767,128,0,130874:0:0:0:0:
182,192,130767,1,0,0:0:0:0:
402,192,130767,1,0,0:0:0:0:
329,192,130874,1,0,0:0:0:0:
109,192,130981,128,0,131088:0:0:0:0:
402,192,130981,1,0,0:0:0:0:
182,192,130981,1,0,0:0:0:0:
329,192,131088,1,0,0:0:0:0:
402,192,131195,128,0,131302:0:0:0:0:
256,192,131195,1,0,0:0:0:0:
182,192,131195,1,0,0:0:0:0:
36,192,131195,128,0,132052:0:0:0:0:
109,192,131410,1,0,0:0:0:0:
329,192,131410,1,0,0:0:0:0:
182,192,131463,1,0,0:0:0:0:
402,192,131463,1,0,0:0:0:0:
256,192,131517,1,0,0:0:0:0:
475,192,131517,1,0,0:0:0:0:
109,192,131570,1,0,0:0:0:0:
402,192,131570,1,0,0:0:0:0:
182,192,131624,1,0,0:0:0:0:
329,192,131624,1,0,0:0:0:0:
402,192,131731,1,0,0:0:0:0:
109,192,131838,1,0,0:0:0:0:
256,192,131838,1,0,0:0:0:0:
475,192,131838,1,0,0:0:0:0:
329,192,131838,128,0,131945:0:0:0:0:
182,192,131945,1,0,0:0:0:0:
475,192,132052,128,0,132910:0:0:0:0:
402,192,132052,128,0,132160:0:0:0:0:
109,192,132052,1,0,0:0:0:0:
256,192,132052,1,0,0:0:0:0:
182,192,132160,1,0,0:0:0:0:
329,192,132267,128,0,132374:0:0:0:0:
109,192,132267,1,0,0:0:0:0:
256,192,132267,1,0,0:0:0:0:
36,192,132374,1,0,0:0:0:0:
182,192,132481,128,0,132588:0:0:0:0:
256,192,132481,1,0,0:0:0:0:
109,192,132481,1,0,0:0:0:0:
402,192,132588,1,0,0:0:0:0:
109,192,132695,128,0,132802:0:0:0:0:
329,192,132695,1,0,0:0:0:0:
256,192,132695,1,0,0:0:0:0:
402,192,132910,128,0,133338:0:0:0:0:
329,192,132910,1,0,0:0:0:0:
36,192,132910,128,0,133767:0:0:0:0:
256,192,132963,1,0,0:0:0:0:
182,192,133017,1,0,0:0:0:0:
109,192,133070,1,0,0:0:0:0:
329,192,133070,1,0,0:0:0:0:
182,192,133124,1,0,0:0:0:0:
256,192,133124,1,0,0:0:0:0:
109,192,133338,1,0,0:0:0:0:
475,192,133338,128,0,133767:0:0:0:0:
182,192,133392,1,0,0:0:0:0:
256,192,133445,1,0,0:0:0:0:
329,192,133499,1,0,0:0:0:0:
109,192,133499,1,0,0:0:0:0:
182,192,133552,1,0,0:0:0:0:
402,192,133552,128,0,133767:0:0:0:0:
182,192,133767,128,0,133981:0:0:0:0:
256,192,133767,1,0,0:0:0:0:
329,192,133767,1,0,0:0:0:0:
109,192,133874,1,0,0:0:0:0:
329,192,133981,128,0,134195:0:0:0:0:
256,192,133981,1,0,0:0:0:0:
402,192,133981,1,0,0:0:0:0:
109,192,134195,128,0,134410:0:0:0:0:
475,192,134195,1,0,0:0:0:0:
256,192,134195,1,0,0:0:0:0:
402,192,134249,1,0,0:0:0:0:
182,192,134249,1,0,0:0:0:0:
329,192,134302,1,0,0:0:0:0:
36,192,134302,1,0,0:0:0:0:
256,192,134356,1,0,0:0:0:0:
475,192,134356,1,0,0:0:0:0:
402,192,134410,128,0,134624:0:0:0:0:
182,192,134410,1,0,0:0:0:0:
36,192,134410,1,0,0:0:0:0:
36,192,134624,128,0,134838:0:0:0:0:
109,192,134624,1,0,0:0:0:0:
256,192,134624,1,0,0:0:0:0:
182,192,134731,1,0,0:0:0:0:
475,192,134838,128,0,135052:0:0:0:0:
109,192,134838,1,0,0:0:0:0:
329,192,134838,1,0,0:0:0:0:
402,192,134945,1,0,0:0:0:0:
329,192,134999,1,0,0:0:0:0:
109,192,135052,128,0,135267:0:0:0:0:
256,192,135052,1,0,0:0:0:0:
36,192,135052,1,0,0:0:0:0:
182,192,135106,1,0,0:0:0:0:
402,192,135160,1,0,0:0:0:0:
329,192,135213,1,0,0:0:0:0:
402,192,135267,128,0,135481:0:0:0:0:
256,192,135267,1,0,0:0:0:0:
36,192,135267,1,0,0:0:0:0:
36,192,135481,128,0,135695:0:0:0:0:
109,192,135481,1,0,0:0:0:0:
256,192,135481,1,0,0:0:0:0:
475,192,135588,1,0,0:0:0:0:
182,192,135695,128,0,135910:0:0:0:0:
256,192,135695,1,0,0:0:0:0:
402,192,135695,1,0,0:0:0:0:
475,192,135910,128,0,136124:0:0:0:0:
36,192,135910,1,0,0:0:0:0:
256,192,135910,1,0,0:0:0:0:
109,192,135963,1,0,0:0:0:0:
329,192,135963,1,0,0:0:0:0:
182,192,136017,1,0,0:0:0:0:
402,192,136017,1,0,0:0:0:0:
256,192,136070,1,0,0:0:0:0:
36,192,136070,1,0,0:0:0:0:
329,192,136124,128,0,136338:0:0:0:0:
109,192,136124,1,0,0:0:0:0:
36,192,136338,128,0,136552:0:0:0:0:
109,192,136338,1,0,0:0:0:0:
402,192,136338,1,0,0:0:0:0:
475,192,136445,1,0,0:0:0:0:
256,192,136552,128,0,136767:0:0:0:0:
182,192,136552,1,0,0:0:0:0:
329,192,136552,1,0,0:0:0:0:
109,192,136660,1,0,0:0:0:0:
182,192,136713,1,0,0:0:0:0:
475,192,136767,128,0,136981:0:0:0:0:
402,192,136767,1,0,0:0:0:0:
329,192,136820,1,0,0:0:0:0:
36,192,136874,1,0,0:0:0:0:
109,192,136927,1,0,0:0:0:0:
182,192,136981,128,0,137195:0:0:0:0:
256,192,136981,1,0,0:0:0:0:
402,192,136981,1,0,0:0:0:0:
402,192,137195,128,0,137410:0:0:0:0:
36,192,137195,1,0,0:0:0:0:
256,192,137195,1,0,0:0:0:0:
109,192,137249,1,0,0:0:0:0:
182,192,137302,1,0,0:0:0:0:
256,192,137356,1,0,0:0:0:0:
109,192,137410,128,0,137624:0:0:0:0:
329,192,137410,1,0,0:0:0:0:
475,192,137410,1,0,0:0:0:0:
329,192,137624,128,0,137838:0:0:0:0:
182,192,137624,1,0,0:0:0:0:
475,192,137624,1,0,0:0:0:0:
402,192,137677,1,0,0:0:0:0:
256,192,137731,1,0,0:0:0:0:
182,192,137785,1,0,0:0:0:0:
36,192,137838,128,0,138052:0:0:0:0:
109,192,137838,1,0,0:0:0:0:
475,192,137838,1,0,0:0:0:0:
256,192,138052,128,0,138267:0:0:0:0:
329,192,138052,1,0,0:0:0:0:
475,192,138052,1,0,0:0:0:0:
182,192,138160,1,0,0:0:0:0:
109,192,138267,128,0,138481:0:0:0:0:
329,192,138267,1,0,0:0:0:0:
475,192,138267,1,0,0:0:0:0:
402,192,138374,1,0,0:0:0:0:
329,192,138481,128,0,138695:0:0:0:0:
182,192,138481,1,0,0:0:0:0:
36,192,138481,1,0,0:0:0:0:
36,192,138695,1,0,0:0:0:0:
109,192,138722,1,0,0:0:0:0:
182,192,138749,1,0,0:0:0:0:
256,192,138776,1,0,0:0:0:0:
475,192,138802,1,0,0:0:0:0:
402,192,138829,1,0,0:0:0:0:
329,192,138856,1,0,0:0:0:0:
256,192,138883,1,0,0:0:0:0:
36,192,138910,128,0,139017:0:0:0:0:
182,192,138910,1,0,0:0:0:0:
109,192,139124,128,0,139231:0:0:0:0:
256,192,139124,1,0,0:0:0:0:
475,192,139338,128,0,139445:0:0:0:0:
329,192,139338,1,0,0:0:0:0:
402,192,139552,128,0,139660:0:0:0:0:
256,192,139552,1,0,0:0:0:0:
109,192,139767,128,0,139874:0:0:0:0:
36,192,139767,1,0,0:0:0:0:
256,192,139981,128,0,140088:0:0:0:0:
182,192,139981,1,0,0:0:0:0:
402,192,140195,128,0,140302:0:0:0:0:
475,192,140195,1,0,0:0:0:0:
182,192,140410,128,0,140517:0:0:0:0:
329,192,140410,1,0,0:0:0:0:
256,192,141052,128,0,144052:0:0:0:0:
475,192,141481,1,0,0:0:0:0:
475,192,141910,1,0,0:0:0:0:
475,192,142338,1,0,0:0:0:0:
36,192,142767,1,0,0:0:0:0:
36,192,143195,1,0,0:0:0:0:
36,192,143624,1,0,0:0:0:0:
109,192,144052,128,0,144160:0:0:0:0:
329,192,144052,128,0,144106:0:0:0:0:
182,192,144052,128,0,144106:0:0:0:0:
36,192,144052,128,0,144213:0:0:0:0:
402,192,144052,128,0,144160:0:0:0:0:
475,192,144052,128,0,144213:0:0:0:0:
