osu file format v12

[General]
AudioFilename: Doppelganger.mp3
AudioLeadIn: 0
PreviewTime: 39428
Countdown: 0
SampleSet: None
StackLeniency: 0.4
Mode: 0
LetterboxInBreaks: 0
WidescreenStoryboard: 1

[Editor]
Bookmarks: 3428,6856,10285,13714,18856,29142,36856,53999,68571,75428,80571,82285,89142,92571,108856,116571,121714,123428,140999,143999
DistanceSpacing: 0.2
BeatDivisor: 4
GridSize: 4

[Metadata]
Title:Doppelganger
TitleUnicode:Doppelganger
Artist:LeaF
ArtistUnicode:LeaF
Creator:Michi
Version:mel
Source:
Tags:
BeatmapID:319213
BeatmapSetID:121367

[Difficulty]
HPDrainRate:6
CircleSize:4
OverallDifficulty:8
ApproachRate:9
SliderMultiplier:1.9
SliderTickRate:2

[Events]
//Background and Video events
0,0,"BG.jpg",0,0
//Break Periods
2,109056,115971
//Storyboard Layer 0 (Background)
//Storyboard Layer 1 (Fail)
//Storyboard Layer 2 (Pass)
//Storyboard Layer 3 (Foreground)
//Storyboard Sound Samples
//Background Colour Transformations
3,100,0,0,0

[TimingPoints]
-0.192103170113086,214.285714285714,4,2,1,100,1,0
3428,-86.9565217391304,4,1,1,100,0,0
5142,-133.333333333333,4,1,1,25,0,0
6856,-86.9565217391304,4,1,1,100,0,0
8571,-133.333333333333,4,1,1,25,0,0
9428,-86.9565217391304,4,1,1,100,0,0
9856,-133.333333333333,4,1,1,100,0,0
10285,-86.9565217391304,4,1,1,100,0,0
14356,-133.333333333333,4,1,1,60,0,0
15214,-86.9565217391304,4,1,1,100,0,0
16714,-166.666666666667,4,1,1,100,0,0
18856,-125,4,1,1,60,0,0
29142,-100,4,1,1,100,0,0
30856,-86.9565217391304,4,1,1,100,0,0
32142,-200,4,1,1,100,0,0
32785,-86.9565217391304,4,1,1,100,0,0
34714,-200,4,1,1,100,0,0
36856,-86.9565217391304,4,1,1,100,0,1
36910,-86.9565217391304,4,1,1,100,0,0
49714,-125,4,1,1,100,0,0
50571,-100,4,1,1,100,0,0
53249,-133.333333333333,4,1,1,100,0,0
53999,-125,4,1,1,60,0,0
59999,-86.9565217391304,4,1,1,100,0,0
60856,-133.333333333333,4,1,1,30,0,0
62571,-86.9565217391304,4,1,1,100,0,0
64071,-125,4,1,1,100,0,0
65142,-100,4,1,1,100,0,0
66856,-200,4,1,1,100,0,0
67714,-86.9565217391304,4,1,1,100,0,0
68571,-86.9565217391304,4,1,1,100,0,1
71946,-86.9565217391304,4,1,1,100,0,0
71999,-86.9565217391304,4,1,1,100,0,1
74571,-86.9565217391304,4,1,1,60,0,0
80571,-86.9565217391304,4,1,1,100,0,0
82285,-86.9565217391304,4,1,1,100,0,1
82339,-86.9565217391304,4,1,1,100,0,0
83142,-125,4,1,1,60,0,0
83571,-125,4,2,1,60,0,0
83999,-86.9565217391304,4,1,1,100,0,0
84428,-86.9565217391304,4,1,1,59,0,0
84856,-100,4,1,1,100,0,0
85714,-86.9565217391304,4,1,1,100,0,0
86356,-125,4,1,1,60,0,0
86999,-66.6666666666667,4,1,1,60,0,0
87428,-86.9565217391304,4,1,1,100,0,0
88285,-133.333333333333,4,1,1,100,0,0
92142,-200,4,1,1,60,0,0
92999,-100,4,2,1,100,0,1
93053,-100,4,2,1,100,0,0
93642,-133.333333333333,4,2,1,100,0,0
94285,-100,4,1,1,100,0,0
97714,-100,4,2,1,100,0,0
98464,-100,4,1,1,100,0,0
99964,-100,4,2,1,100,0,0
101678,-100,4,1,1,100,0,0
102856,-200,4,2,1,100,0,0
104142,-100,4,1,1,100,0,0
104999,-133.333333333333,4,1,1,100,0,0
106606,-200,4,1,1,60,0,0
107142,-133.333333333333,4,1,1,60,0,0
108214,-133.333333333333,4,2,1,60,0,0
108856,-133.333333333333,4,1,1,100,0,0
116571,-133.333333333333,4,2,1,60,0,0
121714,-100,4,1,1,100,0,0
123428,-86.9565217391304,4,1,1,100,0,1
135214,-133.333333333333,4,1,1,100,0,1
135428,-86.9565217391304,4,1,1,100,0,1
139714,-86.9565217391304,4,2,1,100,0,1
140571,-86.9565217391304,4,2,1,100,0,0
143999,-86.9565217391304,4,2,1,15,0,0

[Colours]
Combo1 : 237,235,192
Combo2 : 99,29,194
Combo3 : 249,85,30

[HitObjects]
72,92,0,2,0,P|140:140|156:180,1,95
256,344,321,2,0,B|324:308|320:240|320:240|372:208,2,190
144,148,964,2,0,L|251:75,1,95
352,40,1178,2,0,P|360:100|340:148,1,95
284,268,1392,1,0,0:0:0:0:
284,268,1446,1,0,0:0:0:0:
284,268,1499,2,0,P|276:208|296:160,1,95
188,52,1714,5,0,0:0:0:0:
188,52,1821,2,0,L|140:156,1,95
88,292,2035,2,0,B|156:304|184:240|184:240|228:152,1,190
424,92,2464,2,0,B|356:80|328:144|328:144|284:232,1,190
252,344,2785,1,0,0:0:0:0:
252,344,2892,1,0,0:0:0:0:
252,344,2999,1,0,0:0:0:0:
252,344,3428,6,0,P|208:280|168:260,1,109.250002083778
24,192,3642,2,0,P|60:132|112:112,1,109.250002083778
252,92,3856,1,0,0:0:0:0:
418,115,3964,2,0,P|464:143|488:192,1,109.250002083778
384,324,4178,2,0,P|338:295|314:247,1,109.250002083778
184,132,4392,1,0,0:0:0:0:
64,48,4499,6,0,P|44:112|108:256,1,218.500004167557
252,344,4821,1,0,0:0:0:0:
252,344,4928,2,0,P|288:284|284:232,1,109.250002083778
252,92,5142,6,0,P|304:92|384:148,2,142.500005435944
176,140,5678,1,0,0:0:0:0:
116,208,5785,2,0,P|88:256|88:292,1,71.2500027179719
128,352,5999,2,0,B|172:336|180:284|180:284|228:264,1,142.500005435944
316,228,6321,1,0,0:0:0:0:
408,188,6428,2,0,B|398:142|347:127|347:127|292:72,1,142.500005435944
288,72,6696,1,0,0:0:0:0:
256,60,6749,1,0,0:0:0:0:
224,56,6803,1,0,0:0:0:0:
192,52,6856,6,0,P|128:56|56:188,1,218.500004167557
192,312,7178,2,0,P|276:332|324:316,1,109.250002083778
408,188,7392,2,0,P|324:168|276:184,1,109.250002083778
124,196,7606,2,0,P|208:216|256:200,1,109.250002083778
384,92,7821,1,0,0:0:0:0:
384,92,7928,2,0,P|416:136|352:284,1,218.500004167557
192,312,8249,1,0,0:0:0:0:
24,284,8356,2,0,P|36:208|64:172,1,109.250002083778
136,36,8571,6,0,P|177:60|198:166,1,142.500005435944
192,244,8892,2,0,P|256:228|276:200,1,71.2500027179719
328,156,9106,2,0,P|352:204|348:252,1,71.2500027179719
356,324,9321,1,0,0:0:0:0:
356,324,9428,6,0,P|280:300|244:316,1,109.250002083778
100,344,9642,2,0,P|88:268|112:208,1,109.250002083778
136,84,9856,2,0,B|204:96|220:180|220:180|260:152|316:160,1,213.750008153916
292,160,10285,6,0,P|304:224|276:292,1,109.250002083778
136,188,10499,2,0,P|124:124|152:56,1,109.250002083778
304,40,10714,2,0,P|352:72|376:136,1,109.250002083778
292,264,10928,2,0,P|252:312|192:324,1,109.250002083778
52,248,11142,2,0,P|92:200|152:188,1,109.250002083778
292,160,11356,2,0,L|420:148,1,109.250002083778
292,264,11571,2,0,L|164:276,1,109.250002083778
48,152,11785,1,0,0:0:0:0:
48,152,11892,1,0,0:0:0:0:
48,152,11999,6,0,P|104:120|168:124,1,109.250002083778
336,104,12214,2,0,P|356:155|318:238,1,109.250002083778
176,280,12428,2,0,P|155:228|193:145,1,109.250002083778
276,52,12642,2,0,P|333:30|398:56,1,109.250002083778
346,206,12856,2,0,P|288:227|223:201,1,109.250002083778
96,156,13071,2,0,P|80:216|92:280,1,109.250002083778
244,216,13285,2,0,P|260:156|248:92,1,109.250002083778
107,50,13499,2,0,P|91:110|103:174,1,109.250002083778
240,312,13928,5,0,0:0:0:0:
272,292,13981,1,0,0:0:0:0:
300,272,14035,1,0,0:0:0:0:
328,256,14089,1,0,0:0:0:0:
360,240,14142,2,0,B|404:208|404:208|404:140,1,109.250002083778
328,32,14356,6,0,B|277:45|282:101|282:101|287:181,1,142.500005435944
212,232,14678,2,0,P|176:244|140:240,1,71.2500027179719
96,136,14892,2,0,P|132:124|168:128,1,71.2500027179719
288,152,15106,1,0,0:0:0:0:
288,152,15214,6,0,B|368:132|368:132|312:280,1,218.500004167557
96,136,15749,1,0,0:0:0:0:
320,260,16071,1,0,0:0:0:0:
224,40,16392,1,0,0:0:0:0:
160,292,16714,2,0,B|163:287|163:287|167:290|167:290|171:285|171:285|175:289|175:289|179:284|179:284|183:287|183:287|186:283|186:283|191:286|191:286|194:281|194:281|199:285|199:285|202:280|202:280|207:283|207:283|210:279|210:279|215:282|215:282|218:277|218:277|223:280|223:280|226:276|226:276|230:279|230:279|234:274|234:274|238:278|238:278|242:273|242:273|246:276|246:276|249:272|249:272|254:275|254:275|257:270|257:270|262:273|262:273|265:269|265:269|270:272|270:272|273:267|273:267|278:271|278:271|281:266|281:266|286:269|286:269|289:265|289:265|293:268|293:268|297:263|297:263|301:266|301:266|305:262|305:262|309:265|309:265|332:256,1,227.999993041992
256,192,17249,12,0,18214,0:0:0:0:
432,160,18856,6,0,L|268:224,1,152
148,276,19285,1,0,0:0:0:0:
64,152,19499,1,0,0:0:0:0:
184,56,19714,2,0,P|220:92|212:200,1,152
148,276,20035,1,0,0:0:0:0:
148,276,20142,1,0,0:0:0:0:
64,152,20356,6,0,P|128:124|216:144,1,152
312,236,20785,1,0,0:0:0:0:
432,152,20999,1,0,0:0:0:0:
272,72,21214,1,0,0:0:0:0:
240,80,21321,1,0,0:0:0:0:
212,88,21428,1,0,0:0:0:0:
136,244,21642,1,0,0:0:0:0:
160,268,21749,1,0,0:0:0:0:
184,292,21856,1,0,0:0:0:0:
360,316,22071,5,0,0:0:0:0:
360,316,22178,1,0,0:0:0:0:
360,316,22285,2,0,P|372:264|344:156,1,152
240,80,22714,1,0,0:0:0:0:
108,164,22928,1,0,0:0:0:0:
108,164,23035,5,0,0:0:0:0:
108,164,23142,2,0,P|136:212|244:240,1,152
351,169,23571,1,0,0:0:0:0:
472,72,23785,1,0,0:0:0:0:
472,72,23892,1,0,0:0:0:0:
472,72,23999,2,0,L|452:240,1,152
304,312,24428,5,0,0:0:0:0:
272,320,24535,1,0,0:0:0:0:
240,328,24642,1,0,0:0:0:0:
208,336,24749,1,0,0:0:0:0:
180,344,24856,1,0,0:0:0:0:
100,216,25071,1,0,0:0:0:0:
36,92,25285,2,0,P|100:76|184:108,1,152
272,224,25714,6,0,P|312:184|308:64,1,152
180,104,26142,2,0,P|140:144|144:264,1,152
248,328,26571,1,0,0:0:0:0:
404,280,26785,2,0,P|440:264|472:268,3,50.6666666666667
372,144,27214,2,0,P|316:172|260:260,1,152
140,316,27642,5,0,0:0:0:0:
100,172,27856,1,0,0:0:0:0:
52,40,28071,2,0,P|112:36|196:84,1,152
440,308,28714,1,0,0:0:0:0:
440,308,29142,6,0,P|408:280|260:288,1,190
80,292,29571,2,0,L|40:188,1,95
200,152,29785,2,0,L|216:52,1,95
356,148,29999,2,0,L|340:248,1,95
208,320,30214,1,0,0:0:0:0:
208,320,30321,2,0,B|160:276|176:224|176:224|220:96,1,237.5
448,132,30856,6,0,B|389:206|389:206|408:288|334:340,1,218.500004167557
208,320,31178,2,0,B|164:268|184:204|184:204|68:168,1,218.500004167557
188,88,31499,2,0,P|242:112|277:264,1,218.500004167557
408,332,31821,2,0,B|464:296|456:208|456:208|448:104,1,218.500004167557
336,52,32142,2,0,P|281:42|239:189,1,237.5
304,132,32785,6,0,P|320:208|180:256,1,218.500004167557
68,232,33106,2,0,P|72:176|104:128,1,109.250002083778
232,72,33321,1,0,0:0:0:0:
388,88,33428,2,0,P|412:144|376:300,1,218.500004167557
224,340,33749,2,0,B|208:272|136:272|136:272|100:160,1,218.500004167557
172,64,34071,2,0,B|208:184|208:184|256:196|292:264,1,218.500004167557
384,336,34392,2,0,P|408:288|336:128,1,218.500004167557
232,72,34714,6,0,P|179:89|184:212,1,190
256,192,35249,12,0,36321,0:0:0:0:
76,136,36856,6,0,P|95:206|228:249,1,218.500004167557
348,176,37178,1,0,0:0:0:0:
460,88,37285,2,0,P|412:40|364:28,1,109.250002083778
224,52,37499,2,0,B|228:96|252:112|252:112|226:167,1,109.250002083778
192,312,37714,2,0,B|252:308|280:256|280:256|332:144,1,218.500004167557
376,24,38035,1,0,0:0:0:0:
76,136,38249,1,0,0:0:0:0:
76,136,38356,2,0,P|136:180|172:184,1,109.250002083778
312,196,38571,5,0,0:0:0:0:
348,176,38624,1,0,0:0:0:0:
376,144,38678,2,0,L|400:268,1,109.250002083778
276,332,38892,2,0,L|160:304,1,109.250002083778
88,184,39106,1,0,0:0:0:0:
76,136,39160,1,0,0:0:0:0:
68,84,39214,2,0,L|184:112,1,109.250002083778
312,92,39428,6,0,P|296:160|240:212,1,109.250002083778
160,292,39642,1,0,0:0:0:0:
160,292,39696,1,0,0:0:0:0:
160,292,39749,1,0,0:0:0:0:
160,292,39803,1,0,0:0:0:0:
160,292,39856,2,0,B|112:316|112:316|164:148,1,218.500004167557
352,292,40285,2,0,B|400:316|400:316|348:148,1,218.500004167557
160,160,40714,5,0,0:0:0:0:
64,292,40821,1,0,0:0:0:0:
200,272,40928,1,0,0:0:0:0:
60,192,41035,2,0,P|72:116|124:68,1,109.250002083778
240,60,41249,1,0,0:0:0:0:
240,60,41303,1,0,0:0:0:0:
240,60,41356,2,0,P|272:124|260:184,1,109.250002083778
200,272,41571,2,0,P|256:292|380:176,1,218.500004167557
416,56,41892,1,0,0:0:0:0:
288,120,41999,5,0,0:0:0:0:
260,136,42053,1,0,0:0:0:0:
232,148,42106,1,0,0:0:0:0:
200,156,42160,1,0,0:0:0:0:
172,156,42214,1,0,0:0:0:0:
148,148,42267,1,0,0:0:0:0:
124,136,42321,1,0,0:0:0:0:
104,124,42374,1,0,0:0:0:0:
84,108,42428,6,0,L|56:236,1,109.250002083778
140,340,42642,2,0,L|168:212,1,109.250002083778
320,72,42964,2,0,B|332:49|332:49|362:140,1,109.250002083778
185,298,43285,2,0,B|149:347|149:347|109:191,1,218.500004167557
320,72,43714,1,0,0:0:0:0:
320,72,43767,1,0,0:0:0:0:
320,72,43821,1,0,0:0:0:0:
320,72,43874,1,0,0:0:0:0:
320,72,43928,6,0,P|360:116|316:276,1,218.500004167557
184,296,44249,2,0,P|124:244|112:216,1,109.250002083778
100,72,44464,2,0,B|148:64|196:112|196:112|220:188|268:200,1,218.500004167557
432,256,44785,2,0,P|452:188|444:132,1,109.250002083778
320,72,44999,1,0,0:0:0:0:
320,72,45106,1,0,0:0:0:0:
320,72,45214,1,0,0:0:0:0:
120,268,45428,5,0,0:0:0:0:
96,232,45481,1,0,0:0:0:0:
76,200,45535,1,0,0:0:0:0:
128,68,45642,1,0,0:0:0:0:
148,100,45696,1,0,0:0:0:0:
168,132,45749,1,0,0:0:0:0:
240,260,45856,2,0,L|284:324,4,54.6250010418892
424,88,46285,1,0,0:0:0:0:
424,88,46339,1,0,0:0:0:0:
424,88,46392,1,0,0:0:0:0:
424,88,46446,1,0,0:0:0:0:
424,88,46499,1,0,0:0:0:0:
424,88,46553,1,0,0:0:0:0:
424,88,46606,1,0,0:0:0:0:
424,88,46660,1,0,0:0:0:0:
424,88,46714,6,0,B|360:160|360:160|404:216|352:300,1,218.500004167557
146,275,47142,2,0,B|108:216|152:160|152:160|88:88,1,218.500004167557
260,64,47464,2,0,B|304:100|304:100|352:52,2,109.250002083778
324,216,47785,2,0,B|280:180|280:180|232:228,2,109.250002083778
72,56,48321,5,0,0:0:0:0:
180,144,48428,1,0,0:0:0:0:
288,56,48535,1,0,0:0:0:0:
416,144,48642,1,0,0:0:0:0:
180,144,48856,2,0,L|320:144,1,109.250002083778
414,301,49178,1,0,0:0:0:0:
414,301,49285,2,0,B|438:229|438:229|414:137,2,163.875003125668
264,308,49714,6,0,B|248:272|248:272|216:320|160:312|136:272|136:272|112:276|112:276|84:244,1,228
96,124,50142,2,0,B|128:164|128:164|176:168|192:204|192:204|212:176|252:180|252:180|292:160,1,228
412,152,50571,6,0,B|380:212|380:212|332:232|340:268,1,142.5
224,300,50839,2,0,B|220:244|236:204|236:204|220:180|220:180|176:180|180:136,1,190
256,36,51160,2,0,B|276:68|256:100|256:100|292:144|292:144|300:148|340:132,1,142.5
464,220,51428,1,0,0:0:0:0:
456,256,51481,1,0,0:0:0:0:
448,292,51535,1,0,0:0:0:0:
324,336,51642,2,0,P|272:312|232:336,1,95
96,320,51856,1,0,0:0:0:0:
96,320,51910,1,0,0:0:0:0:
96,320,51964,1,0,0:0:0:0:
96,320,52017,1,0,0:0:0:0:
96,320,52071,2,0,P|76:264|112:132,1,190
228,60,52392,6,0,L|272:24,2,47.5
316,160,52606,1,0,0:0:0:0:
388,268,52714,2,0,L|444:288,2,47.5
232,268,52928,2,0,L|188:304,2,47.5
316,160,53249,2,0,L|316:72,1,71.2500027179719
316,88,53571,1,0,0:0:0:0:
316,88,53785,1,0,0:0:0:0:
316,88,53999,6,0,P|264:104|168:72,1,152
68,204,54428,1,0,0:0:0:0:
232,308,54642,1,0,0:0:0:0:
392,236,54856,6,0,B|395:215|395:215|416:206|415:185|415:185|461:155|436:86,1,152
316,88,55178,1,0,0:0:0:0:
200,56,55285,2,0,B|165:99|199:141|199:141|192:162|209:177|209:177|206:197,1,152
376,328,55714,21,0,0:0:0:0:
304,132,55928,1,0,0:0:0:0:
116,88,56142,6,0,B|126:114|126:114|142:114|154:150|154:150|183:152|183:152|183:185|214:196,1,152
320,256,56464,1,0,0:0:0:0:
452,308,56571,22,0,P|464:240|420:156,1,152
316,88,56892,1,0,0:0:0:0:
200,56,56999,6,0,B|176:68|184:100|184:100|156:108|164:152|164:152|124:172,1,152
68,296,57321,1,0,0:0:0:0:
208,328,57428,21,0,0:0:0:0:
396,172,57642,5,0,0:0:0:0:
208,328,57856,21,0,0:0:0:0:
108,132,58071,5,0,0:0:0:0:
232,104,58178,1,0,0:0:0:0:
376,64,58285,21,0,0:0:0:0:
108,132,58499,6,0,B|134:143|134:143|144:162|165:169|165:169|175:188|175:188|209:185|222:207|222:207|238:225,1,152
416,316,58928,21,0,0:0:0:0:
416,316,59035,1,0,0:0:0:0:
416,316,59142,2,0,P|440:256|408:148,1,152
232,104,59571,1,0,0:0:0:0:
108,132,59678,1,0,0:0:0:0:
220,244,59785,1,0,0:0:0:0:
76,272,59892,1,0,0:0:0:0:
108,132,59999,6,0,B|140:160|140:160|168:152|168:152|188:164|188:164|200:164|220:184|264:168|264:168|320:184,2,218.500004167557
400,72,60856,5,0,0:0:0:0:
368,208,61071,1,0,0:0:0:0:
248,280,61285,1,0,0:0:0:0:
256,128,61499,1,0,0:0:0:0:
128,200,61714,1,0,0:0:0:0:
148,56,61928,2,0,P|184:24|204:16,3,47.5000018119813
256,128,62356,1,0,0:0:0:0:
256,128,62571,6,0,B|232:172|180:184|180:184|264:272,1,218.500004167557
408,320,62892,1,0,0:0:0:0:
408,320,62999,2,0,B|432:280|392:244|392:244|344:200|344:200|364:176|368:120,1,218.500004167557
244,20,63321,2,0,L|256:136,1,109.250002083778
208,296,63535,1,0,0:0:0:0:
208,296,63589,1,0,0:0:0:0:
208,296,63642,2,0,P|168:252|156:192,1,109.250002083778
136,28,63856,2,0,L|248:20,1,109.250002083778
408,64,64071,6,0,L|472:60,3,50.6666666666667
416,164,64392,2,0,L|368:236,1,76
280,228,64606,2,0,L|204:288,1,76
108,240,64821,2,0,L|24:272,2,76
220,276,65142,6,0,B|284:224|284:224|272:108,1,190
408,64,65464,2,0,L|420:168,1,95
368,312,65678,1,0,0:0:0:0:
368,312,65785,2,0,L|408:212,1,95
272,116,65999,5,0,0:0:0:0:
108,160,66214,1,0,0:0:0:0:
240,264,66428,1,0,0:0:0:0:
404,224,66642,1,0,0:0:0:0:
272,116,66856,2,0,P|224:100|104:164,1,190
404,224,67714,5,0,0:0:0:0:
108,160,68142,1,0,0:0:0:0:
108,160,68249,1,0,0:0:0:0:
108,160,68356,1,0,0:0:0:0:
208,40,68571,2,0,B|220:66|220:66|264:80|269:129|269:129|298:146|298:146|311:184|311:184|362:218,1,218.500004167557
480,272,68892,2,0,B|464:340|396:336|396:336|360:316|360:316|328:316|328:316|276:280,1,218.500004167557
208,200,69214,2,0,B|188:168|188:168|188:128|140:112,1,109.250002083778
44,248,69428,1,0,0:0:0:0:
44,248,69481,1,0,0:0:0:0:
44,248,69535,1,0,0:0:0:0:
44,248,69589,1,0,0:0:0:0:
44,248,69642,2,0,B|76:304|76:304|140:316,1,109.250002083778
356,228,69964,5,0,0:0:0:0:
356,228,70071,2,0,B|353:184|353:184|311:177|301:139|301:139|261:129|261:129|246:45,1,218.500004167557
104,32,70392,2,0,L|124:148,1,109.250002083778
220,276,70606,1,0,0:0:0:0:
380,328,70714,1,0,0:0:0:0:
416,316,70767,1,0,0:0:0:0:
452,304,70821,2,0,B|464:276|464:276|440:248|464:196|464:196|436:160|436:160|456:124|420:88,1,218.500004167557
288,48,71142,6,0,P|228:92|364:104,1,327.750006251335
292,120,71571,2,0,P|284:168|160:128,1,218.500004167557
68,320,71999,6,0,B|72:280|116:246|116:246|107:208|107:208|151:188|159:136,1,218.500004167557
288,48,72321,2,0,B|354:91|338:171|338:171|378:183|378:183|402:215,1,218.500004167557
300,336,72642,1,0,0:0:0:0:
188,240,72749,1,0,0:0:0:0:
228,100,72856,2,0,P|212:68|176:52,2,54.6250010418892
188,240,73071,1,0,0:0:0:0:
188,240,73178,6,0,B|238:259|271:199|271:199|305:211|305:211|331:167|410:184,1,218.500004167557
476,284,73499,1,0,0:0:0:0:
476,284,73553,1,0,0:0:0:0:
476,284,73606,1,0,0:0:0:0:
373,179,73714,2,0,B|332:144|320:116|320:116|296:136|296:136|248:72|180:108,1,218.500004167557
64,148,74035,2,0,P|124:164|180:136,1,109.250002083778
304,44,74249,2,0,B|352:28|388:84|388:84|404:116|436:128|436:128|452:204,1,218.500004167557
456,316,74571,1,0,0:0:0:0:
456,316,75428,5,2,0:0:0:0:
316,256,75642,1,0,0:0:0:0:
176,316,75856,1,0,0:0:0:0:
104,172,76071,1,0,0:0:0:0:
268,104,76285,1,2,0:0:0:0:
316,256,76499,1,0,0:0:0:0:
344,280,76606,1,0,0:0:0:0:
368,300,76714,1,0,0:0:0:0:
436,148,76928,1,0,0:0:0:0:
268,104,77142,5,2,0:0:0:0:
104,172,77356,1,0,0:0:0:0:
236,288,77571,1,2,0:0:0:0:
392,224,77785,1,0,0:0:0:0:
408,188,77892,1,0,0:0:0:0:
424,148,77999,1,2,0:0:0:0:
268,104,78214,5,0,0:0:0:0:
252,136,78321,1,0,0:0:0:0:
236,168,78428,1,2,0:0:0:0:
124,280,78642,1,0,0:0:0:0:
116,240,78749,1,0,0:0:0:0:
108,196,78856,1,2,0:0:0:0:
140,52,79071,5,0,0:0:0:0:
268,104,79285,1,2,0:0:0:0:
424,148,79499,1,0,0:0:0:0:
440,184,79606,1,0,0:0:0:0:
456,220,79714,1,2,0:0:0:0:
344,316,79928,1,0,0:0:0:0:
208,240,80142,1,2,0:0:0:0:
268,104,80356,1,0,0:0:0:0:
296,72,80464,1,0,0:0:0:0:
320,40,80571,5,0,0:0:0:0:
88,80,80785,1,0,0:0:0:0:
136,204,80892,2,0,L|300:272,1,163.875003125668
324,280,81106,1,0,0:0:0:0:
324,280,81160,1,0,0:0:0:0:
324,280,81214,1,0,0:0:0:0:
324,280,81267,1,0,0:0:0:0:
324,280,81321,1,0,0:0:0:0:
324,280,81374,1,0,0:0:0:0:
324,280,81428,6,0,P|364:224|412:208,1,109.250002083778
340,80,81642,2,0,P|292:128|168:64,1,218.500004167557
256,40,82071,1,0,0:0:0:0:
256,40,82124,1,0,0:0:0:0:
256,40,82178,1,0,0:0:0:0:
256,40,82231,1,0,0:0:0:0:
256,40,82285,6,0,P|248:92|372:184,1,218.500004167557
468,76,82606,1,0,0:0:0:0:
363,185,82714,2,0,P|304:232|276:280,1,109.250002083778
152,344,82928,2,0,P|112:296|108:224,1,109.250002083778
112,88,83142,6,0,B|132:128|132:128|176:160|176:160|204:208,1,152
244,312,83464,1,0,0:0:0:0:
348,328,83571,1,0,0:0:0:0:
348,328,83785,1,0,0:0:0:0:
348,328,83999,6,0,L|420:224,1,109.250002083778
376,84,84214,2,0,L|304:188,1,109.250002083778
244,312,84428,1,0,0:0:0:0:
112,320,84535,2,0,L|48:340,2,54.6250010418892
172,204,84749,1,0,0:0:0:0:
172,204,84803,1,0,0:0:0:0:
172,204,84856,6,0,B|200:156|200:156|200:88,1,95
200,80,85017,2,0,B|248:64|248:64|312:92,1,95
320,96,85178,2,0,B|368:112|368:112|432:84,2,95
288,216,85499,1,0,0:0:0:0:
288,216,85606,1,0,0:0:0:0:
288,216,85714,2,0,B|188:172|188:172|76:196,1,218.500004167557
36,336,86035,2,0,L|172:304,1,109.250002083778
396,280,86356,6,0,P|408:232|376:128,1,152
272,56,86678,1,0,0:0:0:0:
236,48,86731,1,0,0:0:0:0:
200,40,86785,1,0,0:0:0:0:
88,192,86999,2,0,B|88:200|88:200|66:208|72:233|72:233|47:247,2,71.2500027179719
192,256,87214,2,0,B|188:264|188:264|192:264|192:264|188:272|188:272|196:288,4,35.625001358986
316,296,87428,6,0,B|392:300|416:236|416:236|396:120,1,218.500004167557
160,76,87856,1,0,0:0:0:0:
94,203,87964,1,0,0:0:0:0:
229,253,88071,1,0,0:0:0:0:
295,126,88178,1,0,0:0:0:0:
160,76,88285,2,0,B|90:96|90:96|37:159,2,142.500005435944
256,192,88928,12,0,90856,0:0:0:0:
160,80,91285,5,0,0:0:0:0:
160,80,91714,1,0,0:0:0:0:
160,80,92142,2,0,B|171:79|171:79|172:90|172:90|183:89|183:89|184:100|184:100|195:99|195:99|196:110|196:110|208:109|208:109|209:121|205:118|217:117|217:117|218:128|218:128|229:127|229:127|230:139|230:139|241:138|241:138|242:149|242:149|254:148|254:148|254:159|254:159|266:158|266:158|267:169,1,190
266,160,92999,6,0,P|248:200|348:276,1,190
456,252,93321,2,0,B|444:192|396:168|396:168|412:92|360:64,1,190
272,60,93642,2,0,P|232:72|164:152,1,142.500005435944
136,272,93964,1,0,0:0:0:0:
252,340,94071,1,0,0:0:0:0:
372,292,94178,1,0,0:0:0:0:
424,176,94285,5,0,0:0:0:0:
436,144,94339,1,0,0:0:0:0:
448,116,94392,1,0,0:0:0:0:
460,88,94446,1,0,0:0:0:0:
472,60,94499,2,0,L|368:92,1,95
240,116,94714,2,0,P|196:152|200:228,1,95
276,276,94928,2,0,P|320:240|316:164,1,95
328,204,95356,5,0,0:0:0:0:
164,120,95678,1,0,0:0:0:0:
192,292,95999,2,0,L|164:352,4,47.5
376,56,96749,6,0,P|328:92|376:200,1,190
400,128,97071,2,0,P|440:168|384:272,1,190
304,284,97392,1,0,0:0:0:0:
100,252,97714,2,0,B|80:208|80:208|104:152,1,95
176,172,97928,2,0,B|196:128|196:128|172:72,1,95
248,28,98142,1,0,0:0:0:0:
264,56,98196,1,0,0:0:0:0:
276,84,98249,1,0,0:0:0:0:
288,116,98303,1,0,0:0:0:0:
280,148,98356,1,0,0:0:0:0:
268,176,98410,1,0,0:0:0:0:
256,204,98464,2,0,L|204:296,1,95
424,252,98785,5,0,0:0:0:0:
100,60,99106,2,0,B|84:108|84:108|100:160,1,95
224,328,99428,1,0,0:0:0:0:
368,316,99535,1,0,0:0:0:0:
368,316,99589,1,0,0:0:0:0:
368,316,99642,2,0,L|396:200,1,95
360,80,99964,5,0,0:0:0:0:
360,80,100071,1,0,0:0:0:0:
360,80,100178,1,0,0:0:0:0:
360,80,100285,2,0,P|316:116|192:88,1,190
88,236,100714,1,0,0:0:0:0:
88,236,100821,2,0,P|140:204|192:80,1,190
80,52,101142,6,0,B|72:104|72:104|108:144,1,95
232,204,101356,2,0,B|276:220|276:220|320:184,2,95
100,136,101678,2,0,P|164:92|276:104,1,190
412,248,102214,2,0,P|348:292|236:280,1,190
132,232,102535,2,0,P|76:208|32:212,1,95
42,209,102856,6,0,L|144:36,2,190
32,240,103767,1,0,0:0:0:0:
32,272,103821,1,0,0:0:0:0:
44,304,103874,1,0,0:0:0:0:
64,328,103928,1,0,0:0:0:0:
92,344,103981,1,0,0:0:0:0:
124,348,104035,1,0,0:0:0:0:
156,344,104089,1,0,0:0:0:0:
188,332,104142,6,0,L|276:288,1,95
328,156,104356,2,0,L|240:200,1,95
128,252,104571,1,0,0:0:0:0:
128,252,104624,1,0,0:0:0:0:
128,252,104678,1,0,0:0:0:0:
128,252,104731,1,0,0:0:0:0:
128,252,104785,1,0,0:0:0:0:
128,252,104839,1,0,0:0:0:0:
128,252,104892,1,0,0:0:0:0:
128,252,104946,1,0,0:0:0:0:
128,252,104999,2,0,P|112:204|136:96,1,142.500005435944
392,72,105642,5,0,0:0:0:0:
440,192,105964,1,0,0:0:0:0:
392,312,106285,2,0,B|320:340|320:340|228:304,1,142.500005435944
232,304,106606,2,0,B|168:276|168:276|88:304,1,142.5
100,300,107142,2,0,B|76:212|76:212|116:96,2,213.750008153916
256,200,108214,1,0,0:0:0:0:
256,192,108267,1,0,0:0:0:0:
256,184,108321,1,0,0:0:0:0:
256,176,108374,1,0,0:0:0:0:
256,168,108428,1,0,0:0:0:0:
256,160,108481,1,0,0:0:0:0:
256,152,108535,1,0,0:0:0:0:
256,144,108589,1,0,0:0:0:0:
256,136,108642,1,0,0:0:0:0:
256,128,108696,1,0,0:0:0:0:
256,120,108749,1,0,0:0:0:0:
256,116,108803,1,0,0:0:0:0:
256,108,108856,1,4,0:0:0:0:
164,96,116571,6,0,P|152:156|208:228,1,142.500005435944
312,280,116999,1,0,0:0:0:0:
432,320,117214,2,0,P|432:252|364:176,1,142.500005435944
284,120,117642,1,0,0:0:0:0:
252,96,117749,1,0,0:0:0:0:
224,76,117856,1,0,0:0:0:0:
92,92,118071,6,0,P|112:144|100:232,1,142.500005435944
200,304,118499,2,0,P|240:284|344:300,1,142.500005435944
432,220,118928,1,0,0:0:0:0:
440,184,119035,1,0,0:0:0:0:
448,152,119142,1,0,0:0:0:0:
352,68,119356,1,0,0:0:0:0:
336,96,119464,1,0,0:0:0:0:
320,124,119571,1,0,0:0:0:0:
232,232,119785,5,0,0:0:0:0:
200,240,119892,1,0,0:0:0:0:
168,252,119999,2,0,P|120:256|60:180,2,142.500005435944
212,140,120642,1,0,0:0:0:0:
224,108,120749,1,0,0:0:0:0:
236,76,120856,1,0,0:0:0:0:
352,68,121071,2,0,P|380:116|360:212,1,142.500005435944
292,300,121499,1,0,0:0:0:0:
260,316,121606,1,0,0:0:0:0:
232,328,121714,1,0,0:0:0:0:
256,192,121821,12,0,123214,0:0:0:0:
208,276,123428,6,0,P|276:288|344:252,1,109.250002083778
392,148,123642,2,0,P|324:136|256:172,1,109.250002083778
128,192,123856,1,0,0:0:0:0:
48,332,123964,1,0,0:0:0:0:
48,332,124017,1,0,0:0:0:0:
48,332,124071,2,0,P|28:260|48:96,1,218.500004167557
180,40,124392,6,0,P|192:104|164:152,1,109.250002083778
104,268,124606,2,0,P|168:256|216:284,1,109.250002083778
332,344,124821,2,0,P|320:280|348:232,1,109.250002083778
408,116,125035,2,0,P|344:128|296:100,1,109.250002083778
180,40,125249,2,0,P|168:104|196:152,1,109.250002083778
320,256,125464,1,0,0:0:0:0:
320,256,125517,1,0,0:0:0:0:
320,256,125571,2,0,P|400:288|440:272,2,109.250002083778
168,240,125892,5,0,0:0:0:0:
168,240,125946,1,0,0:0:0:0:
168,240,125999,2,0,P|196:168|340:116,1,218.500004167557
472,64,126321,2,0,P|480:124|448:188,1,109.250002083778
380,292,126535,1,0,0:0:0:0:
352,316,126589,1,0,0:0:0:0:
328,340,126642,2,0,L|212:308,1,109.250002083778
72,308,126856,6,0,B|68:236|128:184|128:184|104:100,2,218.500004167557
222,310,127392,1,0,0:0:0:0:
356,228,127499,1,0,0:0:0:0:
220,156,127606,1,0,0:0:0:0:
344,80,127714,2,0,L|200:16,1,109.250002083778
104,56,127928,2,0,L|216:112,1,109.250002083778
356,160,128142,1,0,0:0:0:0:
356,160,128196,1,0,0:0:0:0:
356,160,128249,6,0,P|352:216|296:264,1,109.250002083778
164,304,128464,1,0,0:0:0:0:
24,340,128571,2,0,L|56:220,1,109.250002083778
52,80,128785,2,0,L|172:112,1,109.250002083778
316,152,128999,1,0,0:0:0:0:
392,316,129106,1,0,0:0:0:0:
400,168,129214,1,0,0:0:0:0:
288,324,129321,1,0,0:0:0:0:
240,180,129428,2,0,P|276:228|396:164,2,218.500004167557
200,40,129964,6,0,P|140:72|112:140,1,109.250002083778
112,136,130124,1,0,0:0:0:0:
108,176,130178,1,0,0:0:0:0:
112,212,130231,1,0,0:0:0:0:
128,240,130285,2,0,B|136:272|168:272|168:272|248:260,1,109.250002083778
316,152,130499,2,0,P|352:212|312:360,1,218.500004167557
168,352,130821,2,0,P|104:335|60:280,1,109.250002083778
52,168,131035,2,0,P|115:184|160:240,1,109.250002083778
252,296,131249,2,0,P|272:232|256:168,1,109.250002083778
260,160,131410,1,0,0:0:0:0:
248,128,131464,1,0,0:0:0:0:
228,104,131517,1,0,0:0:0:0:
208,80,131571,6,0,P|292:56|408:128,1,218.500004167557
488,232,131892,2,0,P|424:272|360:248,1,109.250002083778
252,228,132106,1,0,0:0:0:0:
216,216,132160,1,0,0:0:0:0:
176,212,132214,1,0,0:0:0:0:
140,220,132267,1,0,0:0:0:0:
108,236,132321,6,0,L|56:108,1,109.250002083778
208,80,132535,1,0,0:0:0:0:
380,80,132642,2,0,P|347:181|252:228,1,218.500004167557
220,232,132910,1,0,0:0:0:0:
184,244,132964,1,0,0:0:0:0:
160,268,133017,1,0,0:0:0:0:
140,296,133071,1,0,0:0:0:0:
80,108,133285,1,0,0:0:0:0:
112,120,133339,1,0,0:0:0:0:
144,128,133392,1,0,0:0:0:0:
176,128,133446,1,0,0:0:0:0:
208,120,133499,2,0,P|264:104|348:224,1,218.500004167557
288,348,133821,5,0,0:0:0:0:
288,348,133874,1,0,0:0:0:0:
288,348,133928,2,0,P|244:296|236:252,1,109.250002083778
208,120,134142,1,0,0:0:0:0:
208,120,134196,1,0,0:0:0:0:
208,120,134249,1,0,0:0:0:0:
208,120,134303,1,0,0:0:0:0:
208,120,134356,2,0,L|116:56,1,109.250002083778
44,188,134571,6,0,P|96:236|248:256,1,218.500004167557
408,208,134892,1,0,0:0:0:0:
424,180,134946,1,0,0:0:0:0:
432,148,134999,1,0,0:0:0:0:
424,116,135053,1,0,0:0:0:0:
408,88,135106,1,0,0:0:0:0:
384,68,135160,1,0,0:0:0:0:
356,56,135214,2,0,P|304:52|272:64,1,71.2500027179719
144,108,135428,6,0,P|96:148|168:284,1,218.500004167557
272,340,135749,2,0,P|296:288|284:236,1,109.250002083778
264,208,135910,1,0,0:0:0:0:
244,176,135964,1,0,0:0:0:0:
236,136,136017,1,0,0:0:0:0:
244,100,136071,2,0,P|260:60|320:32,1,109.250002083778
432,148,136285,6,0,P|416:188|356:216,1,109.250002083778
188,208,136499,1,0,0:0:0:0:
44,172,136606,1,0,0:0:0:0:
44,172,136660,1,0,0:0:0:0:
44,172,136714,1,0,0:0:0:0:
44,172,136767,1,0,0:0:0:0:
44,172,136821,1,0,0:0:0:0:
44,172,136874,1,0,0:0:0:0:
44,172,136928,6,0,P|56:240|88:280,1,109.250002083778
104,292,137089,1,0,0:0:0:0:
136,304,137142,1,0,0:0:0:0:
172,312,137249,1,0,0:0:0:0:
208,312,137303,1,0,0:0:0:0:
244,304,137356,2,0,L|360:276,1,109.250002083778
480,208,137571,5,0,0:0:0:0:
456,168,137624,1,0,0:0:0:0:
432,136,137678,1,0,0:0:0:0:
400,116,137731,1,0,0:0:0:0:
368,104,137785,1,0,0:0:0:0:
332,96,137839,1,0,0:0:0:0:
300,92,137892,2,0,P|232:96|180:128,1,109.250002083778
80,200,138106,6,0,P|130:245|190:259,1,109.250002083778
204,264,138267,1,0,0:0:0:0:
236,264,138321,1,0,0:0:0:0:
272,260,138374,1,0,0:0:0:0:
304,248,138428,5,0,0:0:0:0:
328,228,138481,1,0,0:0:0:0:
352,204,138535,1,0,0:0:0:0:
360,172,138589,1,0,0:0:0:0:
368,140,138642,6,0,L|380:64,4,54.6250010418892
80,200,139285,1,0,0:0:0:0:
256,64,139714,5,0,0:0:0:0:
256,72,139767,1,0,0:0:0:0:
256,80,139821,1,0,0:0:0:0:
256,88,139874,1,0,0:0:0:0:
256,96,139928,1,0,0:0:0:0:
256,104,139981,1,0,0:0:0:0:
256,112,140035,1,0,0:0:0:0:
256,120,140089,1,0,0:0:0:0:
256,128,140142,1,0,0:0:0:0:
256,136,140196,1,0,0:0:0:0:
256,144,140249,1,0,0:0:0:0:
256,152,140303,1,0,0:0:0:0:
256,160,140356,1,0,0:0:0:0:
256,168,140410,1,0,0:0:0:0:
256,176,140464,1,0,0:0:0:0:
256,184,140517,1,0,0:0:0:0:
256,192,140571,1,0,0:0:0:0:
256,324,140999,5,4,0:0:0:0:
256,192,141106,12,0,143785,0:0:0:0:
256,64,143999,5,0,0:0:0:0:
256,96,144053,1,0,0:0:0:0:
256,132,144106,1,0,0:0:0:0:
