osu file format v12

[General]
AudioFilename: Doppelganger.mp3
AudioLeadIn: 0
PreviewTime: 39428
Countdown: 0
SampleSet: Normal
StackLeniency: 0.3
Mode: 0
LetterboxInBreaks: 1
WidescreenStoryboard: 1

[Editor]
Bookmarks: 11571,60428
DistanceSpacing: 0.6
BeatDivisor: 4
GridSize: 4

[Metadata]
Title:Doppelganger
TitleUnicode:Doppelganger
Artist:LeaF
ArtistUnicode:LeaF
Creator:Michi
Version:Terror
Source:
Tags:
BeatmapID:310882
BeatmapSetID:121367

[Difficulty]
HPDrainRate:6
CircleSize:4
OverallDifficulty:8
ApproachRate:10
SliderMultiplier:1.8
SliderTickRate:1

[Events]
//Background and Video events
0,0,"BG.jpg",0,0
//Break Periods
//Storyboard Layer 0 (Background)
//Storyboard Layer 1 (Fail)
//Storyboard Layer 2 (Pass)
//Storyboard Layer 3 (Foreground)
//Storyboard Sound Samples
//Background Colour Transformations
3,100,163,162,255

[TimingPoints]
-0.192103170113086,214.285714285714,4,1,0,70,1,0
10285,-80,4,1,0,70,0,0
13714,-100,4,1,0,70,0,0
15214,-200,4,1,0,70,0,0
16714,-100,4,1,0,70,0,0
18214,-200,4,1,0,70,0,0
29142,-100,4,1,0,70,0,0
30856,-200,4,1,0,70,0,0
36856,-100,4,1,0,70,0,0
47149,-200,4,1,0,70,0,0
47356,-100,4,1,0,70,0,0
53249,-133.333333333333,4,1,0,70,0,0

[HitObjects]
112,88,0,1,0,0:0:0:0:
112,88,106,1,0,0:0:0:0:
352,72,321,1,0,0:0:0:0:
404,296,535,1,0,0:0:0:0:
184,224,749,1,0,0:0:0:0:
116,324,964,5,0,0:0:0:0:
204,340,1071,1,0,0:0:0:0:
280,292,1178,1,0,0:0:0:0:
300,204,1285,2,0,P|296:120|220:76,2,180
280,292,1821,5,0,0:0:0:0:
204,340,1928,1,0,0:0:0:0:
116,324,2035,2,0,P|40:282|35:195,2,180
368,76,2678,5,0,0:0:0:0:
368,76,2785,1,0,0:0:0:0:
368,76,2892,1,0,0:0:0:0:
368,76,2999,2,0,B|280:92,1,90
260,88,3160,1,0,0:0:0:0:
252,104,3214,1,0,0:0:0:0:
244,120,3267,1,0,0:0:0:0:
236,136,3321,1,0,0:0:0:0:
228,152,3374,1,0,0:0:0:0:
220,172,3428,6,0,P|216:216|248:248,1,90
448,200,3642,2,0,L|368:160,1,90
176,60,3856,1,0,0:0:0:0:
40,80,3964,2,0,P|44:120|80:156,1,90
328,296,4178,2,0,P|259:351|177:330,1,180
36,256,4499,2,0,P|64:224|108:212,1,90
312,76,4714,2,0,P|304:120|280:160,1,90
200,308,4928,2,0,P|208:264|232:224,1,90
280,160,5142,5,0,0:0:0:0:
360,120,5249,1,0,0:0:0:0:
400,200,5356,1,0,0:0:0:0:
320,244,5464,1,0,0:0:0:0:
136,80,5678,5,0,0:0:0:0:
136,304,5892,1,0,0:0:0:0:
376,304,6106,1,0,0:0:0:0:
376,304,6214,1,0,0:0:0:0:
376,80,6428,1,0,0:0:0:0:
256,196,6642,5,0,0:0:0:0:
256,196,6696,1,0,0:0:0:0:
256,196,6749,1,0,0:0:0:0:
256,196,6803,1,0,0:0:0:0:
256,196,6856,6,0,P|216:220|164:216,1,90
60,116,7071,2,0,P|92:84|140:80,1,90
292,64,7285,1,0,0:0:0:0:
344,144,7392,2,0,P|344:232|272:280,2,180
292,64,7928,2,0,L|220:120,1,90
92,232,8142,2,0,L|172:280,1,90
420,232,8356,2,0,L|340:280,1,90
256,344,8571,5,0,0:0:0:0:
180,72,8785,1,0,0:0:0:0:
108,124,8892,1,0,0:0:0:0:
332,72,9106,1,0,0:0:0:0:
404,124,9213,1,0,0:0:0:0:
256,344,9428,1,0,0:0:0:0:
256,192,9481,12,0,10285,0:0:0:0:
256,192,10392,5,0,0:0:0:0:
161,76,10499,2,0,P|114:139|119:218,1,112.5
140,286,10714,2,0,P|203:333|282:328,1,112.5
350,307,10928,2,0,P|397:244|392:165,1,112.5
371,97,11142,2,0,P|308:50|229:55,1,112.5
402,212,11356,6,0,P|388:266|350:307,1,112.5
235,338,11571,2,0,P|181:324|140:286,1,112.5
109,171,11785,2,0,P|192:44|356:80,1,337.5
444,201,12214,6,0,P|454:150|418:101,1,112.5
264,3,12428,2,0,P|214:-6|165:29,1,112.5
66,182,12642,2,0,P|57:233|93:282,1,112.5
246,380,12856,2,0,P|297:390|346:354,1,112.5
90,280,13071,6,0,P|56:237|66:182,1,112.5
166,26,13285,2,0,P|210:-6|264:3,1,112.5
420,103,13499,2,0,P|454:146|444:201,1,112.5
388,272,13714,5,0,0:0:0:0:
256,84,13928,2,0,L|256:56,6,22.5
256,104,14142,2,0,L|256:240,2,135
160,144,14571,2,0,L|116:228,1,90
72,324,14785,5,0,0:0:0:0:
88,320,14839,1,0,0:0:0:0:
104,316,14892,1,0,0:0:0:0:
124,312,14946,1,0,0:0:0:0:
144,308,14999,1,0,0:0:0:0:
176,300,15053,1,0,0:0:0:0:
208,292,15106,1,0,0:0:0:0:
240,284,15160,1,0,0:0:0:0:
272,276,15214,6,0,L|316:264,1,45
408,172,15428,2,0,L|320:196,1,90
236,40,15749,2,0,L|260:128,1,90
104,212,16071,2,0,L|192:188,1,90
276,344,16392,2,0,L|252:256,1,90
200,60,16714,6,0,P|354:116|335:295,1,360
256,192,17196,12,0,18106,0:0:0:0:
172,124,18214,5,0,0:0:0:0:
252,160,18321,1,0,0:0:0:0:
336,184,18428,2,0,L|412:132,1,90
104,328,18856,6,0,L|192:292,1,90
272,260,19285,1,0,0:0:0:0:
360,276,19499,1,0,0:0:0:0:
72,104,19714,6,0,L|144:168,1,90
256,196,20035,1,0,0:0:0:0:
372,163,20142,2,0,L|440:104,1,90
64,268,20571,5,0,0:0:0:0:
256,344,20785,1,0,0:0:0:0:
448,268,20999,1,0,0:0:0:0:
360,40,21214,1,0,0:0:0:0:
300,104,21321,1,0,0:0:0:0:
256,180,21428,1,0,0:0:0:0:
152,40,21642,1,0,0:0:0:0:
214,104,21749,1,0,0:0:0:0:
256,180,21856,1,0,0:0:0:0:
256,344,22071,5,0,0:0:0:0:
256,260,22178,1,0,0:0:0:0:
256,180,22285,2,0,L|256:88,1,90
256,90,22714,1,0,0:0:0:0:
48,244,22928,5,0,0:0:0:0:
128,244,23035,1,0,0:0:0:0:
208,244,23142,1,0,0:0:0:0:
464,244,23356,2,0,L|368:244,1,90
48,244,23785,5,0,0:0:0:0:
128,244,23892,1,0,0:0:0:0:
208,244,23999,1,0,0:0:0:0:
208,244,24214,1,0,0:0:0:0:
357,33,24428,1,0,0:0:0:0:
428,92,24535,1,0,0:0:0:0:
417,182,24642,1,0,0:0:0:0:
335,223,24749,1,0,0:0:0:0:
257,176,24856,2,0,L|164:136,3,90
196,320,25714,5,0,0:0:0:0:
320,304,25928,1,0,0:0:0:0:
84,264,26142,1,0,0:0:0:0:
416,228,26356,1,0,0:0:0:0:
232,52,26571,6,0,L|184:132,1,90
172,148,26856,1,0,0:0:0:0:
160,164,26928,1,0,0:0:0:0:
148,180,26999,2,0,L|236:236,1,90
416,96,27428,6,0,P|380:120|328:108,3,90
408,196,28285,2,0,P|344:220|272:148,1,180
272,149,28928,1,0,0:0:0:0:
165,220,29142,6,0,L|76:64,2,180
165,220,29678,1,0,0:0:0:0:
165,220,29785,1,0,0:0:0:0:
165,220,29892,1,0,0:0:0:0:
165,220,29999,1,0,0:0:0:0:
165,220,30106,1,0,0:0:0:0:
165,220,30214,1,0,0:0:0:0:
165,220,30321,2,0,B|208:272|236:272|236:272|260:276|288:256|288:256|320:272,1,180
400,308,30642,1,0,0:0:0:0:
372,60,30856,6,0,L|424:136,1,90
140,60,31178,2,0,L|88:136,1,90
140,324,31499,2,0,L|88:248,1,90
372,324,31821,2,0,L|424:248,1,90
232,156,32142,6,0,P|215:173|268:151,1,225
116,168,32785,6,0,L|76:192,1,45
256,272,32999,2,0,L|256:324,1,45
396,168,33214,2,0,L|436:192,1,45
256,96,33428,6,0,L|256:0,1,90
352,192,33749,2,0,L|448:192,1,90
256,288,34071,2,0,L|256:384,1,90
160,192,34392,2,0,L|64:192,1,90
316,88,34714,6,0,P|337:104|250:71,1,630
96,196,36856,6,0,P|136:272|224:268,1,180
304,232,37178,1,0,0:0:0:0:
400,40,37285,2,0,L|400:136,1,90
400,344,37499,2,0,L|400:248,1,90
256,124,37714,2,0,P|204:196|256:256,1,180
400,344,38035,1,0,0:0:0:0:
400,344,38249,1,0,0:0:0:0:
400,344,38356,1,0,0:0:0:0:
130,38,38571,6,0,L|116:80,1,45
136,120,38678,2,0,L|164:160,1,45
172,200,38785,2,0,L|152:252,1,45
140,284,38892,2,0,L|108:316,2,45
256,300,39106,6,0,L|256:352,2,45
256,192,39321,1,0,0:0:0:0:
256,192,39428,1,0,0:0:0:0:
256,84,39535,2,0,L|256:32,2,45
256,192,39749,1,0,0:0:0:0:
432,192,39856,5,0,0:0:0:0:
80,192,40071,1,0,0:0:0:0:
432,192,40285,2,0,L|340:192,1,90
80,192,40499,2,0,L|172:192,1,90
408,288,40714,6,0,P|340:332|244:308,1,180
176,256,41035,1,0,0:0:0:0:
156,76,41142,2,0,L|164:168,1,90
176,256,41356,2,0,L|252:208,1,90
388,40,41571,6,0,P|404:128|332:164,1,180
248,144,41892,1,0,0:0:0:0:
220,60,41999,1,0,0:0:0:0:
204,76,42053,1,0,0:0:0:0:
188,92,42106,1,0,0:0:0:0:
172,108,42160,1,0,0:0:0:0:
156,124,42214,1,0,0:0:0:0:
140,140,42267,1,0,0:0:0:0:
124,156,42321,1,0,0:0:0:0:
108,172,42374,1,0,0:0:0:0:
92,188,42428,6,0,L|112:276,1,90
420,188,42642,2,0,L|400:276,1,90
200,260,42964,5,0,0:0:0:0:
248,184,43071,2,0,L|344:28,2,180
456,296,43714,2,0,L|472:320,7,22.5
456,296,43928,6,0,L|352:144,1,180
354,147,44196,1,0,0:0:0:0:
354,147,44249,2,0,L|328:112,2,45
456,296,44464,2,0,L|480:328,4,22.5
372,328,44678,1,0,0:0:0:0:
284,304,44785,6,0,P|244:280|220:236,1,90
184,160,44999,2,0,L|192:132,2,22.5
136,156,45106,2,0,L|120:124,2,22.5
156,200,45214,2,0,L|152:232,4,22.5
328,60,45428,5,0,0:0:0:0:
328,60,45481,1,0,0:0:0:0:
328,60,45535,2,0,P|288:80|240:72,1,90
244,74,45696,1,0,0:0:0:0:
244,74,45749,2,0,L|152:56,1,90
156,56,45910,1,0,0:0:0:0:
156,56,45964,2,0,L|124:48,4,22.5
260,256,46285,5,0,0:0:0:0:
289,271,46338,1,0,0:0:0:0:
300,302,46392,1,0,0:0:0:0:
287,332,46445,1,0,0:0:0:0:
257,345,46499,1,0,0:0:0:0:
226,334,46552,1,0,0:0:0:0:
211,305,46606,1,0,0:0:0:0:
219,273,46659,1,0,0:0:0:0:
247,256,46713,1,0,0:0:0:0:
436,128,46928,1,0,0:0:0:0:
76,124,47142,6,0,L|100:224,1,90
44,280,47356,6,0,P|128:292|184:216,1,180
216,140,47678,1,0,0:0:0:0:
268,68,47785,1,0,0:0:0:0:
352,44,47892,1,0,0:0:0:0:
440,64,47999,2,0,L|396:240,1,180
372,324,48321,5,0,0:0:0:0:
296,372,48428,1,0,0:0:0:0:
248,296,48535,1,0,0:0:0:0:
320,244,48642,1,0,0:0:0:0:
352,44,48856,5,0,0:0:0:0:
320,244,48964,2,0,L|232:208,1,90
156,172,49178,2,0,L|128:160,3,22.5
156,172,49285,6,0,L|124:308,2,135
176,48,49714,5,0,0:0:0:0:
88,56,49821,1,0,0:0:0:0:
60,140,49928,2,0,L|60:236,1,90
148,328,50142,2,0,P|256:296|240:160,1,270
120,188,50571,2,0,L|240:268,1,135
320,328,50839,6,0,L|276:352,1,45
392,272,50999,1,0,0:0:0:0:
392,272,51053,2,0,P|424:244|424:196,1,90
408,156,51214,2,0,P|376:108|384:72,1,90
256,52,51428,6,0,L|236:76,4,22.5
256,140,51642,2,0,L|256:232,1,90
256,320,51856,2,0,L|276:296,6,22.5
256,320,52071,6,0,P|216:304|184:260,1,90
164,232,52231,1,0,0:0:0:0:
152,188,52285,2,0,P|132:148|96:112,1,90
96,88,52446,1,0,0:0:0:0:
92,60,52499,6,0,L|184:88,1,90
256,140,52714,2,0,L|280:164,4,22.5
316,72,52928,2,0,L|348:64,4,22.5
160,320,53249,5,0,0:0:0:0:
216,280,53356,2,0,P|276:260|340:284,2,135.000005149842
216,280,53999,1,0,0:0:0:0:
128,60,54214,5,0,0:0:0:0:
128,60,54428,1,0,0:0:0:0:
128,60,54642,1,0,0:0:0:0:
384,60,54856,5,0,0:0:0:0:
384,60,55071,2,0,L|384:128,2,67.5000025749208
384,60,55499,1,0,0:0:0:0:
128,60,55714,5,0,0:0:0:0:
128,60,55928,1,0,0:0:0:0:
384,60,56142,5,0,0:0:0:0:
384,60,56356,2,0,L|384:128,1,67.5000025749208
128,60,56571,5,0,0:0:0:0:
128,60,56785,2,0,L|128:136,1,67.5000025749208
384,60,56999,5,0,0:0:0:0:
384,60,57214,2,0,L|384:132,1,67.5000025749208
128,60,57428,5,0,0:0:0:0:
384,60,57642,5,0,0:0:0:0:
128,60,57856,5,0,0:0:0:0:
384,60,58071,6,0,L|384:132,1,67.5000025749208
128,60,58285,5,0,0:0:0:0:
384,60,58499,5,0,0:0:0:0:
384,60,58714,1,0,0:0:0:0:
256,328,58928,5,0,0:0:0:0:
256,192,59035,1,0,0:0:0:0:
256,56,59142,1,0,0:0:0:0:
256,328,59356,1,0,0:0:0:0:
115,243,59571,5,0,0:0:0:0:
203,290,59678,1,0,0:0:0:0:
304,288,59785,1,0,0:0:0:0:
390,237,59892,1,0,0:0:0:0:
256,124,59999,5,0,0:0:0:0:
32,64,60214,1,0,0:0:0:0:
480,64,60428,1,0,0:0:0:0:
