osu file format v12

[General]
AudioFilename: Doppelganger.mp3
AudioLeadIn: 0
PreviewTime: 39428
Countdown: 0
SampleSet: Soft
StackLeniency: 0.4
Mode: 0
LetterboxInBreaks: 0
WidescreenStoryboard: 1

[Editor]
DistanceSpacing: 1.6
BeatDivisor: 4
GridSize: 16

[Metadata]
Title:Doppelganger
TitleUnicode:Doppelganger
Artist:LeaF
ArtistUnicode:LeaF
Creator:Michi
Version:490 style
Source:
Tags:
BeatmapID:318109
BeatmapSetID:121367

[Difficulty]
HPDrainRate:6
CircleSize:4
OverallDifficulty:9
ApproachRate:10
SliderMultiplier:2.4
SliderTickRate:2

[Events]
//Background and Video events
0,0,"BG.jpg",0,0
//Break Periods
//Storyboard Layer 0 (Background)
//Storyboard Layer 1 (Fail)
//Storyboard Layer 2 (Pass)
//Storyboard Layer 3 (Foreground)
//Storyboard Sound Samples
//Background Colour Transformations
3,100,0,0,0

[TimingPoints]
-0.192103170113086,214.285714285714,4,2,1,100,1,0
0,-200,4,2,1,100,0,0
1285,-111.111111111111,4,2,1,100,0,0
1499,-200,4,2,1,100,0,0
2999,-133.333333333333,4,2,1,100,0,0
3214,-200,4,2,1,100,0,0
3428,-100,4,2,1,100,0,0
3642,-133.333333333333,4,2,1,100,0,0
3856,-100,4,2,1,100,0,0
5142,-200,4,2,1,40,0,0
5892,-133.333333333333,4,2,1,40,0,0
6106,-200,4,2,1,40,0,0
6856,-100,4,2,1,100,0,0
8571,-200,4,2,1,40,0,0
9428,-100,4,2,1,100,0,0
13874,-100,4,2,1,20,0,0
14731,-100,4,2,1,10,0,0
14839,-100,4,2,1,30,0,0
14999,-100,4,2,1,40,0,0
15053,-100,4,2,1,50,0,0
15106,-100,4,2,1,60,0,0
15160,-100,4,2,1,70,0,0
15214,-200,4,2,1,100,0,0
15428,-200,4,2,1,100,0,0
16714,-151.515151515152,4,2,1,100,0,0
17142,-100,4,2,1,100,0,0
18214,-100,4,2,1,40,0,0
18321,-133.333333333333,4,2,1,40,0,0
18856,-100,4,2,1,100,0,0
19071,-100,4,2,1,60,0,0
25714,-200,4,2,1,60,0,0
25928,-166.666666666667,4,2,1,60,0,0
26142,-142.857142857143,4,2,1,60,0,0
26356,-125,4,2,1,60,0,0
26785,-100,4,2,1,60,0,0
27642,-111.111111111111,4,2,1,60,0,0
27856,-125,4,2,1,60,0,0
28071,-142.857142857143,4,2,1,60,0,0
28285,-200,4,2,1,60,0,0
28714,-100,4,2,1,60,0,0
29142,-133.333333333333,4,2,1,100,0,0
29571,-100,4,2,1,100,0,0
30856,-200,4,2,1,100,0,0
32785,-100,4,2,1,100,0,0
33428,-200,4,2,1,100,0,0
35142,-200,4,2,1,40,0,0
36856,-100,4,2,1,40,0,0
37714,-100,4,2,1,100,0,0
39856,-100,4,2,1,40,0,0
40714,-100,4,2,1,100,0,0
41356,-80,4,2,1,100,0,0
41571,-100,4,2,1,100,0,0
41785,-200,4,2,1,100,0,0
41999,-100,4,2,1,100,0,0
49714,-125,4,2,1,100,0,0
50785,-100,4,2,1,100,0,0
51428,-100,4,2,1,30,0,0
51642,-100,4,2,1,100,0,0
51856,-100,4,2,1,40,0,0
52071,-100,4,2,1,100,0,0
53249,-100,4,2,1,100,0,0
53999,-100,4,2,1,100,0,0
59142,-200,4,2,1,100,0,0
59571,-100,4,2,1,100,0,0
60428,-133.333333333333,4,2,1,100,0,0
60856,-200,4,2,1,100,0,0
62571,-83.3333333333333,4,2,1,100,0,0
63214,-71.4285714285714,4,2,1,100,0,0
63428,-83.3333333333333,4,2,1,100,0,0
64285,-100,4,2,1,100,0,0
65999,-100,4,2,1,100,0,0
66856,-100,4,2,1,100,0,0
67714,-100,4,2,1,100,0,0
68356,-200,4,2,1,100,0,0
68571,-100,4,2,1,100,0,0
69214,-100,4,2,1,30,0,0
69428,-100,4,2,1,100,0,0
69749,-200,4,2,1,100,0,0
69964,-100,4,2,1,100,0,0
70071,-100,4,2,1,30,0,0
70285,-100,4,2,1,100,0,0
71142,-200,4,2,1,100,0,0
71571,-166.666666666667,4,2,1,100,0,0
71999,-100,4,2,1,100,0,0
73178,-200,4,2,1,100,0,0
73392,-100,4,2,1,100,0,0
73499,-100,4,2,1,30,0,0
73714,-100,4,2,1,100,0,0
74571,-200,4,2,1,100,0,0
74785,-100,4,2,1,100,0,0
80571,-66.6666666666667,4,2,1,100,0,0
81642,-133.333333333333,4,2,1,100,0,0
82285,-83.3333333333333,4,2,1,100,0,0
83142,-133.333333333333,4,2,1,100,0,0
83571,-100,4,2,1,100,0,0
83999,-83.3333333333333,4,2,1,100,0,0
85928,-200,4,2,1,100,0,0
86356,-83.3333333333333,4,2,1,100,0,0
90964,-133.333333333333,4,2,1,100,0,0
92142,-100,4,2,1,100,0,0
92571,-200,4,2,1,100,0,0
92999,-142.857142857143,4,2,1,100,0,0
103714,-100,4,2,1,100,0,0
105428,-100,4,2,1,100,0,0
108856,-1200,4,2,1,100,0,0
115714,-100,4,2,1,5,0,0
115928,-100,4,2,1,40,0,0
116571,-100,4,2,1,80,0,0
117428,-100,4,2,1,40,0,0
120214,-125,4,2,1,40,0,0
120856,-100,4,2,1,40,0,0
121714,-76.9230769230769,4,2,1,100,0,0
123428,-83.3333333333333,4,2,1,100,0,0
138856,-100,4,2,1,100,0,0
139071,-111.111111111111,4,2,1,100,0,0
139285,-125,4,2,1,100,0,0
139499,-142.857142857143,4,2,1,100,0,0
139714,-166.666666666667,4,2,1,100,0,0
139928,-181.818181818182,4,2,1,100,0,0
140142,-200,4,2,1,100,0,0
140571,-100,4,2,1,100,0,0
140999,-100,4,2,1,100,0,0
143999,-133.333333333333,4,2,1,100,0,0

[Colours]
Combo1 : 240,241,247
Combo2 : 249,57,57
Combo3 : 234,207,198

[HitObjects]
119,99,0,5,0,1:0:0:0:
296,160,106,1,0,1:0:0:0:
307,194,321,1,0,1:0:0:0:
318,228,535,1,0,1:3:0:0:
329,262,749,1,0,1:0:0:0:
341,296,964,5,0,1:0:0:0:
35,284,1071,1,0,1:0:0:0:
119,99,1178,1,0,1:0:0:0:
329,67,1285,2,0,P|350:114|330:187,1,107.999996704102,0|0,1:0|0:0,0:0:0:0:
329,262,1499,2,0,L|391:281,1,60,0|0,1:0|0:0,0:0:0:0:
188,336,1714,6,0,L|125:316,1,60,0|0,1:0|0:0,0:0:0:0:
35,284,1928,1,0,1:0:0:0:
329,262,2035,1,0,1:0:0:0:
318,228,2249,1,0,1:0:0:0:
307,194,2463,1,0,1:0:0:0:
296,160,2678,6,0,L|312:120,1,30,0|0,1:0|0:0,0:0:0:0:
175,207,2785,2,0,L|186:235,1,30,0|0,1:0|0:0,0:0:0:0:
119,99,2892,2,0,L|130:71,1,30,0|0,1:0|0:0,0:0:0:0:
36,284,2999,2,0,B|23:313|23:313|79:289|122:316,1,135.000005149841,0|0,1:0|0:0,0:0:0:0:
134,324,3214,1,0,0:0:0:0:
158,332,3267,1,0,0:0:0:0:
188,335,3321,1,0,0:0:0:0:
221,322,3374,1,0,0:0:0:0:
242,299,3428,6,0,P|301:294|361:317,1,120,4|0,1:2|0:0,0:0:0:0:
268,222,3642,2,0,P|311:273|383:290,1,135.000005149841,0|0,1:0|0:0,0:0:0:0:
449,280,3856,1,0,1:0:0:0:
377,178,3964,2,0,P|310:171|263:201,1,120,0|0,0:0|1:0,0:0:0:0:
454,291,4178,1,0,0:0:0:0:
422,175,4285,5,0,1:0:0:0:
306,144,4392,1,0,0:0:0:0:
318,219,4499,2,0,B|330:284|330:284|444:223,1,180,0|0,1:0|0:0,0:0:0:0:
381,171,4714,2,0,B|431:128|431:128|321:59,1,180,0|0,1:0|0:0,0:0:0:0:
306,144,4928,2,0,B|243:121|243:121|239:251,1,180,0|0,1:0|0:0,0:0:0:0:
234,311,5142,5,0,1:0:0:0:
67,283,5249,1,0,0:0:0:0:
146,323,5356,1,0,1:0:0:0:
29,361,5464,1,0,0:0:0:0:
132,348,5571,1,0,1:0:0:0:
11,220,5678,2,0,L|4:138,1,60,0|0,0:0|1:0,0:0:0:0:
168,181,5892,6,0,L|186:85,1,90.0000034332277,0|0,0:0|1:0,0:0:0:0:
256,52,6106,1,0,0:0:0:0:
234,311,6214,1,0,1:0:0:0:
67,282,6321,1,0,0:0:0:0:
261,216,6428,2,0,P|304:241|367:248,1,90,0|0,1:0|0:0,0:0:0:0:
341,231,6642,1,0,1:0:0:0:
345,213,6696,1,0,1:0:0:0:
358,201,6749,1,0,1:0:0:0:
375,195,6803,1,0,1:0:0:0:
392,194,6856,6,0,P|377:132|405:75,1,120,4|0,1:2|0:0,0:0:0:0:
121,51,7071,2,0,P|130:114|105:170,1,120,0|0,1:0|0:0,0:0:0:0:
316,326,7285,1,0,1:0:0:0:
153,289,7392,2,0,P|213:297|270:326,1,120,0|0,0:0|1:0,0:0:0:0:
399,82,7606,1,0,0:0:0:0:
169,122,7714,5,0,1:0:0:0:
108,168,7821,2,0,P|124:110|121:51,2,120,0|0|0,0:0|1:0|0:0,0:0:0:0:
153,289,8142,2,0,L|16:298,1,120,0|0,1:0|0:0,0:0:0:0:
316,326,8356,2,0,L|453:317,1,120,0|0,1:0|0:0,0:0:0:0:
262,220,8571,6,0,L|239:290,1,60,0|0,1:0|0:0,0:0:0:0:
335,202,8785,1,0,1:0:0:0:
286,149,8892,1,0,0:0:0:0:
310,67,8999,1,0,1:0:0:0:
400,82,9106,1,0,0:0:0:0:
443,211,9214,2,0,L|469:291,1,60,0|0,1:0|0:0,0:0:0:0:
147,166,9428,6,0,B|111:47|111:47|93:114,1,180,4|0,1:2|0:0,0:0:0:0:
56,169,9642,2,0,L|99:297,1,120,4|0,1:2|0:0,0:0:0:0:
317,326,9856,2,0,L|393:304,7,60,4|0|0|0|0|0|0|0,1:2|0:0|0:0|0:0|0:0|0:0|0:0|0:0,0:0:0:0:
296,318,10285,6,0,P|290:225|271:201,1,120,0|0,1:0|0:0,0:0:0:0:
226,104,10499,2,0,P|239:169|280:210,1,120,0|0,1:0|0:0,0:0:0:0:
172,254,10714,2,0,P|227:244|285:184,1,120,0|0,1:0|0:0,0:0:0:0:
438,112,10928,2,0,P|371:107|309:134,1,120,0|0,1:0|0:0,0:0:0:0:
35,165,11142,2,0,P|96:181|157:160,1,120,0|0,1:0|0:0,0:0:0:0:
512,159,11356,2,0,P|462:196|397:185,1,120,0|0,1:0|0:0,0:0:0:0:
34,163,11571,2,0,L|61:281,1,120,0|0,1:0|0:0,0:0:0:0:
408,191,11785,2,0,L|400:71,1,120,0|0,1:0|0:0,0:0:0:0:
139,349,11999,5,0,1:0:0:0:
243,232,12106,1,0,0:0:0:0:
338,273,12214,2,0,P|336:332|276:372,1,120,0|0,1:0|0:0,0:0:0:0:
173,254,12428,2,0,P|210:298|269:299,1,120,0|0,1:0|0:0,0:0:0:0:
426,77,12642,2,0,P|432:137|402:199,1,120,0|0,1:0|0:0,0:0:0:0:
244,232,12856,2,0,L|222:104,1,120,0|0,1:0|0:0,0:0:0:0:
409,190,13071,2,0,L|368:306,1,120,0|0,1:0|0:0,0:0:0:0:
40,68,13285,2,0,P|97:57|160:93,1,120,0|0,1:0|0:0,0:0:0:0:
297,345,13499,5,0,1:0:0:0:
86,151,13606,1,0,1:0:0:0:
244,232,13714,2,0,B|282:264|282:264|253:127,1,180,0|0,1:0|0:0,0:0:0:0:
280,123,13928,5,0,0:0:0:0:
280,105,13981,1,0,0:0:0:0:
289,89,14035,1,0,0:0:0:0:
304,80,14089,1,0,0:0:0:0:
331,71,14142,6,0,L|345:102,1,30
459,117,14249,2,0,L|447:161,1,30
367,200,14356,2,0,L|369:223,1,15
480,276,14464,2,0,L|469:309,1,30
360,340,14571,2,0,B|336:340|320:328|320:328|312:328|312:328|312:336|312:336|320:336|320:336|320:328|320:328|312:328|312:328|264:344|216:300,1,180,0|0,0:0|1:0,0:0:0:0:
180,280,14785,5,0,1:0:0:0:
131,276,14839,2,0,P|99:277|68:295,1,60
55,174,14999,1,0,1:0:0:0:
90,188,15053,1,0,1:0:0:0:
133,182,15106,1,0,1:0:0:0:
168,159,15160,1,0,1:0:0:0:
181,137,15214,6,0,L|188:67,1,60,4|0,0:2|0:0,0:0:0:0:
103,104,15428,2,0,B|108:67|108:67|115:20|156:4,1,120,4|0,0:2|0:0,0:0:0:0:
372,194,15749,2,0,L|363:270,1,60,4|0,0:2|0:0,0:0:0:0:
181,136,16071,2,0,L|190:60,1,60,4|0,0:2|0:0,0:0:0:0:
372,194,16392,2,0,L|356:316,1,120,4|0,0:2|0:0,0:0:0:0:
228,190,16714,6,0,P|250:117|118:101,1,237.599999274902
228,190,17142,6,0,L|187:267,1,60,0|0,1:2|0:0,0:0:0:0:
123,267,17249,2,0,P|138:293|161:314,1,60
248,306,17356,5,0,0:0:0:0:
295,294,17410,1,0,0:0:0:0:
342,282,17464,1,0,0:0:0:0:
388,271,17517,1,0,0:0:0:0:
425,263,17571,5,0,0:0:0:0:
461,252,17624,1,0,0:0:0:0:
431,213,17678,1,0,0:0:0:0:
401,175,17731,1,0,0:0:0:0:
391,150,17785,5,0,0:0:0:0:
397,132,17839,1,0,0:0:0:0:
403,115,17892,1,0,0:0:0:0:
409,97,17946,1,0,0:0:0:0:
415,80,17999,2,0,L|466:45,2,60
123,87,18214,5,0,0:0:0:0:
19,203,18321,2,0,L|47:157,1,45.0000017166138
123,87,18428,2,0,L|137:187,1,90.0000034332277
234,189,18642,2,0,L|217:292,1,90.0000034332277
429,342,18856,5,0,1:0:0:0:
238,78,19071,2,0,L|372:60,1,120
392,73,19285,2,0,L|273:83,1,120
176,178,19499,2,0,P|228:206|254:273,1,120
171,259,19714,2,0,P|187:315|158:381,1,120
163,284,19928,5,0,0:0:0:0:
176,178,20035,1,0,0:0:0:0:
360,229,20142,2,0,L|224:222,1,120
263,229,20356,2,0,L|382:244,1,120
210,102,20571,2,0,P|142:103|99:144,1,120
288,76,20785,2,0,P|239:28|179:27,1,120
328,5,20999,2,0,P|363:52|361:111,1,120
210,102,21214,5,0,0:0:0:0:
360,229,21321,1,0,0:0:0:0:
128,344,21428,2,0,P|157:294|158:228,1,120
404,142,21642,5,0,0:0:0:0:
282,302,21749,1,0,0:0:0:0:
210,102,21856,2,0,P|172:157|175:209,1,120
481,275,22071,5,0,0:0:0:0:
282,302,22178,1,0,0:0:0:0:
349,86,22285,2,0,L|223:117,1,120
251,95,22499,2,0,L|369:73,1,120
481,275,22714,2,0,P|423:274|361:224,1,120
307,171,22928,5,0,0:0:0:0:
282,302,23035,1,0,0:0:0:0:
110,237,23142,2,0,L|75:107,1,120
93,91,23356,2,0,L|112:212,1,120
282,302,23571,2,0,P|340:289|387:240,1,120
307,170,23785,5,0,0:0:0:0:
146,165,23892,1,0,0:0:0:0:
243,47,23999,2,0,L|379:49,1,120
382,64,24214,2,0,L|264:55,1,120
214,217,24428,5,0,0:0:0:0:
177,121,24535,1,0,0:0:0:0:
388,285,24642,1,0,0:0:0:0:
272,141,24749,1,0,0:0:0:0:
283,303,24856,2,0,P|312:351|381:369,1,120
358,368,25071,2,0,P|314:330|303:259,1,120
214,217,25285,2,0,L|76:222,1,120
272,140,25499,2,0,L|391:159,1,120
57,60,25714,6,0,L|40:137,1,60
133,132,25928,2,0,L|125:215,1,71.9999978027344
214,217,26142,2,0,L|217:302,1,83.9999974365235
305,269,26356,2,0,L|322:365,1,96
331,344,26571,2,0,L|325:249,1,96
358,113,26785,5,0,0:0:0:0:
407,118,26856,1,0,0:0:0:0:
457,122,26928,1,0,0:0:0:0:
507,127,26999,2,0,L|376:159,1,120
372,169,27214,2,0,L|495:155,1,120
450,353,27428,6,0,P|430:293|376:255,1,120
95,214,27642,2,0,P|115:274|158:298,1,107.999996704102
195,135,27856,2,0,P|168:181|179:237,1,96
255,278,28071,2,0,L|242:184,1,83.9999974365235
255,278,28285,6,0,B|368:304|368:304|321:252,1,180
322,158,28714,2,0,B|436:133|436:133|368:104,2,180
66,59,29142,6,0,L|35:173,1,90.0000034332277,4|0,1:2|0:0,0:0:0:0:
135,356,29356,2,0,P|161:319|169:264,1,90.0000034332277,0|0,1:0|0:0,0:0:0:0:
132,130,29571,5,0,1:0:0:0:
240,55,29678,1,0,1:0:0:0:
322,158,29785,1,0,1:0:0:0:
140,128,29892,1,0,1:0:0:0:
319,76,29999,1,0,1:0:0:0:
277,265,30106,1,0,1:0:0:0:
506,238,30214,1,0,1:0:0:0:
424,171,30321,6,0,P|403:245|414:293,1,120,0|0,1:0|0:0,0:0:0:0:
132,130,30535,1,0,1:0:0:0:
241,54,30642,2,0,P|314:66|319:162,1,180
49,293,30856,6,0,L|171:275,1,120
389,295,31178,2,0,P|330:293|268:257,1,120
73,119,31499,6,0,P|127:94|163:40,1,120
238,207,31821,2,0,L|256:85,1,120
256,336,32142,2,0,B|216:344|216:344|256:86,1,300,4|0,1:0|0:0,0:0:0:0:
256,336,32785,6,0,L|384:304,1,120,4|0,1:0|0:0,0:0:0:0:
256,88,32999,2,0,L|128:120,1,120,4|0,1:0|0:0,0:0:0:0:
256,336,33214,2,0,L|384:304,1,120,4|0,1:0|0:0,0:0:0:0:
46,325,33428,6,0,L|164:290,1,120
428,173,33750,2,0,P|376:205|311:209,1,120
148,127,34071,6,0,P|189:98|256:88,1,120
316,212,34393,2,0,L|337:339,1,120
213,339,34714,2,0,B|234:154,1,180,4|0,1:0|0:0,0:0:0:0:
196,66,35142,6,0,L|155:39,3,30
313,59,35356,2,0,L|332:25,3,30
148,128,35571,2,0,L|103:118,3,30
361,275,35785,2,0,L|382:303,3,30
151,321,35999,2,0,L|129:348,3,30
121,112,36214,2,0,L|71:99,3,30
141,120,36428,5,0,0:0:0:0:
152,134,36481,1,0,0:0:0:0:
159,150,36535,1,0,0:0:0:0:
162,167,36589,1,0,0:0:0:0:
160,187,36642,1,0,0:0:0:0:
167,210,36696,1,0,0:0:0:0:
177,240,36749,1,0,0:0:0:0:
205,250,36803,1,0,0:0:0:0:
237,260,36856,6,0,B|291:272|291:272|363:233|348:138|286:118,1,240,0|0,1:0|1:0,0:0:0:0:
172,98,37178,5,0,0:0:0:0:
151,321,37285,1,0,1:0:0:0:
28,233,37392,1,0,0:0:0:0:
65,58,37499,1,0,1:0:0:0:
259,194,37606,1,0,0:0:0:0:
340,59,37714,6,0,L|352:120,1,60,0|0,1:0|0:0,0:0:0:0:
387,117,37821,2,0,L|387:185,1,60
432,171,37928,2,0,L|439:249,1,60,0|0,1:0|0:0,0:0:0:0:
423,246,38035,2,0,L|405:303,1,60
113,49,38249,6,0,L|131:124,1,60,0|0,1:0|0:0,0:0:0:0:
119,123,38356,1,0,1:0:0:0:
134,132,38410,1,0,0:0:0:0:
148,142,38464,1,0,0:0:0:0:
160,154,38517,1,0,0:0:0:0:
176,166,38571,6,0,L|180:235,1,60,0|0,1:0|1:0,0:0:0:0:
264,253,38678,2,0,L|259:194,1,60,0|0,1:0|0:0,0:0:0:0:
333,121,38785,2,0,L|338:186,1,60,0|0,1:0|0:0,0:0:0:0:
364,256,38892,2,0,L|427:245,1,60,0|0,1:0|0:0,0:0:0:0:
432,172,38999,2,0,B|470:110,2,60,0|0|0,1:0|0:0|0:0,0:0:0:0:
311,338,39214,5,0,1:0:0:0:
43,198,39321,1,0,1:0:0:0:
202,67,39428,2,0,L|246:27,2,60,0|0|0,1:0|0:0|1:0,0:0:0:0:
12,283,39642,1,0,1:0:0:0:
265,253,39749,1,0,0:0:0:0:
79,344,39856,6,0,L|207:347,1,120,4|0,1:2|0:0,0:0:0:0:
163,203,40071,2,0,L|44:198,1,120
202,67,40285,2,0,L|325:81,1,120,4|0,1:2|0:0,0:0:0:0:
336,99,40499,2,0,L|219:74,1,120,4|0,1:2|0:0,0:0:0:0:
164,203,40714,5,0,1:0:0:0:
318,212,40821,1,0,0:0:0:0:
446,103,40928,1,0,1:0:0:0:
421,293,41035,2,0,L|360:333,2,60,0|0|0,0:0|0:0|1:0,0:0:0:0:
451,197,41249,2,0,L|379:189,1,60
317,211,41356,2,0,B|281:210|281:210|281:289|201:295,1,150,0|0,1:0|0:0,0:0:0:0:
69,311,41571,5,0,1:0:0:0:
446,103,41785,2,0,L|317:71,1,120,0|0,1:0|1:0,0:0:0:0:
309,80,42053,1,0,0:0:0:0:
276,91,42106,1,0,0:0:0:0:
235,92,42160,1,0,0:0:0:0:
210,76,42214,1,0,1:0:0:0:
175,96,42267,1,0,0:0:0:0:
179,113,42321,1,0,0:0:0:0:
164,137,42374,1,0,0:0:0:0:
176,174,42428,5,0,1:0:0:0:
307,340,42535,1,0,1:0:0:0:
316,211,42642,1,0,1:0:0:0:
57,248,42749,1,0,1:0:0:0:
57,248,42964,5,0,1:0:0:0:
316,211,43071,2,0,P|379:205|435:167,1,120,0|0,1:0|0:0,0:0:0:0:
121,343,43285,2,0,P|59:344|0:313,1,120,0|0,1:0|0:0,0:0:0:0:
316,211,43499,2,0,P|378:205|466:120,1,180,0|0,1:0|0:0,0:0:0:0:
466,221,43714,5,0,1:0:0:0:
462,244,43767,1,0,1:0:0:0:
458,268,43821,1,0,1:0:0:0:
454,291,43874,1,0,1:0:0:0:
450,311,43928,2,0,L|317:295,1,120,0|0,1:0|0:0,0:0:0:0:
317,210,44142,5,0,1:0:0:0:
309,187,44195,1,0,0:0:0:0:
303,163,44249,1,0,0:0:0:0:
217,55,44356,1,0,1:0:0:0:
143,195,44464,1,8,1:2:0:0:
161,209,44517,1,8,0:0:0:0:
180,223,44571,1,8,0:0:0:0:
120,183,44678,5,0,1:0:0:0:
303,92,44785,1,0,1:0:0:0:
93,58,44892,1,0,1:0:0:0:
224,165,44999,6,0,L|220:118,4,30,0|0|0|0|0,1:0|0:0|0:0|0:0|1:0,0:0:0:0:
89,289,45214,2,0,L|93:336,4,30
344,328,45428,5,0,1:0:0:0:
369,337,45481,1,0,1:0:0:0:
391,346,45535,1,8,1:2:0:0:
416,256,45642,1,0,1:0:0:0:
442,250,45695,1,0,1:0:0:0:
465,247,45749,1,8,1:2:0:0:
452,140,45857,1,0,1:0:0:0:
474,126,45910,1,0,1:0:0:0:
496,114,45964,2,0,L|493:69,3,30,8|0|0|0,1:2|0:0|0:0|0:0,0:0:0:0:
478,84,46071,6,0,P|416:80|347:36,1,120,0|0,1:0|0:0,0:0:0:0:
225,248,46285,5,0,0:0:0:0:
209,255,46338,1,0,0:0:0:0:
185,260,46392,1,0,0:0:0:0:
155,262,46445,1,0,0:0:0:0:
119,254,46499,1,0,0:0:0:0:
83,230,46553,1,0,0:0:0:0:
63,186,46606,1,0,0:0:0:0:
65,136,46659,1,0,0:0:0:0:
80,88,46714,6,0,L|95:22,1,60,0|0,1:0|0:0,0:0:0:0:
187,138,46928,2,0,P|171:113|172:75,1,60,0|0,1:0|0:0,0:0:0:0:
371,62,47142,2,0,L|254:88,1,120,0|0,1:0|0:0,0:0:0:0:
209,365,47356,6,0,L|239:303,1,60,0|0,1:0|0:0,0:0:0:0:
270,243,47464,1,0,0:0:0:0:
181,198,47571,1,0,1:0:0:0:
92,320,47678,1,0,0:0:0:0:
369,374,47785,1,0,1:0:0:0:
394,162,47892,1,0,0:0:0:0:
181,198,47999,6,0,B|186:259|186:259|176:275|176:275|182:317|182:317|173:334|173:334|179:392|179:392|215:360,1,240,0|0,1:0|0:0,0:0:0:0:
356,240,48321,5,0,1:0:0:0:
237,89,48428,1,0,1:0:0:0:
73,188,48535,1,0,1:0:0:0:
288,318,48642,1,0,1:0:0:0:
92,321,48856,5,0,1:0:0:0:
447,299,48964,1,0,1:0:0:0:
78,173,49178,5,0,1:0:0:0:
451,293,49285,2,0,P|460:231|436:162,1,120,0|0,1:0|0:0,0:0:0:0:
375,199,49446,2,0,P|352:146|358:59,1,120,0|0,1:0|0:0,0:0:0:0:
425,105,49606,2,0,P|428:74|420:26,1,60,0|0,1:0|0:0,0:0:0:0:
308,314,49714,6,0,L|12:324,1,288,0|0,1:0|0:0,0:0:0:0:
308,314,50142,6,0,L|12:324,1,288,0|0,1:0|0:0,0:0:0:0:
308,314,50571,6,0,B|246:294|191:322|191:322|170:296,1,144,0|8,1:0|0:0,0:0:0:0:
191,259,50785,5,0,0:0:0:0:
196,216,50839,1,8,0:0:0:0:
185,191,50892,1,0,0:0:0:0:
157,173,50946,1,0,0:0:0:0:
128,157,50999,2,0,L|166:95,1,60,0|8,0:0|0:0,0:0:0:0:
228,60,51106,2,0,L|238:124,1,60,0|8,0:0|0:0,0:0:0:0:
298,191,51214,5,0,0:0:0:0:
437,82,51321,1,8,0:0:0:0:
420,253,51428,2,0,L|417:294,4,30,0|0|0|0|0,1:0|1:0|1:0|1:0|1:0,0:0:0:0:
298,191,51642,5,0,0:0:0:0:
437,82,51749,1,0,0:0:0:0:
228,60,51856,2,0,L|180:48,6,30,8|8|8|8|8|8|8,0:0|0:0|0:0|0:0|0:0|0:0|0:0,0:0:0:0:
255,75,52071,6,0,L|316:71,1,60
323,59,52178,2,0,L|347:114,1,60
298,191,52285,2,0,L|343:231,3,60,0|0|8|8,0:0|0:0|0:0|0:0,0:0:0:0:
207,207,52499,2,0,L|211:268,1,60,8|0,0:0|0:0,0:0:0:0:
223,274,52606,2,0,L|167:298,1,60,8|0,0:0|0:0,0:0:0:0:
75,240,52714,5,0,1:0:0:0:
85,200,52767,1,0,1:0:0:0:
94,159,52821,1,0,1:0:0:0:
343,231,52928,5,0,1:0:0:0:
336,266,52981,1,0,1:0:0:0:
327,301,53035,1,0,1:0:0:0:
94,159,53249,6,0,L|165:137,1,60,0|0,1:0|0:0,0:0:0:0:
75,240,53356,2,0,L|192:315,1,120,0|0,1:0|0:0,0:0:0:0:
206,206,53571,2,0,P|260:224|332:198,1,120,0|0,1:0|0:0,0:0:0:0:
265,126,53785,2,0,P|267:75|386:43,1,180
437,78,53999,5,4,1:2:0:0:
29,50,54214,1,0,0:0:0:0:
277,343,54428,1,0,0:0:0:0:
122,67,54642,1,0,0:0:0:0:
391,218,54856,6,0,B|385:182|385:182|414:85,1,120
212,240,55071,2,0,L|269:267,1,60
318,237,55178,2,0,L|266:265,1,60
318,237,55285,2,0,B|311:198|311:198|214:133,1,120
29,51,55499,2,0,B|24:89|24:89|77:109|105:162|96:209,1,180
97,198,55714,6,0,P|109:269|157:306,1,120
144,304,55928,2,0,P|107:257|106:199,1,120
420,78,56142,6,0,P|441:144|425:206,1,120
420,78,56356,2,0,P|390:100|350:105,1,60
420,78,56464,2,0,P|446:102|478:112,1,60
144,304,56571,6,0,L|278:335,1,120
406,316,56785,1,0,0:0:0:0:
200,69,56892,1,0,0:0:0:0:
334,195,56999,6,0,P|263:197|210:175,1,120
334,195,57214,2,0,L|310:134,1,60
334,195,57321,2,0,L|279:240,1,60
290,329,57428,6,0,P|341:334|418:309,1,120
472,234,57642,1,0,0:0:0:0:
39,206,57856,2,0,P|35:266|55:322,1,120
216,223,58071,5,0,0:0:0:0:
472,234,58178,1,0,0:0:0:0:
335,195,58285,2,0,P|282:168|260:114,1,120
370,95,58499,2,0,P|425:82|468:18,1,120
490,69,58714,2,0,P|435:100|378:106,1,120
96,89,58928,2,0,L|73:20,2,60
188,358,59142,6,0,B|178:326,1,30,0|0,1:0|0:0,0:0:0:0:
299,324,59356,2,0,B|310:287,1,30,0|0,1:0|0:0,0:0:0:0:
178,329,59571,6,0,L|156:267,2,60
335,195,59785,1,0,1:0:0:0:
263,34,59892,1,0,0:0:0:0:
95,90,59999,6,0,L|89:108,1,15,0|0,1:0|1:0,0:0:0:0:
470,182,60214,2,0,L|479:202,1,15,0|0,1:0|1:0,0:0:0:0:
178,329,60428,2,0,B|194:306|252:286|299:323|299:323|310:287|310:287|372:280|434:266,1,270.000010299683,0|0,1:0|0:0,0:0:0:0:
151,127,60856,2,0,L|167:65,1,60
230,129,61071,2,0,L|214:191,1,60
151,127,61285,5,0,0:0:0:0:
230,129,61499,1,0,0:0:0:0:
309,131,61714,1,0,0:0:0:0:
151,127,61928,5,0,0:0:0:0:
230,129,61999,1,0,0:0:0:0:
309,131,62071,1,0,0:0:0:0:
386,132,62142,2,0,L|461:134,1,60
379,301,62356,2,0,L|311:298,1,60
178,316,62571,6,0,B|127:340|127:340|56:311|52:266,1,143.999995605469,4|0,1:2|0:0,0:0:0:0:
166,24,62785,2,0,B|219:43|219:43|248:113|219:148,1,143.999995605469,0|0,1:0|0:0,0:0:0:0:
179,316,62999,2,0,P|243:293|330:302,1,143.999995605469,0|0,1:0|0:0,0:0:0:0:
109,186,63214,2,0,B|151:214|151:214|177:160|233:127,1,167.999994873047,0|0,1:0|0:0,0:0:0:0:
385,64,63428,5,0,1:0:0:0:
470,151,63535,1,8,0:0:0:0:
479,194,63588,1,8,0:0:0:0:
487,238,63642,1,8,0:0:0:0:
384,64,63856,5,0,1:0:0:0:
362,280,63964,1,8,0:0:0:0:
342,248,64017,1,8,0:0:0:0:
309,230,64071,2,0,P|272:229|226:196,1,95.9999970703126
183,108,64214,5,0,1:0:0:0:
207,32,64285,1,4,1:2:0:0:
102,211,64428,5,0,0:0:0:0:
87,132,64499,1,0,1:0:0:0:
66,316,64642,5,0,0:0:0:0:
5,264,64713,1,0,1:0:0:0:
214,279,64856,5,0,0:0:0:0:
232,200,64928,1,0,1:0:0:0:
150,336,65070,5,0,0:0:0:0:
127,259,65141,1,0,1:0:0:0:
359,303,65285,5,0,0:0:0:0:
378,225,65356,1,0,1:0:0:0:
202,125,65499,5,0,0:0:0:0:
232,199,65570,1,0,1:0:0:0:
419,354,65713,5,0,0:0:0:0:
434,281,65784,1,0,1:0:0:0:
407,67,65928,1,0,0:0:0:0:
478,31,65999,6,0,L|483:100,1,60,0|0,1:0|0:0,0:0:0:0:
359,303,66214,2,0,L|357:238,1,60,0|0,1:0|0:0,0:0:0:0:
102,211,66428,2,0,L|97:273,1,60,0|0,1:0|0:0,0:0:0:0:
278,77,66642,2,0,L|271:10,1,60,0|0,1:0|0:0,0:0:0:0:
377,116,66856,6,0,B|346:139|346:139|346:146|346:146|339:146|339:146|338:152|338:152|330:152|330:152|329:160|329:160|321:162|321:162|318:171|318:171|296:225|210:264|135:164|159:102|226:41|297:87,1,420,0|0,1:0|0:0,0:0:0:0:
254,144,67285,2,0,P|276:242|197:278,1,180
207,277,67499,5,0,0:0:0:0:
195,274,67553,1,0,0:0:0:0:
183,276,67606,1,0,0:0:0:0:
175,285,67660,1,0,0:0:0:0:
175,297,67714,5,4,1:2:0:0:
359,304,67821,1,0,0:0:0:0:
378,116,67928,2,0,P|354:144|319:158,1,60
254,144,68035,1,0,0:0:0:0:
87,75,68142,1,0,1:0:0:0:
180,193,68249,1,0,1:0:0:0:
65,341,68356,2,0,L|54:245,1,90,0|0,1:0|0:0,0:0:0:0:
43,164,68571,5,4,1:2:0:0:
180,304,68678,1,0,0:0:0:0:
431,217,68785,1,8,0:0:0:0:
203,69,68892,2,0,B|120:86|120:86|82:74,1,120,4|0,1:2|0:0,0:0:0:0:
439,240,69106,5,0,1:0:0:0:
355,287,69214,2,0,L|344:325,6,30,0|0|0|0|0|0|0,1:0|1:0|1:0|1:0|1:0|1:0|1:0,0:0:0:0:
323,277,69428,6,0,L|261:312,1,60,4|0,1:2|0:0,0:0:0:0:
180,303,69535,2,0,L|114:287,1,60,0|0,1:0|1:0,0:0:0:0:
171,218,69642,1,0,1:0:0:0:
355,60,69749,2,0,L|327:151,1,90,0|0,1:0|0:0,0:0:0:0:
431,217,69964,1,0,1:0:0:0:
180,193,70071,6,0,L|160:158,6,30,0|0|0|0|0|0|0,1:0|1:0|1:0|1:0|1:0|1:0|1:0,0:0:0:0:
170,219,70285,6,0,L|116:341,1,120,4|0,1:2|0:0,0:0:0:0:
267,206,70499,2,0,P|258:143|208:109,1,120,4|0,1:2|0:0,0:0:0:0:
259,216,70714,1,8,0:0:0:0:
221,193,70767,1,8,0:0:0:0:
180,193,70821,2,0,P|105:187|65:151,1,120,4|0,1:2|0:0,0:0:0:0:
69,257,71035,1,8,0:0:0:0:
457,272,71142,6,0,L|428:209,2,60,4|0|0,1:0|0:0|0:0,0:0:0:0:
213,316,71464,1,0,0:0:0:0:
67,148,71571,2,0,L|119:87,3,71.9999978027344,4|0|0|0,1:0|0:0|0:0|0:0,0:0:0:0:
216,110,71999,6,0,B|253:89|253:89|229:237,1,180,4|0,1:2|0:0,0:0:0:0:
211,327,72214,1,8,0:0:0:0:
216,110,72321,2,0,L|336:42,1,120,4|0,1:2|0:0,0:0:0:0:
209,338,72535,5,0,1:0:0:0:
322,253,72642,6,0,L|347:272,2,30,8|0|0,0:0|0:0|0:0,0:0:0:0:
347,182,72749,6,0,L|379:178,2,30,8|0|0,0:0|0:0|0:0,0:0:0:0:
329,109,72856,5,8,0:0:0:0:
342,104,72910,1,8,0:0:0:0:
356,98,72964,2,0,L|417:72,1,60,0|0,1:0|0:0,0:0:0:0:
245,225,73071,1,0,1:0:0:0:
83,66,73178,2,0,L|54:177,1,90,4|0,1:2|0:0,0:0:0:0:
23,226,73392,6,0,L|51:291,1,60,0|0,1:0|0:0,0:0:0:0:
54,300,73499,2,0,L|48:345,6,30,0|0|0|0|0|0|0,1:0|1:0|1:0|1:0|1:0|1:0|1:0,0:0:0:0:
137,300,73714,6,0,L|179:164,1,120,4|0,1:2|0:0,0:0:0:0:
245,225,73928,2,0,L|287:89,1,120,4|0,1:2|0:0,0:0:0:0:
349,210,74142,5,8,0:0:0:0:
360,171,74195,1,8,0:0:0:0:
372,133,74249,1,0,1:0:0:0:
384,95,74303,2,0,P|358:89|327:66,1,60
137,300,74464,5,0,1:0:0:0:
384,95,74571,2,0,P|428:99|479:86,1,90,4|0,1:2|0:0,0:0:0:0:
448,176,74785,5,2,0:1:0:0:
432,256,74892,1,2,0:1:0:0:
416,336,74999,1,2,0:1:0:0:
112,64,75214,1,2,0:1:0:0:
432,256,75428,5,2,0:1:0:0:
96,144,75642,1,0,0:0:0:0:
416,336,75856,1,0,0:0:0:0:
80,224,76071,1,0,0:0:0:0:
448,176,76285,1,2,0:1:0:0:
112,64,76499,5,0,0:0:0:0:
432,256,76606,1,0,0:0:0:0:
80,224,76714,1,0,0:0:0:0:
416,336,76928,1,0,0:0:0:0:
96,144,77142,5,2,0:1:0:0:
432,256,77356,1,0,0:0:0:0:
112,64,77571,1,2,0:1:0:0:
448,176,77785,5,0,0:0:0:0:
96,144,77892,1,0,0:0:0:0:
416,336,77999,1,2,0:1:0:0:
112,64,78214,1,0,0:0:0:0:
432,256,78321,1,0,0:0:0:0:
80,224,78428,1,2,0:1:0:0:
448,176,78642,5,0,0:0:0:0:
96,144,78749,1,0,0:0:0:0:
416,336,78856,1,2,0:1:0:0:
80,224,79071,1,0,0:0:0:0:
432,256,79285,1,2,0:1:0:0:
112,64,79499,5,0,0:0:0:0:
448,176,79606,1,0,0:0:0:0:
80,224,79714,1,2,0:1:0:0:
432,256,79928,1,0,0:0:0:0:
96,144,80142,1,2,0:1:0:0:
448,176,80356,5,0,0:0:0:0:
112,64,80464,1,0,0:0:0:0:
80,224,80571,6,0,B|65:295|65:295|179:246,1,180.000006866455,4|0,1:2|0:0,0:0:0:0:
343,241,80785,2,0,L|432:256,1,90.0000034332277,0|0,1:0|0:0,0:0:0:0:
448,176,80892,2,0,B|463:105|463:105|349:154,1,180.000006866455,4|0,1:2|0:0,0:0:0:0:
256,202,81071,5,0,1:0:0:0:
203,173,81142,1,0,1:0:0:0:
191,113,81214,1,0,1:0:0:0:
229,67,81285,1,0,1:0:0:0:
288,64,81356,1,0,1:0:0:0:
329,107,81428,1,0,1:0:0:0:
112,64,81571,1,0,1:0:0:0:
115,123,81642,6,0,L|119:176,1,45.0000017166138,0|0,1:0|0:0,0:0:0:0:
204,173,81749,2,0,L|208:226,1,45.0000017166138
305,283,81856,6,0,B|324:321|324:321|364:318|354:262|305:283,1,135.000005149841,0|0,1:0|0:0,0:0:0:0:
162,296,82071,2,0,B|124:315|124:315|127:355|183:345|162:296,1,135.000005149841,0|0,1:0|0:0,0:0:0:0:
473,73,82285,6,0,P|406:50|326:71,1,143.999995605469,0|0,1:0|0:0,0:0:0:0:
40,243,82499,2,0,P|100:294|165:295,1,143.999995605469,0|0,1:0|0:0,0:0:0:0:
402,158,82714,1,8,0:0:0:0:
118,180,82821,1,0,0:0:0:0:
397,253,82928,1,8,0:0:0:0:
305,283,83035,1,8,0:0:0:0:
73,70,83142,6,0,B|60:94|60:94|68:106|68:106|55:108|55:108|60:121|60:121|31:153|38:193,1,135.000005149841
118,180,83356,2,0,L|170:188,1,45.0000017166138
221,270,83464,2,0,L|273:278,1,45.0000017166138
397,253,83571,6,0,L|410:275,1,15
173,103,83785,2,0,L|160:81,1,15
402,158,83999,1,8,0:0:0:0:
399,140,84053,1,8,0:0:0:0:
396,122,84106,1,0,1:0:0:0:
305,283,84214,2,0,L|166:326,1,143.999995605469,0|0,1:0|0:0,0:0:0:0:
392,104,84428,6,0,L|384:67,1,35.9999989013672,0|0,1:0|0:0,0:0:0:0:
271,202,84535,2,0,L|213:219,6,47.9999985351563
119,179,84856,6,0,L|99:108,1,71.9999978027344,4|0,1:2|0:0,0:0:0:0:
305,283,85017,2,0,L|268:347,1,71.9999978027344,4|0,1:2|0:0,0:0:0:0:
26,143,85178,2,0,L|28:69,1,71.9999978027344,4|0,1:2|0:0,0:0:0:0:
171,300,85286,2,0,L|116:350,1,71.9999978027344,4|0,1:2|0:0,0:0:0:0:
44,233,85392,1,0,1:0:0:0:
187,224,85499,5,0,1:0:0:0:
197,184,85553,1,0,1:0:0:0:
219,148,85606,1,0,1:0:0:0:
248,175,85660,1,0,1:0:0:0:
271,201,85714,2,0,B|288:231|288:231|335:250|402:203,1,143.999995605469
142,123,85928,6,0,L|118:185,1,60
385,74,86142,2,0,L|397:124,2,30
432,334,86356,1,0,1:0:0:0:
274,83,86464,1,0,0:0:0:0:
250,271,86571,6,0,P|316:266|344:200,1,143.999995605469,0|0,1:0|0:0,0:0:0:0:
98,277,86785,2,0,B|72:308|72:308|31:248|61:219|105:204|177:243,1,215.999993408203
232,274,86999,5,0,1:0:0:0:
217,276,87053,1,0,0:0:0:0:
203,278,87106,1,0,0:0:0:0:
188,280,87160,1,0,0:0:0:0:
173,283,87214,6,0,L|157:233,6,35.9999989013672
205,324,87428,2,0,P|274:337|346:281,1,143.999995605469,0|0,1:0|0:0,0:0:0:0:
417,103,87642,2,0,L|271:82,1,143.999995605469,0|0,1:0|0:0,0:0:0:0:
22,130,87856,1,0,3:0:0:0:
86,228,87964,1,0,3:0:0:0:
99,150,88071,1,0,3:0:0:0:
171,121,88178,1,0,3:0:0:0:
292,178,88285,6,0,L|340:334,1,143.999995605469,4|0,1:2|0:0,0:0:0:0:
214,181,88499,2,0,P|211:109|165:57,1,143.999995605469,4|0,1:2|0:0,0:0:0:0:
417,103,88714,6,0,L|336:119,1,71.9999978027344,0|0,1:0|0:0,0:0:0:0:
438,226,88821,1,0,3:0:0:0:
445,245,88874,1,0,3:0:0:0:
452,265,88928,1,0,3:0:0:0:
463,290,88981,1,0,3:0:0:0:
479,335,89035,1,0,3:0:0:0:
460,326,89089,1,0,3:0:0:0:
440,318,89142,6,0,L|370:283,1,71.9999978027344,8|0,0:0|0:0,0:0:0:0:
130,376,89356,2,0,L|165:306,1,71.9999978027344,8|0,0:0|0:0,0:0:0:0:
71,66,89571,2,0,L|142:101,1,71.9999978027344,8|0,0:0|0:0,0:0:0:0:
382,7,89785,2,0,L|347:78,1,71.9999978027344,8|0,0:0|0:0,0:0:0:0:
440,318,89999,6,0,L|370:283,1,71.9999978027344
236,282,90106,2,0,L|300:314,1,71.9999978027344
440,318,90214,2,0,L|370:283,1,71.9999978027344
236,282,90321,2,0,L|300:314,1,71.9999978027344
440,318,90428,2,0,L|370:283,1,71.9999978027344
236,282,90535,2,0,L|300:314,1,71.9999978027344
440,318,90642,2,0,L|370:283,1,71.9999978027344
284,195,90749,2,0,L|219:162,1,71.9999978027344
125,232,90856,5,0,1:0:0:0:
112,142,90964,2,0,P|187:140|245:51,1,180.000006866455,8|0,0:0|0:0,0:0:0:0:
125,232,91285,5,0,1:0:0:0:
112,142,91393,2,0,P|187:140|245:51,1,180.000006866455,8|0,0:0|0:0,0:0:0:0:
125,232,91714,5,0,1:0:0:0:
112,142,91822,2,0,P|187:140|245:51,1,180.000006866455,8|0,0:0|0:0,0:0:0:0:
448,80,92142,6,0,B|448:92|448:92|440:90|440:90|447:96|447:96|439:94|439:94|446:100|446:100|438:98|438:98|445:104|445:104|437:101|437:101|444:108|444:108|436:105|436:105|443:111|443:111|435:109|435:109|441:115|441:115|434:113|434:113|440:119|440:119|433:117|433:117|439:123|439:123|432:121|432:121|445:87|445:87|434:126|434:126|448:181|428:237|384:257,1,360,0|0,1:0|0:0,0:0:0:0:
405,244,92571,6,0,B|375:291|281:293|257:212,1,180,0|0,1:0|0:0,0:0:0:0:
70,113,92999,6,0,B|97:111|97:111|92:99|104:90|104:90|117:97|121:111|121:111|161:100|242:110,1,167.999994873047,0|0,1:0|0:0,0:0:0:0:
239,313,93321,2,0,B|207:299|207:299|195:306|179:308|179:308|177:297|180:280|180:280|129:259|111:202,1,167.999994873047
210,106,93642,2,0,P|259:95|283:60,1,83.9999974365235,0|0,1:0|0:0,0:0:0:0:
279,42,93856,5,0,0:0:0:0:
336,125,93964,1,0,0:0:0:0:
324,233,94071,1,0,0:0:0:0:
239,314,94178,1,0,0:0:0:0:
113,300,94285,6,0,L|106:328,1,27.9999991455078,0|0,3:0|3:0,0:0:0:0:
104,288,94356,2,0,L|79:302,1,27.9999991455078,0|0,3:0|3:0,0:0:0:0:
98,272,94428,2,0,L|69:278,1,27.9999991455078,0|0,3:0|3:0,0:0:0:0:
104,258,94499,2,0,L|79:243,1,27.9999991455078,0|0,3:0|3:0,0:0:0:0:
162,205,94606,5,0,1:0:0:0:
262,172,94714,1,0,1:0:0:0:
82,66,94821,1,0,1:0:0:0:
210,106,94928,1,0,1:0:0:0:
27,184,95035,1,0,1:0:0:0:
466,190,95356,6,0,B|432:240|432:240|296:231,1,167.999994873047,0|0,1:0|0:0,0:0:0:0:
483,114,95678,6,0,P|384:89|325:140,1,167.999994873047,0|0,1:0|0:0,0:0:0:0:
275,172,95999,5,0,3:0:0:0:
262,136,96053,1,0,3:0:0:0:
251,98,96106,1,0,3:0:0:0:
218,92,96160,1,0,3:0:0:0:
211,106,96214,2,0,B|200:140|200:140|143:149,1,83.9999974365235,0|0,1:0|0:0,0:0:0:0:
67,162,96428,1,0,0:0:0:0:
67,162,96642,5,0,0:0:0:0:
243,228,96749,2,0,P|326:228|398:271,1,167.999994873047,4|0,1:2|0:0,0:0:0:0:
398,271,97071,2,0,P|349:277|237:220,1,167.999994873047,4|0,1:2|0:0,0:0:0:0:
243,229,97392,2,0,P|326:228|398:271,1,167.999994873047,4|0,1:2|0:0,0:0:0:0:
110,288,97714,1,0,0:0:0:0:
160,216,97821,1,0,0:0:0:0:
68,161,97928,1,0,0:0:0:0:
140,75,98035,1,0,0:0:0:0:
260,55,98142,5,0,0:0:0:0:
271,66,98196,1,0,0:0:0:0:
274,86,98249,1,0,0:0:0:0:
296,82,98303,1,0,0:0:0:0:
326,86,98356,1,0,0:0:0:0:
332,110,98410,1,0,0:0:0:0:
322,146,98464,5,0,1:0:0:0:
269,273,98571,1,0,1:0:0:0:
269,273,98785,1,0,1:0:0:0:
140,76,99106,1,0,1:0:0:0:
340,103,99214,2,0,L|340:220,1,83.9999974365235
270,273,99428,5,0,1:0:0:0:
379,286,99535,1,0,3:0:0:0:
385,305,99589,1,0,3:0:0:0:
392,323,99642,1,0,3:0:0:0:
189,285,99749,1,0,1:0:0:0:
311,350,99964,5,0,0:0:0:0:
167,359,100071,2,0,P|128:345|96:300,1,83.9999974365235
145,218,100285,2,0,P|159:258|190:286,1,83.9999974365235
241,94,100499,2,0,L|233:200,2,83.9999974365235,0|0|0,1:0|0:0|0:0,0:0:0:0:
341,103,100821,2,0,B|359:78|359:78|341:171|389:217,1,167.999994873047,0|0,1:0|0:0,0:0:0:0:
442,257,101142,5,0,0:0:0:0:
453,269,101249,2,0,L|461:311,1,41.9999987182618
460,160,101356,2,0,L|501:159,2,41.9999987182618
428,73,101571,1,0,0:0:0:0:
439,61,101678,2,0,L|447:19,2,41.9999987182618
103,227,101892,5,0,1:0:0:0:
103,227,102214,1,0,1:0:0:0:
103,227,102535,1,0,1:0:0:0:
382,208,102642,1,0,1:0:0:0:
86,49,102856,6,0,P|110:88|121:139,1,83.9999974365235,4|0,0:2|0:0,0:0:0:0:
152,115,103071,2,0,L|141:185,1,41.9999987182618
191,227,103178,2,0,L|251:322,2,83.9999974365235
326,128,103499,2,0,P|338:69|390:24,1,125.999996154785
434,80,103714,5,0,1:0:0:0:
468,142,103785,1,0,0:0:0:0:
475,213,103856,1,0,0:0:0:0:
460,284,103928,1,0,1:0:0:0:
407,332,103999,1,0,0:0:0:0:
337,351,104071,1,0,0:0:0:0:
267,332,104142,1,0,0:0:0:0:
212,239,104249,5,0,1:0:0:0:
304,258,104356,1,0,1:0:0:0:
244,340,104464,1,0,1:0:0:0:
138,336,104571,5,0,3:0:0:0:
141,324,104624,1,0,3:0:0:0:
136,306,104678,1,0,3:0:0:0:
118,289,104731,1,0,3:0:0:0:
90,276,104785,1,0,3:0:0:0:
62,252,104839,1,0,3:0:0:0:
43,214,104892,1,0,3:0:0:0:
48,171,104946,1,0,3:0:0:0:
71,136,104999,6,0,L|-5:122,2,60,0|0|0,3:0|0:0|0:0,0:0:0:0:
190,158,105214,1,0,3:0:0:0:
434,68,105642,6,0,L|400:184,1,120,4|0,1:2|0:0,0:0:0:0:
372,346,105964,2,0,L|338:230,1,120,4|0,1:2|0:0,0:0:0:0:
320,88,106285,2,0,L|257:191,1,120,4|0,1:2|0:0,0:0:0:0:
246,335,106499,1,0,3:0:0:0:
185,234,106606,1,0,3:0:0:0:
30,303,106928,6,0,P|70:271|85:198,1,120,4|0,1:2|0:0,0:0:0:0:
71,109,107142,2,0,L|200:109,2,120,4|0|0,1:2|0:0|0:0,0:0:0:0:
125,150,107464,2,0,P|134:207|192:234,1,120
246,335,107678,2,0,L|294:268,1,60
355,286,107785,2,0,P|302:260|278:198,2,120
361,161,108214,6,0,L|423:161,11,60,0|0|0|0|0|0|0|0|0|0|0|0,1:0|0:0|0:0|0:0|0:0|0:0|0:0|0:0|0:0|0:0|0:0|0:0,0:0:0:0:
421,161,108856,6,0,L|65:307,2,384,4|0|0,1:2|3:0|0:0,0:0:0:0:
288,108,115928,5,0,0:0:0:0:
214,70,116035,1,0,0:0:0:0:
137,37,116142,1,0,0:0:0:0:
87,205,116356,1,0,0:0:0:0:
87,205,116571,6,0,L|224:192,1,120
407,96,116785,2,0,L|288:108,1,120
206,193,116999,2,0,P|225:251|281:286,1,120
308,184,117214,2,0,P|366:210|429:191,1,120
408,97,117428,1,0,0:0:0:0:
69,80,117642,1,0,0:0:0:0:
88,204,117749,1,0,0:0:0:0:
106,329,117856,1,0,0:0:0:0:
455,324,118071,6,0,L|321:311,1,120
216,299,118285,1,0,0:0:0:0:
380,122,118499,2,0,L|246:109,1,120
141,97,118713,1,0,0:0:0:0:
216,299,118928,5,0,0:0:0:0:
380,121,119035,1,0,0:0:0:0:
142,97,119142,1,0,0:0:0:0:
130,215,119356,1,0,0:0:0:0:
335,251,119464,1,0,0:0:0:0:
262,61,119571,1,0,0:0:0:0:
197,162,119785,5,0,0:0:0:0:
257,231,119892,1,0,0:0:0:0:
288,147,119999,1,0,0:0:0:0:
197,162,120214,6,0,L|98:124,1,96
257,231,120428,2,0,L|272:328,1,96
289,147,120642,5,0,0:0:0:0:
170,249,120749,1,0,0:0:0:0:
347,212,120856,2,0,L|471:281,1,120
197,162,121071,2,0,L|218:25,1,120
170,249,121285,2,0,L|33:287,1,120
290,147,121499,5,0,0:0:0:0:
170,249,121606,1,0,0:0:0:0:
394,114,121714,6,0,B|462:97|462:97|439:269,1,233.999989288331,4|0,1:2|0:0,0:0:0:0:
428,335,121928,2,0,L|311:338,1,103.999995239258,4|0,1:2|0:0,0:0:0:0:
253,318,122071,5,0,1:0:0:0:
243,246,122142,1,0,1:0:0:0:
171,249,122214,1,0,1:0:0:0:
98,252,122285,5,0,1:0:0:0:
109,179,122356,1,0,1:0:0:0:
309,181,122499,1,0,1:0:0:0:
394,113,122570,1,0,1:0:0:0:
324,338,122714,1,0,1:0:0:0:
429,335,122785,6,0,L|434:231,1,103.999995239258,0|0,1:0|0:0,0:0:0:0:
312,106,122928,1,0,1:0:0:0:
196,152,122999,2,0,P|194:253|150:292,1,155.999992858887,0|0,1:0|0:0,0:0:0:0:
34,145,123214,2,0,P|73:77|159:86,1,155.999992858887,0|0,1:0|0:0,0:0:0:0:
492,293,123428,6,0,P|452:256|457:158,1,143.999995605469,4|0,1:2|0:0,0:0:0:0:
56,313,123642,2,0,P|132:299|176:232,1,143.999995605469,8|0,0:0|0:0,0:0:0:0:
502,31,123856,2,0,L|357:46,1,143.999995605469,8|0,0:0|0:0,0:0:0:0:
82,222,124071,2,0,P|36:175|52:93,1,143.999995605469,8|0,0:0|0:0,0:0:0:0:
318,182,124285,2,0,L|278:324,1,143.999995605469,0|0,1:0|0:0,0:0:0:0:
211,247,124499,6,0,L|224:204,1,35.9999989013672,8|0,0:0|0:0,0:0:0:0:
252,113,124606,1,8,1:2:0:0:
415,146,124714,2,0,B|385:249|385:249|408:296,1,143.999995605469,8|0,1:2|0:0,0:0:0:0:
96,85,124928,2,0,B|112:118|112:118|83:222,1,143.999995605469,0|0,1:0|0:0,0:0:0:0:
211,247,125142,6,0,L|234:317,2,71.9999978027344,0|0|0,1:0|0:0|0:0,0:0:0:0:
251,114,125356,2,0,L|228:44,2,71.9999978027344,8|0|0,1:2|0:0|0:0,0:0:0:0:
211,247,125571,2,0,P|293:280|341:260,1,143.999995605469,8|0,1:2|0:0,0:0:0:0:
415,146,125785,1,0,1:0:0:0:
83,222,125892,1,0,1:0:0:0:
339,71,125999,2,0,P|336:143|289:198,1,143.999995605469,0|0,1:0|0:0,0:0:0:0:
262,43,126214,6,0,L|249:128,1,71.9999978027344,0|0,1:0|0:0,0:0:0:0:
83,222,126321,2,0,L|93:150,1,71.9999978027344,0|0,1:0|0:0,0:0:0:0:
405,216,126428,2,0,P|369:284|379:356,1,143.999995605469,0|0,1:0|0:0,0:0:0:0:
211,247,126642,1,0,1:0:0:0:
339,70,126749,1,0,1:0:0:0:
296,304,126856,2,0,P|246:340|157:331,1,143.999995605469,0|0,1:0|0:0,0:0:0:0:
320,171,127071,2,0,P|366:131|462:140,1,143.999995605469,0|0,1:0|0:0,0:0:0:0:
406,216,127285,5,0,1:0:0:0:
339,71,127392,1,0,1:0:0:0:
182,160,127499,1,0,1:0:0:0:
215,300,127606,1,0,1:0:0:0:
417,294,127714,2,0,L|499:292,2,71.9999978027344,0|0|0,1:0|0:0|0:0,0:0:0:0:
120,65,127928,2,0,L|38:67,2,71.9999978027344,0|0|0,1:0|0:0|0:0,0:0:0:0:
215,300,128142,2,0,P|143:290|66:308,1,143.999995605469,0|0,1:0|0:0,0:0:0:0:
183,160,128356,5,0,1:0:0:0:
347,210,128464,1,0,1:0:0:0:
75,306,128571,2,0,P|144:315|218:298,1,143.999995605469,0|0,1:0|0:0,0:0:0:0:
316,117,128785,2,0,P|256:152|180:160,1,143.999995605469,0|0,1:0|0:0,0:0:0:0:
348,210,128999,5,0,1:0:0:0:
215,300,129106,1,0,1:0:0:0:
347,349,129214,1,0,1:0:0:0:
177,29,129321,1,0,1:0:0:0:
215,300,129428,6,0,L|266:310,4,35.9999989013672,0|0|0|0|0,1:0|0:0|0:0|0:0|0:0,0:0:0:0:
128,243,129642,2,0,L|163:236,4,35.9999989013672,0|0|0|0|0,1:0|0:0|0:0|0:0|0:0,0:0:0:0:
46,148,129856,2,0,L|81:154,4,35.9999989013672,0|0|0|0|0,1:0|0:0|0:0|0:0|0:0,0:0:0:0:
115,64,130071,2,0,L|185:25,2,71.9999978027344,0|0|0,1:0|1:0|1:0,0:0:0:0:
348,210,130285,6,0,L|381:53,1,143.999995605469,0|0,1:0|0:0,0:0:0:0:
403,158,130499,2,0,P|416:244|378:280,1,143.999995605469,0|0,1:0|0:0,0:0:0:0:
358,285,130660,1,0,0:0:0:0:
333,284,130714,2,0,L|188:278,1,143.999995605469,0|0,1:0|0:0,0:0:0:0:
121,310,130928,2,0,P|172:352|242:331,1,143.999995605469,0|0,1:0|0:0,0:0:0:0:
293,112,131142,2,0,P|294:66|317:23,2,95.9999970703126
292,160,131356,5,8,0:0:0:0:
254,190,131428,1,8,0:0:0:0:
207,181,131499,1,8,0:0:0:0:
176,144,131571,6,0,P|109:165|42:138,1,143.999995605469,0|0,1:0|0:0,0:0:0:0:
358,284,131785,2,0,P|288:293|227:255,1,143.999995605469,0|0,1:0|0:0,0:0:0:0:
131,87,131999,2,0,P|108:169|152:212,1,143.999995605469,0|0,1:0|0:0,0:0:0:0:
228,266,132214,2,0,P|290:299|359:284,1,143.999995605469,0|0,1:0|0:0,0:0:0:0:
312,190,132428,2,0,L|471:161,1,143.999995605469,0|0,1:0|0:0,0:0:0:0:
482,158,132642,2,0,L|338:173,1,143.999995605469,0|0,1:0|0:0,0:0:0:0:
48,276,132856,5,8,0:0:0:0:
45,262,132910,1,0,0:0:0:0:
41,247,132964,1,0,0:0:0:0:
37,232,133017,1,0,0:0:0:0:
32,215,133071,2,0,B|24:155|24:155|187:193,1,215.999993408203,4|0,1:2|0:0,0:0:0:0:
235,235,133285,5,8,0:0:0:0:
244,246,133339,1,8,0:0:0:0:
242,260,133392,1,8,0:0:0:0:
236,273,133446,1,8,0:0:0:0:
226,281,133499,2,0,P|305:325|436:294,1,215.999993408203,4|0,1:2|0:0,0:0:0:0:
373,248,133714,2,0,P|391:159|324:43,1,215.999993408203,4|0,1:2|0:0,0:0:0:0:
295,112,133928,2,0,P|204:119|113:218,1,215.999993408203,4|0,1:2|0:0,0:0:0:0:
134,276,134142,5,0,1:0:0:0:
124,286,134196,1,0,1:0:0:0:
114,296,134249,1,0,1:0:0:0:
104,306,134303,1,0,1:0:0:0:
94,316,134356,2,0,L|329:328,1,215.999993408203,4|0,1:2|0:0,0:0:0:0:
418,68,134571,2,0,L|183:56,1,215.999993408203,4|0,1:2|0:0,0:0:0:0:
142,103,134785,5,4,1:2:0:0:
245,180,134892,1,8,0:0:0:0:
263,191,134946,1,8,0:0:0:0:
280,202,134999,1,8,0:0:0:0:
298,213,135053,1,8,0:0:0:0:
315,224,135106,1,8,0:0:0:0:
333,235,135160,1,8,0:0:0:0:
351,247,135214,6,0,B|410:285|410:285|415:121,1,215.999993408203,4|0,1:2|0:0,0:0:0:0:
418,68,135428,2,0,P|303:40|197:66,1,215.999993408203,4|0,1:2|0:0,0:0:0:0:
142,103,135642,2,0,P|148:221|204:314,1,215.999993408203,4|0,1:2|0:0,0:0:0:0:
261,357,135856,1,0,1:0:0:0:
300,357,135910,1,0,1:0:0:0:
340,346,135964,1,0,1:0:0:0:
376,326,136017,1,0,1:0:0:0:
403,299,136071,6,0,P|426:196|340:152,1,215.999993408203,4|0,1:2|0:0,0:0:0:0:
196,212,136285,6,0,P|273:283|354:230,1,215.999993408203,4|0,1:2|0:0,0:0:0:0:
280,202,136499,5,4,1:2:0:0:
419,68,136606,5,8,0:0:0:0:
382,69,136660,1,8,0:0:0:0:
345,70,136714,1,8,0:0:0:0:
309,71,136767,1,8,0:0:0:0:
272,72,136821,1,8,0:0:0:0:
236,73,136874,1,8,0:0:0:0:
199,75,136928,2,0,L|41:80,1,143.999995605469,4|0,1:2|0:0,0:0:0:0:
75,252,137142,5,0,3:0:0:0:
108,265,137196,1,0,3:0:0:0:
144,269,137250,1,0,3:0:0:0:
186,267,137303,1,0,3:0:0:0:
222,257,137356,2,0,P|299:246|380:262,1,143.999995605469,4|0,1:2|0:0,0:0:0:0:
500,200,137571,5,0,1:0:0:0:
461,167,137625,1,0,1:0:0:0:
412,153,137679,1,0,1:0:0:0:
366,156,137732,1,0,1:0:0:0:
321,168,137785,2,0,P|247:177|163:163,1,143.999995605469,4|0,1:2|0:0,0:0:0:0:
19,185,137999,6,0,P|-11:271|19:319,1,143.999995605469,4|0,1:2|0:0,0:0:0:0:
279,323,138213,2,0,P|309:237|279:189,1,143.999995605469,4|0,1:2|0:0,0:0:0:0:
19,185,138428,2,0,P|-11:271|79:338,1,215.999993408203,4|0,1:2|0:0,0:0:0:0:
143,283,138642,5,0,1:0:0:0:
157,249,138696,1,0,1:0:0:0:
171,216,138749,1,0,1:0:0:0:
185,182,138803,1,0,1:0:0:0:
197,155,138856,6,0,L|243:31,1,120,4|0,1:2|0:0,0:0:0:0:
313,23,139071,2,0,L|259:116,1,107.999996704102
278,219,139285,6,0,L|341:137,1,96,4|0,1:2|0:0,0:0:0:0:
412,158,139499,2,0,L|345:217,1,83.9999974365235
412,268,139714,6,0,L|354:310,1,71.9999978027344
284,377,139928,2,0,L|254:311,1,71.9999978027344
277,219,140142,6,0,L|216:190,1,60
202,101,140356,2,0,L|137:81,1,60
224,194,140999,5,4,1:2:0:0:
256,192,141106,12,0,143892,0:0:0:0:
138,104,143999,6,0,L|145:83,6,22.5000008583069
