osu file format v14

[General]
AudioFilename: LeaF - Chronostasis.mp3
AudioLeadIn: 0
PreviewTime: 93131
Countdown: 0
SampleSet: Normal
StackLeniency: 0.7
Mode: 1
LetterboxInBreaks: 0
WidescreenStoryboard: 0

[Editor]
DistanceSpacing: 1.5
BeatDivisor: 4
GridSize: 32
TimelineZoom: 1.2

[Metadata]
Title:Chronostasis
TitleUnicode:Chronostasis
Artist:LeaF
ArtistUnicode:LeaF
Creator:DakeDekaane
Version:Oni
Source:
Tags:Unisphere Cyberland Chrono Core
BeatmapID:459654
BeatmapSetID:193469

[Difficulty]
HPDrainRate:6
CircleSize:5
OverallDifficulty:6
ApproachRate:5
SliderMultiplier:1.4
SliderTickRate:1

[Events]
//Background and Video events
0,0,"LeaF - Chronostasis - Background.jpg",0,0
//Break Periods
//Storyboard Layer 0 (Background)
//Storyboard Layer 1 (Fail)
//Storyboard Layer 2 (Pass)
//Storyboard Layer 3 (Foreground)
//Storyboard Sound Samples

[TimingPoints]
2539,315.789473684211,4,1,0,80,1,0
46670,-100,4,1,0,70,0,0
56775,-100,4,1,0,80,0,0
93486,-100,4,1,0,80,0,1
113696,-100,4,1,0,80,0,0
118749,-100,4,1,0,80,0,1
126328,-100,4,1,0,80,0,0

[HitObjects]
256,192,11381,5,0,0:0:0:0:
256,192,11539,1,0,0:0:0:0:
256,192,11696,1,8,0:0:0:0:
256,192,11775,1,0,0:0:0:0:
256,192,11854,1,8,0:0:0:0:
256,192,12012,1,0,0:0:0:0:
256,192,12170,1,0,0:0:0:0:
256,192,12328,1,8,0:0:0:0:
256,192,12407,1,0,0:0:0:0:
256,192,12486,1,8,0:0:0:0:
256,192,12644,1,0,0:0:0:0:
256,192,12802,1,0,0:0:0:0:
256,192,12960,1,8,0:0:0:0:
256,192,13039,1,0,0:0:0:0:
256,192,13117,1,8,0:0:0:0:
256,192,13275,1,4,0:0:0:0:
256,192,13591,1,4,0:0:0:0:
256,192,13907,1,0,0:0:0:0:
256,192,14065,1,0,0:0:0:0:
256,192,14223,1,8,0:0:0:0:
256,192,14302,1,0,0:0:0:0:
256,192,14381,1,8,0:0:0:0:
256,192,14539,1,0,0:0:0:0:
256,192,14696,1,0,0:0:0:0:
256,192,14854,1,8,0:0:0:0:
256,192,14933,1,0,0:0:0:0:
256,192,15012,1,8,0:0:0:0:
256,192,15170,1,0,0:0:0:0:
256,192,15328,1,0,0:0:0:0:
256,192,15486,1,8,0:0:0:0:
256,192,15565,1,0,0:0:0:0:
256,192,15644,1,8,0:0:0:0:
256,192,15802,1,4,0:0:0:0:
256,192,16117,1,4,0:0:0:0:
256,192,16433,1,0,0:0:0:0:
256,192,16591,1,0,0:0:0:0:
256,192,16749,1,8,0:0:0:0:
256,192,16986,1,8,0:0:0:0:
256,192,17065,1,0,0:0:0:0:
256,192,17223,1,0,0:0:0:0:
256,192,17381,1,8,0:0:0:0:
256,192,17460,1,8,0:0:0:0:
256,192,17539,1,0,0:0:0:0:
256,192,17617,1,0,0:0:0:0:
256,192,17696,1,0,0:0:0:0:
256,192,17854,1,0,0:0:0:0:
256,192,17933,1,0,0:0:0:0:
256,192,18012,1,8,0:0:0:0:
256,192,18170,1,8,0:0:0:0:
256,192,18328,1,4,0:0:0:0:
256,192,18644,1,4,0:0:0:0:
256,192,18960,1,0,0:0:0:0:
256,192,19117,1,0,0:0:0:0:
256,192,19275,1,8,0:0:0:0:
256,192,19512,1,8,0:0:0:0:
256,192,19591,1,0,0:0:0:0:
256,192,19749,1,0,0:0:0:0:
256,192,19907,1,8,0:0:0:0:
256,192,19986,1,8,0:0:0:0:
256,192,20065,1,0,0:0:0:0:
256,192,20144,1,0,0:0:0:0:
256,192,20223,1,0,0:0:0:0:
256,192,20381,1,0,0:0:0:0:
256,192,20460,1,0,0:0:0:0:
256,192,20539,1,8,0:0:0:0:
256,192,20617,1,8,0:0:0:0:
256,192,20696,1,8,0:0:0:0:
256,192,20854,1,4,0:0:0:0:
256,192,21170,1,4,0:0:0:0:
256,192,21486,1,8,0:0:0:0:
256,192,21565,1,8,0:0:0:0:
256,192,21644,1,8,0:0:0:0:
256,192,21723,1,8,0:0:0:0:
256,192,21802,1,0,0:0:0:0:
256,192,21960,1,8,0:0:0:0:
256,192,22117,1,0,0:0:0:0:
256,192,22275,1,8,0:0:0:0:
256,192,22433,1,0,0:0:0:0:
256,192,22591,1,8,0:0:0:0:
256,192,22749,1,12,0:0:0:0:
256,192,23065,1,0,0:0:0:0:
256,192,23223,1,8,0:0:0:0:
256,192,23381,1,0,0:0:0:0:
256,192,23539,1,8,0:0:0:0:
256,192,23696,1,12,0:0:0:0:
256,192,24012,1,0,0:0:0:0:
256,192,24170,1,8,0:0:0:0:
256,192,24328,1,0,0:0:0:0:
256,192,24486,1,8,0:0:0:0:
256,192,24644,1,0,0:0:0:0:
256,192,24802,1,8,0:0:0:0:
256,192,24960,1,0,0:0:0:0:
256,192,25117,1,8,0:0:0:0:
256,192,25275,1,8,0:0:0:0:
256,192,25354,1,8,0:0:0:0:
256,192,25433,1,8,0:0:0:0:
256,192,25512,1,8,0:0:0:0:
256,192,25591,1,0,0:0:0:0:
256,192,25749,1,8,0:0:0:0:
256,192,25907,1,0,0:0:0:0:
256,192,26065,1,8,0:0:0:0:
256,192,26223,1,12,0:0:0:0:
256,192,26539,1,0,0:0:0:0:
256,192,26696,1,0,0:0:0:0:
256,192,26854,1,8,0:0:0:0:
256,192,27012,1,0,0:0:0:0:
256,192,27170,1,8,0:0:0:0:
256,192,27328,1,0,0:0:0:0:
256,192,27407,1,0,0:0:0:0:
256,192,27486,1,0,0:0:0:0:
256,192,27644,1,8,0:0:0:0:
256,192,27802,1,0,0:0:0:0:
256,192,27960,1,0,0:0:0:0:
256,192,28117,1,8,0:0:0:0:
256,192,28275,1,0,0:0:0:0:
256,192,28433,1,8,0:0:0:0:
256,192,28591,1,0,0:0:0:0:
256,192,28670,1,0,0:0:0:0:
256,192,28749,1,8,0:0:0:0:
256,192,29065,1,0,0:0:0:0:
256,192,29223,1,0,0:0:0:0:
256,192,29381,1,8,0:0:0:0:
256,192,29539,1,0,0:0:0:0:
256,192,29696,1,8,0:0:0:0:
256,192,29854,1,0,0:0:0:0:
256,192,29933,1,0,0:0:0:0:
256,192,30012,1,8,0:0:0:0:
256,192,30170,1,8,0:0:0:0:
256,192,30328,1,0,0:0:0:0:
256,192,30486,1,0,0:0:0:0:
256,192,30644,1,8,0:0:0:0:
256,192,30802,1,0,0:0:0:0:
256,192,30960,1,8,0:0:0:0:
256,192,31117,1,8,0:0:0:0:
256,192,31196,1,8,0:0:0:0:
256,192,31275,1,8,0:0:0:0:
256,192,31591,1,0,0:0:0:0:
256,192,31749,1,0,0:0:0:0:
256,192,31907,1,8,0:0:0:0:
256,192,32065,1,0,0:0:0:0:
256,192,32223,1,8,0:0:0:0:
256,192,32381,1,0,0:0:0:0:
256,192,32460,1,0,0:0:0:0:
256,192,32539,1,0,0:0:0:0:
256,192,32696,1,8,0:0:0:0:
256,192,32854,1,0,0:0:0:0:
256,192,33012,1,0,0:0:0:0:
256,192,33170,1,8,0:0:0:0:
256,192,33328,1,0,0:0:0:0:
256,192,33486,1,8,0:0:0:0:
256,192,33644,1,0,0:0:0:0:
256,192,33723,1,0,0:0:0:0:
256,192,33802,1,8,0:0:0:0:
256,192,34117,1,0,0:0:0:0:
256,192,34275,1,0,0:0:0:0:
256,192,34433,1,8,0:0:0:0:
256,192,34591,1,0,0:0:0:0:
256,192,34749,1,8,0:0:0:0:
256,192,34907,1,0,0:0:0:0:
256,192,34986,1,0,0:0:0:0:
256,192,35065,1,8,0:0:0:0:
256,192,35223,1,8,0:0:0:0:
256,192,35381,1,0,0:0:0:0:
256,192,35539,1,0,0:0:0:0:
256,192,35696,1,8,0:0:0:0:
256,192,35775,1,8,0:0:0:0:
256,192,35854,1,0,0:0:0:0:
256,192,36012,1,8,0:0:0:0:
256,192,36091,1,8,0:0:0:0:
256,192,36170,1,0,0:0:0:0:
256,192,36328,1,8,0:0:0:0:
256,192,36407,1,8,0:0:0:0:
256,192,36486,1,8,0:0:0:0:
256,192,36644,1,4,0:0:0:0:
256,192,36802,1,0,0:0:0:0:
256,192,36881,1,0,0:0:0:0:
256,192,36960,1,8,0:0:0:0:
256,192,37117,1,0,0:0:0:0:
256,192,37196,1,0,0:0:0:0:
256,192,37354,1,8,0:0:0:0:
256,192,37512,1,0,0:0:0:0:
256,192,37591,1,8,0:0:0:0:
256,192,37907,1,0,0:0:0:0:
256,192,38065,1,0,0:0:0:0:
256,192,38144,1,0,0:0:0:0:
256,192,38223,1,8,0:0:0:0:
256,192,38381,1,0,0:0:0:0:
256,192,38460,1,8,0:0:0:0:
256,192,38617,1,8,0:0:0:0:
256,192,38775,1,0,0:0:0:0:
256,192,38854,1,8,0:0:0:0:
256,192,39012,1,8,0:0:0:0:
256,192,39170,1,0,0:0:0:0:
256,192,39328,1,0,0:0:0:0:
256,192,39486,1,8,0:0:0:0:
256,192,39644,1,8,0:0:0:0:
256,192,39802,1,0,0:0:0:0:
256,192,39960,1,0,0:0:0:0:
256,192,40117,1,8,0:0:0:0:
256,192,40275,1,0,0:0:0:0:
256,192,40433,1,8,0:0:0:0:
256,192,40591,1,8,0:0:0:0:
256,192,40749,1,0,0:0:0:0:
256,192,40907,1,8,0:0:0:0:
256,192,41065,1,0,0:0:0:0:
256,192,41381,1,0,0:0:0:0:
256,192,41460,1,0,0:0:0:0:
256,192,41539,1,0,0:0:0:0:
256,192,41617,1,0,0:0:0:0:
256,192,41696,1,0,0:0:0:0:
256,192,41854,1,0,0:0:0:0:
256,192,41933,1,0,0:0:0:0:
256,192,42012,1,8,0:0:0:0:
256,192,42170,1,0,0:0:0:0:
256,192,42249,1,0,0:0:0:0:
256,192,42407,1,8,0:0:0:0:
256,192,42565,1,0,0:0:0:0:
256,192,42644,1,8,0:0:0:0:
256,192,42960,1,0,0:0:0:0:
256,192,43117,1,0,0:0:0:0:
256,192,43196,1,0,0:0:0:0:
256,192,43275,1,8,0:0:0:0:
256,192,43433,1,0,0:0:0:0:
256,192,43512,1,8,0:0:0:0:
256,192,43670,1,8,0:0:0:0:
256,192,43828,1,0,0:0:0:0:
256,192,43907,1,8,0:0:0:0:
256,192,44065,1,8,0:0:0:0:
256,192,44223,1,0,0:0:0:0:
256,192,44381,1,0,0:0:0:0:
256,192,44539,1,8,0:0:0:0:
256,192,44696,1,8,0:0:0:0:
256,192,44854,1,0,0:0:0:0:
256,192,45012,1,0,0:0:0:0:
256,192,45170,1,8,0:0:0:0:
256,192,45328,1,0,0:0:0:0:
256,192,45486,1,0,0:0:0:0:
256,192,45644,1,8,0:0:0:0:
256,192,45802,1,0,0:0:0:0:
256,192,45960,1,8,0:0:0:0:
256,192,46117,1,0,0:0:0:0:
256,192,46275,1,0,0:0:0:0:
256,192,46354,1,0,0:0:0:0:
256,192,46433,1,8,0:0:0:0:
256,192,46512,1,8,0:0:0:0:
256,192,46591,1,0,0:0:0:0:
256,192,46749,1,8,0:0:0:0:
256,192,46986,1,0,0:0:0:0:
256,192,47223,1,8,0:0:0:0:
256,192,47539,1,8,0:0:0:0:
256,192,47617,1,8,0:0:0:0:
256,192,47696,1,0,0:0:0:0:
256,192,47854,1,8,0:0:0:0:
256,192,48012,1,0,0:0:0:0:
256,192,48328,1,8,0:0:0:0:
256,192,48486,1,0,0:0:0:0:
256,192,48644,1,8,0:0:0:0:
256,192,48960,1,0,0:0:0:0:
256,192,49275,1,8,0:0:0:0:
256,192,49749,1,8,0:0:0:0:
256,192,49828,1,0,0:0:0:0:
256,192,49907,1,8,0:0:0:0:
256,192,50144,1,8,0:0:0:0:
256,192,50381,1,8,0:0:0:0:
256,192,50539,1,0,0:0:0:0:
256,192,50775,1,0,0:0:0:0:
256,192,51012,1,0,0:0:0:0:
256,192,51170,1,8,0:0:0:0:
256,192,51644,1,8,0:0:0:0:
256,192,51723,1,0,0:0:0:0:
256,192,51802,1,8,0:0:0:0:
256,192,52275,1,8,0:0:0:0:
256,192,52433,1,8,0:0:0:0:
256,192,52907,1,0,0:0:0:0:
256,192,52986,1,8,0:0:0:0:
256,192,53065,1,8,0:0:0:0:
256,192,53302,1,8,0:0:0:0:
256,192,53539,1,0,0:0:0:0:
256,192,53696,1,8,0:0:0:0:
256,192,54012,1,0,0:0:0:0:
256,192,54328,1,8,0:0:0:0:
256,192,54802,1,0,0:0:0:0:
256,192,54960,1,8,0:0:0:0:
256,192,55275,1,8,0:0:0:0:
256,192,55433,1,0,0:0:0:0:
256,192,55591,1,8,0:0:0:0:
256,192,56065,1,8,0:0:0:0:
256,192,56144,1,0,0:0:0:0:
256,192,56223,1,8,0:0:0:0:
256,192,56381,1,8,0:0:0:0:
256,192,56460,1,8,0:0:0:0:
256,192,56539,1,8,0:0:0:0:
256,192,56696,1,0,0:0:0:0:
256,192,56854,1,4,0:0:0:0:
256,192,57012,1,0,0:0:0:0:
256,192,57170,1,8,0:0:0:0:
256,192,57328,1,0,0:0:0:0:
256,192,57486,1,0,0:0:0:0:
256,192,57644,1,8,0:0:0:0:
256,192,57881,1,8,0:0:0:0:
256,192,58039,1,8,0:0:0:0:
256,192,58117,1,8,0:0:0:0:
256,192,58354,1,8,0:0:0:0:
256,192,58591,1,8,0:0:0:0:
256,192,58749,1,0,0:0:0:0:
256,192,58828,1,0,0:0:0:0:
256,192,58907,1,0,0:0:0:0:
256,192,59065,1,8,0:0:0:0:
256,192,59381,1,0,0:0:0:0:
256,192,59539,1,0,0:0:0:0:
256,192,59617,1,8,0:0:0:0:
256,192,59696,1,8,0:0:0:0:
256,192,59854,1,0,0:0:0:0:
256,192,59933,1,8,0:0:0:0:
256,192,60091,1,8,0:0:0:0:
256,192,60249,1,0,0:0:0:0:
256,192,60328,1,0,0:0:0:0:
256,192,60486,1,8,0:0:0:0:
256,192,60644,1,8,0:0:0:0:
256,192,60881,1,8,0:0:0:0:
256,192,61117,1,8,0:0:0:0:
256,192,61275,1,0,0:0:0:0:
256,192,61354,1,0,0:0:0:0:
256,192,61433,1,8,0:0:0:0:
256,192,61591,1,0,0:0:0:0:
256,192,61670,1,0,0:0:0:0:
256,192,61749,1,8,0:0:0:0:
256,192,61907,1,0,0:0:0:0:
256,192,61986,1,8,0:0:0:0:
256,192,62144,1,8,0:0:0:0:
256,192,62223,1,8,0:0:0:0:
256,192,62381,1,0,0:0:0:0:
256,192,62539,1,0,0:0:0:0:
256,192,62696,1,8,0:0:0:0:
256,192,62775,1,0,0:0:0:0:
256,192,62933,1,8,0:0:0:0:
256,192,63170,1,0,0:0:0:0:
256,192,63249,1,0,0:0:0:0:
256,192,63328,1,8,0:0:0:0:
256,192,63565,1,8,0:0:0:0:
256,192,63802,1,8,0:0:0:0:
256,192,64039,1,8,0:0:0:0:
256,192,64275,1,0,0:0:0:0:
256,192,64433,1,0,0:0:0:0:
256,192,64591,1,8,0:0:0:0:
256,192,64828,1,8,0:0:0:0:
256,192,65065,1,8,0:0:0:0:
256,192,65302,1,8,0:0:0:0:
256,192,65539,1,8,0:0:0:0:
256,192,65696,1,8,0:0:0:0:
256,192,65775,1,8,0:0:0:0:
256,192,65854,1,0,0:0:0:0:
256,192,65933,1,0,0:0:0:0:
256,192,66012,1,0,0:0:0:0:
256,192,66170,1,8,0:0:0:0:
256,192,66328,1,0,0:0:0:0:
256,192,66433,1,0,0:0:0:0:
256,192,66539,1,0,0:0:0:0:
256,192,66644,1,12,0:0:0:0:
256,192,66960,1,0,0:0:0:0:
256,192,67117,1,0,0:0:0:0:
256,192,67354,1,0,0:0:0:0:
256,192,67591,1,0,0:0:0:0:
256,192,67828,1,8,0:0:0:0:
256,192,68065,1,8,0:0:0:0:
256,192,68223,1,0,0:0:0:0:
256,192,68381,1,0,0:0:0:0:
256,192,68539,1,0,0:0:0:0:
256,192,68617,1,0,0:0:0:0:
256,192,68854,1,0,0:0:0:0:
256,192,69012,1,8,0:0:0:0:
256,192,69170,1,0,0:0:0:0:
256,192,69249,1,0,0:0:0:0:
256,192,69328,1,0,0:0:0:0:
256,192,69486,1,0,0:0:0:0:
256,192,69644,1,0,0:0:0:0:
256,192,69881,1,0,0:0:0:0:
256,192,70117,1,0,0:0:0:0:
256,192,70354,1,8,0:0:0:0:
256,192,70591,1,0,0:0:0:0:
256,192,70749,1,0,0:0:0:0:
256,192,70986,1,8,0:0:0:0:
256,192,71223,1,0,0:0:0:0:
256,192,71381,1,0,0:0:0:0:
256,192,72012,1,0,0:0:0:0:
256,192,72170,1,0,0:0:0:0:
256,192,72407,1,0,0:0:0:0:
256,192,72644,1,0,0:0:0:0:
256,192,72881,1,8,0:0:0:0:
256,192,73117,1,8,0:0:0:0:
256,192,73275,1,0,0:0:0:0:
256,192,73433,1,0,0:0:0:0:
256,192,73591,1,0,0:0:0:0:
256,192,73670,1,0,0:0:0:0:
256,192,73907,1,0,0:0:0:0:
256,192,74065,1,8,0:0:0:0:
256,192,74223,1,0,0:0:0:0:
256,192,74302,1,0,0:0:0:0:
256,192,74381,1,0,0:0:0:0:
256,192,74539,1,12,0:0:0:0:
256,192,74854,1,0,0:0:0:0:
256,192,75170,1,12,0:0:0:0:
256,192,75486,1,0,0:0:0:0:
256,192,75644,1,8,0:0:0:0:
256,192,75960,1,8,0:0:0:0:
256,192,76039,1,8,0:0:0:0:
256,192,76117,1,8,0:0:0:0:
256,192,76275,1,8,0:0:0:0:
256,192,76433,2,0,L|480:192,1,210
256,192,77065,1,4,0:0:0:0:
256,192,77223,1,0,0:0:0:0:
256,192,77381,1,8,0:0:0:0:
256,192,77539,1,0,0:0:0:0:
256,192,77696,1,0,0:0:0:0:
256,192,77775,1,0,0:0:0:0:
256,192,77854,1,0,0:0:0:0:
256,192,78012,1,8,0:0:0:0:
256,192,78328,1,0,0:0:0:0:
256,192,78486,1,0,0:0:0:0:
256,192,78644,1,8,0:0:0:0:
256,192,78802,1,0,0:0:0:0:
256,192,78960,1,0,0:0:0:0:
256,192,79039,1,0,0:0:0:0:
256,192,79117,1,0,0:0:0:0:
256,192,79275,1,8,0:0:0:0:
256,192,79354,1,8,0:0:0:0:
256,192,79433,1,8,0:0:0:0:
256,192,79591,1,0,0:0:0:0:
256,192,79749,1,0,0:0:0:0:
256,192,79907,1,8,0:0:0:0:
256,192,80065,1,0,0:0:0:0:
256,192,80223,1,0,0:0:0:0:
256,192,80302,1,0,0:0:0:0:
256,192,80381,1,0,0:0:0:0:
256,192,80539,1,8,0:0:0:0:
256,192,80644,1,8,0:0:0:0:
256,192,80749,1,8,0:0:0:0:
256,192,80854,1,0,0:0:0:0:
256,192,81012,1,0,0:0:0:0:
256,192,81170,1,8,0:0:0:0:
256,192,81328,1,0,0:0:0:0:
256,192,81486,1,8,0:0:0:0:
256,192,81644,1,8,0:0:0:0:
256,192,81723,1,8,0:0:0:0:
256,192,81802,1,8,0:0:0:0:
256,192,81960,1,0,0:0:0:0:
256,192,82117,1,4,0:0:0:0:
256,192,82275,1,0,0:0:0:0:
256,192,82354,1,0,0:0:0:0:
256,192,82433,1,8,0:0:0:0:
256,192,82591,1,0,0:0:0:0:
256,192,82749,1,0,0:0:0:0:
256,192,82828,1,0,0:0:0:0:
256,192,82907,1,0,0:0:0:0:
256,192,83065,1,8,0:0:0:0:
256,192,83381,1,4,0:0:0:0:
256,192,83539,1,0,0:0:0:0:
256,192,83617,1,0,0:0:0:0:
256,192,83696,1,8,0:0:0:0:
256,192,83854,1,0,0:0:0:0:
256,192,84012,1,0,0:0:0:0:
256,192,84091,1,0,0:0:0:0:
256,192,84170,1,0,0:0:0:0:
256,192,84328,1,8,0:0:0:0:
256,192,84644,1,4,0:0:0:0:
256,192,84802,1,0,0:0:0:0:
256,192,84960,1,8,0:0:0:0:
256,192,85275,1,4,0:0:0:0:
256,192,85433,1,0,0:0:0:0:
256,192,85591,1,8,0:0:0:0:
256,192,85907,1,4,0:0:0:0:
256,192,86065,1,0,0:0:0:0:
256,192,86223,1,12,0:0:0:0:
256,192,86539,1,12,0:0:0:0:
256,192,86854,1,8,0:0:0:0:
256,192,86933,1,8,0:0:0:0:
256,192,87012,1,8,0:0:0:0:
256,192,87091,1,0,0:0:0:0:
256,192,87170,1,8,0:0:0:0:
256,192,89696,1,0,0:0:0:0:
256,192,89854,1,8,0:0:0:0:
256,192,90012,1,0,0:0:0:0:
256,192,90170,1,8,0:0:0:0:
256,192,90328,1,0,0:0:0:0:
256,192,90407,1,0,0:0:0:0:
256,192,90486,1,0,0:0:0:0:
256,192,90644,1,8,0:0:0:0:
256,192,90802,1,8,0:0:0:0:
256,192,90960,1,8,0:0:0:0:
256,192,91117,1,0,0:0:0:0:
256,192,91196,1,0,0:0:0:0:
256,192,91275,1,0,0:0:0:0:
256,192,91433,1,8,0:0:0:0:
256,192,91591,1,8,0:0:0:0:
256,192,91749,1,8,0:0:0:0:
256,192,91907,1,0,0:0:0:0:
256,192,91986,1,0,0:0:0:0:
256,192,92065,1,0,0:0:0:0:
256,192,92144,1,0,0:0:0:0:
256,192,92223,1,8,0:0:0:0:
256,192,92381,1,0,0:0:0:0:
256,192,92460,1,0,0:0:0:0:
256,192,92539,1,8,0:0:0:0:
256,192,92696,1,0,0:0:0:0:
256,192,92775,1,0,0:0:0:0:
256,192,92854,1,8,0:0:0:0:
256,192,93012,1,0,0:0:0:0:
256,192,93170,1,12,0:0:0:0:
256,192,93486,1,8,0:0:0:0:
256,192,93723,1,0,0:0:0:0:
256,192,93802,1,0,0:0:0:0:
256,192,93960,1,0,0:0:0:0:
256,192,94117,1,8,0:0:0:0:
256,192,94354,1,0,0:0:0:0:
256,192,94433,1,0,0:0:0:0:
256,192,94591,1,0,0:0:0:0:
256,192,94749,1,8,0:0:0:0:
256,192,94986,1,0,0:0:0:0:
256,192,95065,1,0,0:0:0:0:
256,192,95223,1,8,0:0:0:0:
256,192,95381,1,8,0:0:0:0:
256,192,95460,1,0,0:0:0:0:
256,192,95617,1,8,0:0:0:0:
256,192,95696,1,0,0:0:0:0:
256,192,95854,1,8,0:0:0:0:
256,192,96012,1,8,0:0:0:0:
256,192,96249,1,8,0:0:0:0:
256,192,96328,1,0,0:0:0:0:
256,192,96486,1,8,0:0:0:0:
256,192,96644,1,0,0:0:0:0:
256,192,96881,1,8,0:0:0:0:
256,192,96960,1,0,0:0:0:0:
256,192,97117,1,8,0:0:0:0:
256,192,97275,1,8,0:0:0:0:
256,192,97512,1,8,0:0:0:0:
256,192,97591,1,0,0:0:0:0:
256,192,97749,1,8,0:0:0:0:
256,192,97907,1,0,0:0:0:0:
256,192,98223,1,0,0:0:0:0:
256,192,98381,1,0,0:0:0:0:
256,192,98539,1,8,0:0:0:0:
256,192,98617,1,8,0:0:0:0:
256,192,98696,1,0,0:0:0:0:
256,192,98775,1,0,0:0:0:0:
256,192,98854,1,0,0:0:0:0:
256,192,99012,1,8,0:0:0:0:
256,192,99170,1,8,0:0:0:0:
256,192,99249,1,8,0:0:0:0:
256,192,99328,1,0,0:0:0:0:
256,192,99407,1,0,0:0:0:0:
256,192,99486,1,0,0:0:0:0:
256,192,99644,1,8,0:0:0:0:
256,192,99802,1,8,0:0:0:0:
256,192,99881,1,8,0:0:0:0:
256,192,99960,1,0,0:0:0:0:
256,192,100039,1,0,0:0:0:0:
256,192,100117,1,0,0:0:0:0:
256,192,100275,1,8,0:0:0:0:
256,192,100433,1,8,0:0:0:0:
256,192,100512,1,8,0:0:0:0:
256,192,100591,1,0,0:0:0:0:
256,192,100670,1,0,0:0:0:0:
256,192,100749,1,0,0:0:0:0:
256,192,100907,1,8,0:0:0:0:
256,192,101065,1,4,0:0:0:0:
256,192,101223,1,8,0:0:0:0:
256,192,101302,1,8,0:0:0:0:
256,192,101381,1,0,0:0:0:0:
256,192,101539,1,8,0:0:0:0:
256,192,101696,1,4,0:0:0:0:
256,192,101854,1,8,0:0:0:0:
256,192,101933,1,8,0:0:0:0:
256,192,102012,1,0,0:0:0:0:
256,192,102170,1,8,0:0:0:0:
256,192,102328,1,4,0:0:0:0:
256,192,102644,1,4,0:0:0:0:
256,192,102960,1,4,0:0:0:0:
256,192,103275,1,0,0:0:0:0:
256,192,103354,1,0,0:0:0:0:
256,192,103433,1,0,0:0:0:0:
256,192,103512,1,0,0:0:0:0:
256,192,103591,1,8,0:0:0:0:
256,192,103828,1,0,0:0:0:0:
256,192,103907,1,0,0:0:0:0:
256,192,104065,1,0,0:0:0:0:
256,192,104223,1,8,0:0:0:0:
256,192,104460,1,0,0:0:0:0:
256,192,104539,1,0,0:0:0:0:
256,192,104696,1,0,0:0:0:0:
256,192,104854,1,8,0:0:0:0:
256,192,105091,1,0,0:0:0:0:
256,192,105170,1,0,0:0:0:0:
256,192,105328,1,8,0:0:0:0:
256,192,105486,1,8,0:0:0:0:
256,192,105565,1,0,0:0:0:0:
256,192,105723,1,8,0:0:0:0:
256,192,105802,1,0,0:0:0:0:
256,192,105960,1,8,0:0:0:0:
256,192,106117,1,8,0:0:0:0:
256,192,106354,1,8,0:0:0:0:
256,192,106433,1,0,0:0:0:0:
256,192,106591,1,8,0:0:0:0:
256,192,106749,1,0,0:0:0:0:
256,192,106986,1,8,0:0:0:0:
256,192,107065,1,0,0:0:0:0:
256,192,107223,1,8,0:0:0:0:
256,192,107381,1,8,0:0:0:0:
256,192,107617,1,8,0:0:0:0:
256,192,107696,1,0,0:0:0:0:
256,192,107854,1,8,0:0:0:0:
256,192,108012,1,0,0:0:0:0:
256,192,108328,1,8,0:0:0:0:
256,192,108486,1,0,0:0:0:0:
256,192,108565,1,0,0:0:0:0:
256,192,108644,1,8,0:0:0:0:
256,192,108802,1,0,0:0:0:0:
256,192,108881,1,8,0:0:0:0:
256,192,109039,1,0,0:0:0:0:
256,192,109117,1,8,0:0:0:0:
256,192,109275,1,0,0:0:0:0:
256,192,109433,1,0,0:0:0:0:
256,192,109591,1,8,0:0:0:0:
256,192,109696,1,8,0:0:0:0:
256,192,109802,1,8,0:0:0:0:
256,192,109907,1,0,0:0:0:0:
256,192,110065,1,0,0:0:0:0:
256,192,110144,1,8,0:0:0:0:
256,192,110302,1,0,0:0:0:0:
256,192,110381,1,8,0:0:0:0:
256,192,110539,1,0,0:0:0:0:
256,192,110617,1,0,0:0:0:0:
256,192,110696,1,0,0:0:0:0:
256,192,110854,1,8,0:0:0:0:
256,192,111170,1,4,0:0:0:0:
256,192,111328,1,0,0:0:0:0:
256,192,111486,1,0,0:0:0:0:
256,192,111644,1,0,0:0:0:0:
256,192,111802,1,4,0:0:0:0:
256,192,111960,1,0,0:0:0:0:
256,192,112117,1,0,0:0:0:0:
256,192,112275,1,0,0:0:0:0:
256,192,112433,1,4,0:0:0:0:
256,192,112591,1,0,0:0:0:0:
256,192,112749,1,0,0:0:0:0:
256,192,112907,1,0,0:0:0:0:
256,192,113065,1,4,0:0:0:0:
256,192,113223,1,0,0:0:0:0:
256,192,113381,1,0,0:0:0:0:
256,192,113539,1,0,0:0:0:0:
256,192,113696,1,12,0:0:0:0:
256,192,114170,1,0,0:0:0:0:
256,192,114328,1,8,0:0:0:0:
256,192,114960,1,0,0:0:0:0:
256,192,115196,1,0,0:0:0:0:
256,192,115433,1,0,0:0:0:0:
256,192,115591,1,8,0:0:0:0:
256,192,116223,1,0,0:0:0:0:
256,192,116696,1,0,0:0:0:0:
256,192,116854,1,8,0:0:0:0:
256,192,117486,1,0,0:0:0:0:
256,192,117723,1,0,0:0:0:0:
256,192,117960,1,0,0:0:0:0:
256,192,118117,1,8,0:0:0:0:
256,192,118275,1,0,0:0:0:0:
256,192,118433,1,8,0:0:0:0:
256,192,118512,1,8,0:0:0:0:
256,192,118591,1,0,0:0:0:0:
256,192,118749,1,8,0:0:0:0:
256,192,118828,1,8,0:0:0:0:
256,192,118907,1,0,0:0:0:0:
256,192,118986,1,0,0:0:0:0:
256,192,119065,1,0,0:0:0:0:
256,192,119223,1,8,0:0:0:0:
256,192,119302,1,8,0:0:0:0:
256,192,119381,1,0,0:0:0:0:
256,192,119460,1,0,0:0:0:0:
256,192,119539,1,0,0:0:0:0:
256,192,119696,1,8,0:0:0:0:
256,192,119775,1,8,0:0:0:0:
256,192,119854,1,0,0:0:0:0:
256,192,119933,1,0,0:0:0:0:
256,192,120012,1,8,0:0:0:0:
256,192,120170,1,0,0:0:0:0:
256,192,120249,1,8,0:0:0:0:
256,192,120407,1,0,0:0:0:0:
256,192,120486,1,8,0:0:0:0:
256,192,120644,1,0,0:0:0:0:
256,192,120723,1,8,0:0:0:0:
256,192,120881,1,0,0:0:0:0:
256,192,120960,1,8,0:0:0:0:
256,192,121118,1,0,0:0:0:0:
256,192,121196,1,8,0:0:0:0:
256,192,121354,1,0,0:0:0:0:
256,192,121433,1,8,0:0:0:0:
256,192,121591,1,0,0:0:0:0:
256,192,121670,1,8,0:0:0:0:
256,192,121749,1,0,0:0:0:0:
256,192,121828,1,0,0:0:0:0:
256,192,121907,1,8,0:0:0:0:
256,192,122065,1,0,0:0:0:0:
256,192,122144,1,8,0:0:0:0:
256,192,122302,1,0,0:0:0:0:
256,192,122381,1,8,0:0:0:0:
256,192,122539,1,8,0:0:0:0:
256,192,122644,1,0,0:0:0:0:
256,192,122749,1,0,0:0:0:0:
256,192,122854,1,8,0:0:0:0:
256,192,122960,1,0,0:0:0:0:
256,192,123065,1,0,0:0:0:0:
256,192,123170,1,8,0:0:0:0:
256,192,123275,1,0,0:0:0:0:
256,192,123381,1,0,0:0:0:0:
256,192,123486,1,8,0:0:0:0:
256,192,123802,1,8,0:0:0:0:
256,192,123907,1,0,0:0:0:0:
256,192,124012,1,0,0:0:0:0:
256,192,124117,1,8,0:0:0:0:
256,192,124223,1,0,0:0:0:0:
256,192,124328,1,0,0:0:0:0:
256,192,124433,1,8,0:0:0:0:
256,192,124539,1,0,0:0:0:0:
256,192,124644,1,0,0:0:0:0:
256,192,124749,1,8,0:0:0:0:
256,192,125065,1,0,0:0:0:0:
256,192,125170,1,8,0:0:0:0:
256,192,125275,1,0,0:0:0:0:
256,192,125381,1,8,0:0:0:0:
256,192,125486,1,0,0:0:0:0:
256,192,125591,1,8,0:0:0:0:
256,192,125696,8,0,126170,0:0:0:0:
256,192,126328,5,8,0:0:0:0:
256,192,126565,1,0,0:0:0:0:
256,192,126802,1,0,0:0:0:0:
256,192,126960,1,8,0:0:0:0:
256,192,127196,1,0,0:0:0:0:
256,192,127433,1,0,0:0:0:0:
256,192,127591,1,8,0:0:0:0:
256,192,127828,1,0,0:0:0:0:
256,192,128065,1,8,0:0:0:0:
256,192,128223,1,8,0:0:0:0:
256,192,128460,1,0,0:0:0:0:
256,192,128696,1,0,0:0:0:0:
256,192,128854,1,8,0:0:0:0:
256,192,129091,1,8,0:0:0:0:
256,192,129328,1,0,0:0:0:0:
256,192,129486,1,8,0:0:0:0:
256,192,129723,1,0,0:0:0:0:
256,192,129960,1,8,0:0:0:0:
256,192,130117,1,4,0:0:0:0:
256,192,130433,8,0,131065,0:0:0:0:
256,192,131381,5,12,0:0:0:0:
