osu file format v12

[General]
AudioFilename: calamity_fortune_1280x720.mp3
AudioLeadIn: 0
PreviewTime: 27690
Countdown: 0
SampleSet: Normal
StackLeniency: 0.7
Mode: 2
LetterboxInBreaks: 1
WidescreenStoryboard: 1

[Editor]
DistanceSpacing: 1
BeatDivisor: 4
GridSize: 8

[Metadata]
Title:Calamity Fortune
TitleUnicode:Calamity Fortune
Artist:LeaF
ArtistUnicode:LeaF
Creator:Krah
Version:Salad
Source:Touhou
Tags:少女が見た日本の原風景 The Primal Scene of Japan the Girl Saw TH10 Mountain of Faith Kochiya Sanae BMS Event CLSW
BeatmapID:296874
BeatmapSetID:114741

[Difficulty]
HPDrainRate:5
CircleSize:3
OverallDifficulty:7
ApproachRate:7
SliderMultiplier:1.4
SliderTickRate:1

[Events]
//Background and Video events
0,0,"bg.jpg",0,0
//Break Periods
2,47085,50785
2,81585,85585
//Storyboard Layer 0 (Background)
//Storyboard Layer 1 (Fail)
//Storyboard Layer 2 (Pass)
//Storyboard Layer 3 (Foreground)
//Storyboard Sound Samples
//Background Colour Transformations
3,100,163,162,255

[TimingPoints]
1285,300,4,1,1,70,1,0
4585,-100,4,1,1,80,0,0
10885,-100,4,1,1,90,0,0
11785,-100,4,1,1,85,0,0
27685,-100,4,1,1,90,0,1
34885,-100,4,1,1,80,0,0
37285,-100,4,1,1,70,0,0
43285,-100,4,1,1,85,0,0
44485,-100,4,1,1,70,0,0
51685,-100,4,1,1,80,0,0
54985,-100,4,1,1,90,0,0
56185,-100,4,1,1,80,0,0
67285,-100,4,1,1,85,0,0
75385,-100,4,1,1,95,0,0
76885,-100,4,1,1,80,0,0
93385,-100,4,1,1,90,0,0
96985,-100,4,1,1,80,0,0
102085,-100,4,1,1,95,0,1
110485,-100,4,1,1,70,0,0
111685,-100,4,1,1,95,0,1
121285,-100,4,1,1,70,0,0
123685,-100,4,1,1,55,0,0
128485,-100,4,1,1,70,0,0
134485,-100,4,1,1,30,0,0

[Colours]
Combo1 : 88,190,228
Combo2 : 252,131,222
Combo3 : 192,198,233
Combo4 : 186,37,104

[HitObjects]
151,127,1285,1,0,0:0:0:0:
361,127,1885,1,0,0:0:0:0:
152,246,2485,2,0,L|256:343,1,140,0|8,0:0|0:0,0:0:0:0:
383,339,3085,2,0,L|281:244,1,140,0|8,0:0|0:0,0:0:0:0:
376,256,3685,1,0,0:0:0:0:
224,256,3985,1,0,0:0:0:0:
72,256,4285,5,0,0:0:0:0:
208,192,4585,1,2,0:0:0:0:
72,161,4885,2,0,L|208:192,1,140,4|8,0:0|0:0,0:0:0:0:
71,84,5485,2,0,L|224:120,1,140,0|8,0:0|0:0,0:0:0:0:
452,132,6085,5,4,0:0:0:0:
320,136,6385,2,0,L|264:280,2,140,0|0|0,0:0|0:0|0:0,0:0:0:0:
40,96,7285,6,0,B|192:96|192:96|264:232,1,280,0|0,0:0|0:0,0:0:0:0:
360,208,8185,1,0,0:0:0:0:
464,208,8485,2,0,B|324:208|324:208|268:76,1,280,8|8,0:0|0:0,0:0:0:0:
144,128,9385,1,0,0:0:0:0:
104,208,9685,5,4,0:0:0:0:
176,208,9985,1,0,0:0:0:0:
248,208,10285,1,0,0:0:0:0:
336,208,10585,1,0,0:0:0:0:
424,212,10885,1,4,0:0:0:0:
424,212,11035,1,0,0:0:0:0:
424,212,11185,1,0,0:0:0:0:
40,216,11485,1,4,0:0:0:0:
36,264,11785,6,0,L|200:264,1,140,0|4,0:0|0:0,0:0:0:0:
36,160,12385,1,0,0:0:0:0:
256,164,12685,1,2,0:0:0:0:
476,264,12985,2,0,L|312:264,1,140,0|0,0:0|0:0,0:0:0:0:
476,160,13585,1,0,0:0:0:0:
256,164,13885,1,2,0:0:0:0:
68,36,14185,6,0,L|208:36,1,140,0|0,0:0|0:0,0:0:0:0:
64,160,14785,1,0,0:0:0:0:
256,164,15085,1,0,0:0:0:0:
392,280,15385,2,0,L|448:328|392:288,2,140
280,280,16285,1,0,0:0:0:0:
404,36,16585,6,0,L|264:36,1,140,8|0,0:0|0:0,0:0:0:0:
264,144,17185,1,8,0:0:0:0:
460,140,17485,1,0,0:0:0:0:
248,176,17785,2,0,L|108:176,1,140,8|0,0:0|0:0,0:0:0:0:
52,280,18385,1,8,0:0:0:0:
248,284,18685,1,0,0:0:0:0:
460,280,18985,6,0,L|320:280,1,140,8|0,0:0|0:0,0:0:0:0:
264,144,19585,1,8,0:0:0:0:
448,144,19885,1,0,0:0:0:0:
256,320,20185,1,0,0:0:0:0:
312,320,20335,1,0,0:0:0:0:
256,316,20485,1,0,0:0:0:0:
104,144,20785,1,0,0:0:0:0:
300,144,21085,5,0,0:0:0:0:
448,144,21235,1,0,0:0:0:0:
256,192,21685,12,0,23785,0:0:0:0:
256,192,24085,12,2,26185,0:0:0:0:
256,160,27685,6,0,L|392:228,1,140,4|0,0:0|0:0,0:0:0:0:
300,296,28285,1,0,0:0:0:0:
216,296,28435,1,0,0:0:0:0:
300,296,28585,1,8,0:0:0:0:
152,192,28885,5,0,0:0:0:0:
332,192,29185,1,0,0:0:0:0:
500,192,29485,1,0,0:0:0:0:
416,192,29635,1,0,0:0:0:0:
500,192,29785,1,8,0:0:0:0:
332,192,30085,5,8,0:0:0:0:
152,192,30385,1,0,0:0:0:0:
12,192,30685,1,0,0:0:0:0:
96,192,30835,1,0,0:0:0:0:
12,192,30985,1,0,0:0:0:0:
184,192,31285,6,0,L|301:268,1,140,0|8,0:0|0:0,0:0:0:0:
351,128,31885,1,0,0:0:0:0:
136,272,32185,1,0,0:0:0:0:
304,272,32485,5,0,0:0:0:0:
392,272,32635,1,0,0:0:0:0:
480,272,32785,1,8,0:0:0:0:
304,104,33085,1,0,0:0:0:0:
304,104,33385,2,0,B|400:216,1,140,0|0,0:0|0:0,0:0:0:0:
480,80,33985,5,8,0:0:0:0:
392,80,34135,1,0,0:0:0:0:
304,80,34285,1,0,0:0:0:0:
392,296,34585,1,8,0:0:0:0:
208,272,34885,5,0,0:0:0:0:
312,304,35185,2,0,L|178:346,1,140,0|0,0:0|0:0,0:0:0:0:
120,248,35785,1,0,0:0:0:0:
64,136,36085,5,0,0:0:0:0:
64,136,36235,1,0,0:0:0:0:
64,136,36385,1,0,0:0:0:0:
432,136,36685,1,4,0:0:0:0:
288,136,36985,1,0,0:0:0:0:
152,264,37285,6,0,L|296:288,1,140,0|0,0:0|0:0,0:0:0:0:
152,288,37885,1,0,0:0:0:0:
88,104,38485,6,0,B|32:152|32:152|88:112,2,140,0|0|2,0:0|0:0|0:0,0:0:0:0:
248,112,39385,1,2,0:0:0:0:
248,200,39685,6,0,L|376:256,1,140,0|0,0:0|0:0,0:0:0:0:
320,280,40285,2,0,L|456:336,1,140,0|0,0:0|0:0,0:0:0:0:
272,72,40885,5,0,0:0:0:0:
96,72,41185,1,0,0:0:0:0:
141,125,41335,1,0,0:0:0:0:
187,178,41485,1,0,0:0:0:0:
192,272,41635,6,0,L|232:272,4,35,0|0|8|0|0,0:0|0:0|0:0|0:0|0:0,0:0:0:0:
64,272,42085,6,0,L|192:344,1,140,0|0,0:0|0:0,0:0:0:0:
448,272,42685,2,0,L|320:344,1,140,0|0,0:0|0:0,0:0:0:0:
184,352,43285,1,8,0:0:0:0:
328,352,43585,1,8,0:0:0:0:
152,352,43885,1,8,0:0:0:0:
360,352,44185,1,8,0:0:0:0:
256,192,44485,12,0,45385,0:0:0:0:
248,304,45685,5,4,0:0:0:0:
288,272,45835,1,0,0:0:0:0:
328,224,45985,1,8,0:0:0:0:
360,168,46135,1,0,0:0:0:0:
376,120,46285,1,0,0:0:0:0:
392,56,46435,1,0,0:0:0:0:
280,56,46585,2,0,L|120:56,1,140,8|4,0:0|0:0,0:0:0:0:
184,96,51685,5,4,0:0:0:0:
496,96,52285,1,0,0:0:0:0:
408,96,52510,1,0,0:0:0:0:
320,96,52735,1,0,0:0:0:0:
256,96,52885,5,2,0:0:0:0:
16,96,53485,1,0,0:0:0:0:
104,96,53710,1,0,0:0:0:0:
192,96,53935,1,0,0:0:0:0:
256,96,54085,5,2,0:0:0:0:
368,96,54385,1,0,0:0:0:0:
144,96,54685,1,0,0:0:0:0:
280,80,54985,5,0,0:0:0:0:
384,80,55285,1,12,0:0:0:0:
488,80,55585,1,4,0:0:0:0:
488,80,55735,1,0,0:0:0:0:
488,80,55885,1,0,0:0:0:0:
104,80,56185,1,0,0:0:0:0:
256,192,56485,12,0,57385,0:0:0:0:
256,112,57685,6,0,P|112:136|32:240,1,280,4|0,0:0|0:0,0:0:0:0:
256,112,58885,2,0,P|400:136|480:240,1,280,0|0,0:0|0:0,0:0:0:0:
256,240,60085,6,0,L|400:152,2,140,0|0|8,0:0|0:0|0:0,0:0:0:0:
80,240,61285,2,0,L|240:240,3,140
48,240,62485,6,0,P|160:184|304:248,1,280,4|0,0:0|0:0,0:0:0:0:
464,240,63685,2,0,P|352:184|208:248,1,280,0|0,0:0|0:0,0:0:0:0:
440,240,64885,6,0,L|296:152,2,140,0|0|8,0:0|0:0|0:0,0:0:0:0:
256,240,66085,2,0,L|88:240,3,140
72,320,67285,6,0,L|208:352,3,140,4|8|0|8,0:0|0:0|0:0|0:0,0:0:0:0:
440,320,68485,2,0,L|304:352,3,140,0|8|0|8,0:0|0:0|0:0|0:0,0:0:0:0:
184,192,69685,2,0,L|336:192,3,140,0|8|0|8,0:0|0:0|0:0|0:0,0:0:0:0:
160,248,70885,6,0,L|216:296,2,70
349,285,71485,2,0,L|296:240,2,70
456,192,72085,5,4,0:0:0:0:
232,192,72385,1,0,0:0:0:0:
8,192,72685,2,0,L|152:256,1,140,0|8,0:0|0:0,0:0:0:0:
312,256,73285,1,0,0:0:0:0:
480,256,73585,1,0,0:0:0:0:
312,256,73885,2,0,L|184:184,1,140,0|8,0:0|0:0,0:0:0:0:
72,192,74485,2,0,B|96:104|102:114|296:224,1,280,0|0,0:0|0:0,0:0:0:0:
480,112,75385,5,0,0:0:0:0:
408,112,75535,1,4,0:0:0:0:
280,112,75835,1,4,0:0:0:0:
72,112,76135,1,0,0:0:0:0:
176,112,76285,1,4,0:0:0:0:
216,296,76885,6,0,B|408:240|408:240|344:192,1,280,0|0,0:0|0:0,0:0:0:0:
120,192,77785,1,8,0:0:0:0:
192,192,77935,1,0,0:0:0:0:
264,192,78085,1,0,0:0:0:0:
472,192,78385,1,8,0:0:0:0:
264,192,78685,1,0,0:0:0:0:
56,80,78985,1,2,0:0:0:0:
216,80,79285,5,0,0:0:0:0:
296,80,79435,1,0,0:0:0:0:
376,80,79585,1,8,0:0:0:0:
456,192,79885,1,0,0:0:0:0:
504,192,80035,1,0,0:0:0:0:
456,192,80185,1,8,0:0:0:0:
288,192,80485,5,0,0:0:0:0:
48,192,80785,1,0,0:0:0:0:
208,192,81085,1,8,0:0:0:0:
128,192,81235,1,0,0:0:0:0:
208,192,81385,1,4,0:0:0:0:
216,224,86485,5,4,0:0:0:0:
112,224,86635,1,0,0:0:0:0:
216,224,86785,1,8,0:0:0:0:
296,224,87085,1,4,0:0:0:0:
400,224,87235,1,0,0:0:0:0:
296,224,87385,1,0,0:0:0:0:
376,144,87685,5,0,0:0:0:0:
304,144,87835,1,0,0:0:0:0:
200,144,87985,2,0,L|272:144,1,70
152,144,88285,1,0,0:0:0:0:
256,144,88435,2,0,L|186:144,1,70
120,176,88885,6,0,B|261:175|261:175|392:264,1,280,4|0,0:0|0:0,0:0:0:0:
480,256,90085,1,0,0:0:0:0:
64,256,90685,1,0,0:0:0:0:
360,256,91285,1,0,0:0:0:0:
200,256,91585,1,8,0:0:0:0:
360,256,91885,1,0,0:0:0:0:
200,256,92185,1,8,0:0:0:0:
256,192,92485,12,2,93385,0:0:0:0:
88,96,93685,6,0,L|248:144,2,140,0|8|0,0:0|0:0|0:0,0:0:0:0:
192,104,94585,1,0,0:0:0:0:
424,96,94885,2,8,L|288:136,2,140,8|8|0,0:0|0:0|0:0,0:0:0:0:
320,104,95785,1,0,0:0:0:0:
112,192,96085,6,0,B|184:192|184:192|256:232,1,140,0|8,0:0|0:0,0:0:0:0:
400,192,96685,2,0,B|328:192|328:192|256:232,1,140,0|8,0:0|0:0,0:0:0:0:
256,192,97285,12,0,98185,0:0:0:0:
248,104,98485,5,0,0:0:0:0:
352,104,98785,2,0,L|400:160,4,70
456,256,99685,5,4,0:0:0:0:
256,256,99985,1,8,0:0:0:0:
56,256,100285,1,0,0:0:0:0:
256,256,100585,1,0,0:0:0:0:
456,136,100885,2,0,L|328:208,2,140,0|0|0,0:0|0:0|0:0,0:0:0:0:
64,144,102085,5,12,0:0:0:0:
248,144,102385,1,8,0:0:0:0:
272,144,102535,1,0,0:0:0:0:
296,144,102685,1,0,0:0:0:0:
448,144,102985,1,8,0:0:0:0:
328,248,103285,5,4,0:0:0:0:
208,248,103585,1,8,0:0:0:0:
128,248,103735,1,0,0:0:0:0:
208,248,103885,1,0,0:0:0:0:
56,88,104185,5,8,0:0:0:0:
264,88,104485,1,0,0:0:0:0:
184,88,104635,1,0,0:0:0:0:
264,184,104785,1,8,0:0:0:0:
376,184,105085,5,0,0:0:0:0:
472,184,105235,1,0,0:0:0:0:
352,128,105385,1,8,0:0:0:0:
272,184,105685,2,0,L|408:272,2,140,0|8|0,0:0|0:0|0:0,0:0:0:0:
96,184,106585,1,8,0:0:0:0:
224,312,106885,5,0,0:0:0:0:
328,312,107035,1,0,0:0:0:0:
432,312,107185,1,8,0:0:0:0:
424,96,107485,1,0,0:0:0:0:
320,96,107785,1,8,0:0:0:0:
160,96,108085,5,0,0:0:0:0:
112,96,108235,1,0,0:0:0:0:
216,96,108385,1,8,0:0:0:0:
312,160,108685,1,0,0:0:0:0:
416,208,108985,1,8,0:0:0:0:
256,208,109285,5,0,0:0:0:0:
208,208,109435,1,0,0:0:0:0:
312,208,109585,1,8,0:0:0:0:
320,296,109885,2,0,L|456:256,1,140,0|8,0:0|0:0,0:0:0:0:
256,192,110485,12,0,111385,0:0:0:0:
416,64,111685,5,12,0:0:0:0:
272,64,111985,1,8,0:0:0:0:
168,64,112135,1,0,0:0:0:0:
64,64,112285,1,0,0:0:0:0:
64,64,112585,1,8,0:0:0:0:
112,192,112885,5,4,0:0:0:0:
232,192,113185,1,8,0:0:0:0:
320,192,113335,1,0,0:0:0:0:
232,192,113485,1,0,0:0:0:0:
424,192,113785,1,8,0:0:0:0:
376,192,114085,6,0,L|243:147,1,140,4|8,0:0|0:0,0:0:0:0:
408,144,114685,1,0,0:0:0:0:
320,144,114835,1,0,0:0:0:0:
256,208,114985,1,8,0:0:0:0:
408,272,115285,1,0,0:0:0:0:
256,280,115585,1,0,0:0:0:0:
80,280,115885,2,0,L|200:352,1,140,4|0,0:0|0:0,0:0:0:0:
376,96,116485,5,4,0:0:0:0:
264,96,116785,1,8,0:0:0:0:
152,96,116935,1,0,0:0:0:0:
208,96,117085,1,0,0:0:0:0:
56,96,117385,2,0,L|112:232,1,140,8|4,0:0|0:0,0:0:0:0:
256,232,117985,5,8,0:0:0:0:
360,232,118135,1,0,0:0:0:0:
464,232,118285,1,0,0:0:0:0:
256,232,118585,1,8,0:0:0:0:
160,232,118885,2,0,L|92:211,2,70,4|0|8,0:0|0:0|0:0,0:0:0:0:
312,312,119485,5,0,0:0:0:0:
424,312,119785,2,0,L|496:360,4,70,8|0|4|0|8,0:0|0:0|0:0|0:0|0:0,0:0:0:0:
248,312,120685,1,0,0:0:0:0:
32,312,120985,1,10,0:0:0:0:
128,80,121285,6,0,B|248:80|248:80|264:128|264:128|400:112,1,280,4|2,0:0|0:0,0:0:0:0:
448,192,122485,2,0,B|336:192|336:192|320:240|320:240|184:248,1,280,0|2,0:0|0:0,0:0:0:0:
56,144,123685,2,0,B|176:144|176:144|192:192|192:192|328:176,1,280,0|2,0:0|0:0,0:0:0:0:
248,280,124885,5,0,0:0:0:0:
344,280,125185,1,0,0:0:0:0:
440,280,125485,1,2,0:0:0:0:
232,280,126085,6,0,B|104:208|104:208|32:320,1,280,0|2,0:0|0:0,0:0:0:0:
288,320,127285,2,0,B|360:208|360:208|488:280,1,280,0|2,0:0|0:0,0:0:0:0:
256,120,128485,5,4,0:0:0:0:
328,96,128635,1,0,0:0:0:0:
256,48,128785,1,8,0:0:0:0:
184,96,128935,1,0,0:0:0:0:
256,120,129085,1,8,0:0:0:0:
328,96,129235,1,0,0:0:0:0:
256,48,129385,1,8,0:0:0:0:
184,96,129535,1,0,0:0:0:0:
256,120,129685,1,8,0:0:0:0:
328,96,129835,1,0,0:0:0:0:
256,48,129985,1,8,0:0:0:0:
184,96,130135,1,0,0:0:0:0:
256,240,130285,2,0,L|256:80,1,140,8|0,0:0|0:0,0:0:0:0:
256,192,130885,12,0,134485,0:0:0:0:
