osu file format v12

[General]
AudioFilename: calamity_fortune_1280x720.mp3
AudioLeadIn: 0
PreviewTime: 27690
Countdown: 0
SampleSet: Normal
StackLeniency: 0.7
Mode: 2
LetterboxInBreaks: 1
WidescreenStoryboard: 1

[Editor]
DistanceSpacing: 0.7
BeatDivisor: 4
GridSize: 4

[Metadata]
Title:Calamity Fortune
TitleUnicode:Calamity Fortune
Artist:LeaF
ArtistUnicode:LeaF
Creator:Krah
Version:Rain
Source:Touhou
Tags:少女が見た日本の原風景 The Primal Scene of Japan the Girl Saw TH10 Mountain of Faith Kochiya Sanae BMS Event CLSW
BeatmapID:297454
BeatmapSetID:114741

[Difficulty]
HPDrainRate:7
CircleSize:4
OverallDifficulty:9
ApproachRate:9
SliderMultiplier:2.4
SliderTickRate:1

[Events]
//Background and Video events
0,0,"bg.jpg",0,0
//Break Periods
2,47085,51085
2,81585,85885
//Storyboard Layer 0 (Background)
//Storyboard Layer 1 (Fail)
//Storyboard Layer 2 (Pass)
//Storyboard Layer 3 (Foreground)
//Storyboard Sound Samples
//Background Colour Transformations
3,100,163,162,255

[TimingPoints]
1285,300,4,1,1,60,1,0
2485,-100,4,1,1,65,0,0
4885,-100,4,1,1,70,0,0
10885,-100,4,1,1,80,0,0
11785,-100,4,1,1,80,0,0
15685,-100,4,1,1,70,0,0
16735,-100,4,1,1,80,0,0
21685,-100,4,1,1,70,0,0
26485,-100,4,1,1,85,0,0
27685,-100,4,1,1,90,0,1
34885,-100,4,1,1,70,0,0
36085,-100,4,1,1,80,0,0
40285,-83.3333333333333,4,1,1,80,0,0
40435,-100,4,1,1,80,0,0
43585,-100,4,1,1,70,0,0
51685,-100,4,1,1,60,0,0
55285,-100,4,1,1,75,0,0
57685,-100,4,1,1,70,0,0
67285,-100,4,1,1,80,0,0
75385,-100,4,1,1,85,0,0
76885,-100,4,1,1,75,0,0
96085,-100,4,1,1,85,0,0
97285,-100,4,1,1,70,0,0
102085,-100,4,1,1,90,0,1
110485,-100,4,1,1,60,0,0
111685,-100,4,1,1,90,0,1
121285,-100,4,1,1,75,0,0
126385,-100,4,1,1,60,0,0
128485,-100,4,1,1,80,0,0
134485,-100,4,1,1,30,0,0

[Colours]
Combo1 : 88,190,228
Combo2 : 252,131,222
Combo3 : 192,198,233
Combo4 : 186,37,104

[HitObjects]
144,192,1285,1,0,0:0:0:0:
24,192,1435,1,0,0:0:0:0:
144,192,1585,1,0,0:0:0:0:
288,192,1885,2,0,P|368:200|424:368,1,240,0|0,0:0|0:0,0:0:0:0:
432,192,2485,5,0,0:0:0:0:
304,192,2635,1,0,0:0:0:0:
472,192,2785,1,8,0:0:0:0:
344,192,2935,1,0,0:0:0:0:
200,192,3085,2,0,L|152:336,1,120,0|0,0:0|0:0,0:0:0:0:
56,192,3385,2,0,L|93:305,1,120,8|0,0:0|0:0,0:0:0:0:
400,304,3685,5,0,0:0:0:0:
376,280,3835,1,0,0:0:0:0:
472,280,3985,1,0,0:0:0:0:
328,280,4135,1,0,0:0:0:0:
424,280,4285,1,0,0:0:0:0:
104,192,4435,1,0,0:0:0:0:
200,192,4585,1,2,0:0:0:0:
68,256,4885,6,0,L|-12:376,1,120,4|0,0:0|0:0,0:0:0:0:
144,356,5185,2,0,L|211:257,1,120,8|0,0:0|0:0,0:0:0:0:
356,260,5485,2,0,L|276:380,1,120,4|0,0:0|0:0,0:0:0:0:
432,360,5785,2,0,L|499:261,1,120,8|0,0:0|0:0,0:0:0:0:
384,112,6085,5,4,0:0:0:0:
312,112,6235,1,0,0:0:0:0:
296,112,6310,1,0,0:0:0:0:
216,112,6385,1,0,0:0:0:0:
384,192,6535,1,0,0:0:0:0:
268,192,6685,2,0,B|192:96|192:96|120:192,1,240,0|2,0:0|0:0,0:0:0:0:
56,256,7135,5,0,0:0:0:0:
56,256,7210,1,0,0:0:0:0:
56,256,7285,1,0,0:0:0:0:
152,256,7435,1,0,0:0:0:0:
248,256,7585,1,0,0:0:0:0:
56,256,7735,1,0,0:0:0:0:
104,168,7885,6,0,L|128:40,1,120,0|0,0:0|0:0,0:0:0:0:
248,48,8185,2,0,L|120:48,1,120,0|0,0:0|0:0,0:0:0:0:
224,168,8485,2,0,L|248:40,1,120,0|0,0:0|0:0,0:0:0:0:
104,168,8785,2,0,L|224:168,1,120,0|0,0:0|0:0,0:0:0:0:
320,168,9085,1,0,0:0:0:0:
416,168,9235,1,0,0:0:0:0:
512,168,9385,1,0,0:0:0:0:
464,168,9685,6,0,P|352:152|336:88,1,180,4|0,0:0|0:0,0:0:0:0:
192,304,9985,2,0,L|264:160,1,120,0|0,0:0|0:0,0:0:0:0:
264,200,10285,1,0,0:0:0:0:
256,112,10585,1,0,0:0:0:0:
376,112,10735,1,0,0:0:0:0:
196,112,10885,5,4,0:0:0:0:
400,112,11035,1,0,0:0:0:0:
160,112,11185,2,0,L|264:228,1,120,0|0,0:0|0:0,0:0:0:0:
8,200,11485,1,4,0:0:0:0:
208,288,11785,5,0,0:0:0:0:
232,288,11860,1,0,0:0:0:0:
256,288,11935,1,0,0:0:0:0:
288,328,12010,1,0,0:0:0:0:
304,288,12085,2,0,P|358:277|400:224,1,120,0|0,0:0|0:0,0:0:0:0:
256,240,12310,1,0,0:0:0:0:
208,236,12385,2,0,P|144:224|124:172,1,120,8|0,0:0|0:0,0:0:0:0:
320,220,12685,2,0,L|204:192,1,120,0|0,0:0|0:0,0:0:0:0:
96,168,12985,5,8,0:0:0:0:
72,168,13060,1,0,0:0:0:0:
48,168,13135,1,0,0:0:0:0:
80,168,13210,1,0,0:0:0:0:
96,168,13285,2,0,L|212:196,1,120,0|0,0:0|0:0,0:0:0:0:
48,80,13510,1,0,0:0:0:0:
0,84,13586,2,0,L|116:56,1,120,8|0,0:0|0:0,0:0:0:0:
160,132,13886,2,0,L|276:104,1,120,0|0,0:0|0:0,0:0:0:0:
408,168,14185,5,8,0:0:0:0:
288,168,14335,1,0,0:0:0:0:
408,240,14485,2,0,L|496:384,1,120,0|0,0:0|0:0,0:0:0:0:
392,348,14710,1,0,0:0:0:0:
312,352,14785,2,0,L|424:296,1,120,8|0,0:0|0:0,0:0:0:0:
264,352,15085,2,0,L|201:249,1,120,0|0,0:0|0:0,0:0:0:0:
364,236,15385,2,0,L|259:294,1,120,8|0,0:0|0:0,0:0:0:0:
188,244,15610,1,0,0:0:0:0:
124,176,15685,5,0,0:0:0:0:
244,176,15835,1,0,0:0:0:0:
124,176,15985,1,8,0:0:0:0:
4,176,16135,1,0,0:0:0:0:
172,176,16285,2,0,P|292:216|324:328,1,240,0|8,0:0|0:0,0:0:0:0:
256,312,16660,1,0,0:0:0:0:
196,316,16735,5,0,0:0:0:0:
139,317,16810,1,0,0:0:0:0:
232,244,16885,2,0,L|104:276,1,120,0|0,0:0|0:0,0:0:0:0:
280,244,17185,2,0,L|396:214,1,120,8|0,0:0|0:0,0:0:0:0:
256,288,17485,1,0,0:0:0:0:
472,296,17635,1,0,0:0:0:0:
472,240,17785,5,8,0:0:0:0:
400,240,17935,1,0,0:0:0:0:
248,244,18085,2,0,L|120:276,1,120,0|0,0:0|0:0,0:0:0:0:
304,244,18385,2,0,L|420:214,1,120,8|0,0:0|0:0,0:0:0:0:
248,176,18685,2,0,L|120:144,1,120,0|0,0:0|0:0,0:0:0:0:
280,196,18985,5,8,0:0:0:0:
40,192,19135,1,0,0:0:0:0:
168,192,19285,2,0,L|104:336,1,120,0|0,0:0|0:0,0:0:0:0:
204,304,19510,1,0,0:0:0:0:
276,304,19585,2,0,L|340:160,1,120,8|0,0:0|0:0,0:0:0:0:
448,192,19885,2,0,L|512:336,1,120,0|0,0:0|0:0,0:0:0:0:
392,136,20185,5,8,0:0:0:0:
120,136,20335,1,0,0:0:0:0:
120,136,20485,2,0,L|208:40,1,120,0|0,0:0|0:0,0:0:0:0:
393,136,20785,2,0,L|312:48,1,120,8|0,0:0|0:0,0:0:0:0:
159,191,21085,1,0,0:0:0:0:
360,192,21235,2,0,P|256:248|152:176,1,240,0|0,0:0|0:0,0:0:0:0:
256,192,21685,12,0,23785,0:0:0:0:
256,192,24085,12,2,26185,0:0:0:0:
256,252,26485,5,0,0:0:0:0:
316,252,26560,1,0,0:0:0:0:
376,252,26635,1,0,0:0:0:0:
436,252,26710,1,0,0:0:0:0:
336,188,26785,5,0,0:0:0:0:
276,188,26860,1,0,0:0:0:0:
216,188,26935,1,0,0:0:0:0:
156,188,27010,1,0,0:0:0:0:
256,128,27085,5,0,0:0:0:0:
316,128,27160,1,0,0:0:0:0:
376,128,27235,1,0,0:0:0:0:
436,128,27310,1,0,0:0:0:0:
332,68,27385,5,0,0:0:0:0:
272,68,27460,1,0,0:0:0:0:
212,68,27535,1,0,0:0:0:0:
152,68,27610,1,0,0:0:0:0:
0,192,27685,6,0,L|136:296,1,120,4|0,0:0|0:0,0:0:0:0:
96,264,27985,2,0,L|192:336,1,120,8|0,0:0|0:0,0:0:0:0:
424,336,28285,1,0,0:0:0:0:
472,336,28360,1,0,0:0:0:0:
88,336,28510,1,0,0:0:0:0:
40,336,28585,1,8,0:0:0:0:
424,192,28735,1,0,0:0:0:0:
424,152,28885,6,0,L|340:244,1,120,4|0,0:0|0:0,0:0:0:0:
216,232,29185,2,0,L|296:140,1,120,0|0,0:0|0:0,0:0:0:0:
400,196,29485,2,0,L|292:142,1,120,0|0,0:0|0:0,0:0:0:0:
112,136,29785,2,0,L|224:192,1,120,4|0,0:0|0:0,0:0:0:0:
256,308,30085,5,0,0:0:0:0:
116,216,30235,1,0,0:0:0:0:
256,308,30385,1,8,0:0:0:0:
396,216,30535,1,0,0:0:0:0:
104,240,30685,1,0,0:0:0:0:
80,240,30760,1,0,0:0:0:0:
408,240,30910,1,0,0:0:0:0:
432,240,30985,1,8,0:0:0:0:
256,240,31135,1,0,0:0:0:0:
256,112,31285,5,0,0:0:0:0:
184,112,31435,1,0,0:0:0:0:
328,112,31585,1,8,0:0:0:0:
104,112,31735,1,0,0:0:0:0:
408,112,31885,1,0,0:0:0:0:
440,112,31960,1,0,0:0:0:0:
472,112,32035,1,0,0:0:0:0:
256,112,32185,1,8,0:0:0:0:
184,112,32335,1,0,0:0:0:0:
256,224,32485,6,0,L|344:142,1,120,0|0,0:0|0:0,0:0:0:0:
512,224,32785,2,0,L|423:142,1,120,0|0,0:0|0:0,0:0:0:0:
512,224,33085,1,0,0:0:0:0:
72,224,33235,1,0,0:0:0:0:
216,224,33385,1,8,0:0:0:0:
360,224,33535,1,0,0:0:0:0:
176,216,33685,6,0,L|296:228,1,120,0|0,0:0|0:0,0:0:0:0:
72,80,33985,1,8,0:0:0:0:
48,80,34060,1,0,0:0:0:0:
24,80,34135,1,0,0:0:0:0:
104,80,34285,2,0,P|144:64|200:120,1,120,0|0,0:0|0:0,0:0:0:0:
407,79,34585,2,0,P|351:66|313:108,1,120,8|0,0:0|0:0,0:0:0:0:
464,32,34885,5,4,0:0:0:0:
284,32,35110,1,0,0:0:0:0:
344,32,35185,1,0,0:0:0:0:
224,32,35335,1,0,0:0:0:0:
404,32,35485,1,0,0:0:0:0:
232,192,35785,5,0,0:0:0:0:
184,192,35935,1,0,0:0:0:0:
136,192,36085,1,4,0:0:0:0:
272,192,36235,1,0,0:0:0:0:
96,192,36385,1,0,0:0:0:0:
316,192,36535,1,0,0:0:0:0:
396,192,36685,1,0,0:0:0:0:
0,96,36985,5,0,0:0:0:0:
48,96,37060,1,0,0:0:0:0:
96,96,37135,1,0,0:0:0:0:
144,96,37210,1,0,0:0:0:0:
44,304,37285,2,0,B|44:240|44:240|100:240,1,120,0|0,0:0|0:0,0:0:0:0:
220,308,37585,2,0,B|220:244|220:244|164:244,1,120,8|0,0:0|0:0,0:0:0:0:
288,304,37885,2,0,B|288:240|288:240|344:240,1,120,0|0,0:0|0:0,0:0:0:0:
468,304,38185,2,0,B|468:240|468:240|412:240,1,120,8|0,0:0|0:0,0:0:0:0:
432,40,38485,5,0,0:0:0:0:
384,40,38560,1,0,0:0:0:0:
336,40,38635,1,0,0:0:0:0:
176,40,38785,1,0,0:0:0:0:
256,40,38935,1,0,0:0:0:0:
96,40,39085,1,0,0:0:0:0:
384,112,39235,1,0,0:0:0:0:
312,112,39385,1,2,0:0:0:0:
96,128,39685,6,0,B|48:128|48:128|176:128,1,120,0|0,0:0|0:0,0:0:0:0:
300,192,39985,2,0,B|348:192|348:192|220:192,1,120,8|0,0:0|0:0,0:0:0:0:
156,192,40285,2,0,B|148:196|148:196|144:176|144:176|140:192|140:192|108:192|108:192|224:192,1,143.999995605469,0|0,0:0|0:0,0:0:0:0:
360,128,40585,2,0,B|312:128|312:128|440:128,1,120,0|0,0:0|0:0,0:0:0:0:
384,40,40885,5,0,0:0:0:0:
432,40,40960,1,0,0:0:0:0:
276,40,41110,1,0,0:0:0:0:
324,40,41185,1,0,0:0:0:0:
168,40,41335,1,0,0:0:0:0:
384,192,41485,1,4,0:0:0:0:
384,192,41635,1,0,0:0:0:0:
408,192,41710,1,0,0:0:0:0:
432,192,41785,1,8,0:0:0:0:
456,192,41860,1,0,0:0:0:0:
480,192,41935,1,0,0:0:0:0:
504,192,42010,1,0,0:0:0:0:
504,272,42085,6,0,P|472:304|400:328,1,120,0|0,0:0|0:0,0:0:0:0:
296,328,42385,2,0,P|328:296|408:280,1,120,8|0,0:0|0:0,0:0:0:0:
296,280,42685,2,0,P|264:312|184:328,1,120,0|0,0:0|0:0,0:0:0:0:
72,328,42985,1,8,0:0:0:0:
24,328,43135,1,0,0:0:0:0:
24,328,43210,1,0,0:0:0:0:
24,328,43285,1,0,0:0:0:0:
24,192,43585,5,8,0:0:0:0:
488,192,43885,1,0,0:0:0:0:
256,192,44185,1,0,0:0:0:0:
96,192,44485,6,0,L|216:96,1,120,0|0,0:0|0:0,0:0:0:0:
136,192,44785,2,0,L|256:96,1,120,0|0,0:0|0:0,0:0:0:0:
176,192,45085,2,0,L|296:96,1,120,0|0,0:0|0:0,0:0:0:0:
216,192,45385,2,0,L|336:96,1,120,0|0,0:0|0:0,0:0:0:0:
440,328,45685,5,0,0:0:0:0:
304,336,45835,1,0,0:0:0:0:
272,304,45910,1,0,0:0:0:0:
304,264,45985,1,0,0:0:0:0:
184,336,46135,1,0,0:0:0:0:
216,304,46210,1,0,0:0:0:0:
36,304,46360,1,0,0:0:0:0:
156,304,46510,1,0,0:0:0:0:
192,268,46585,1,0,0:0:0:0:
360,264,46735,1,0,0:0:0:0:
72,268,46885,1,4,0:0:0:0:
48,84,51685,6,0,P|204:124|296:316,1,360
176,288,52285,1,0,0:0:0:0:
48,288,52510,1,0,0:0:0:0:
284,288,52735,1,0,0:0:0:0:
464,84,52885,6,0,P|308:124|216:316,1,360
336,288,53485,1,0,0:0:0:0:
464,288,53710,1,0,0:0:0:0:
228,288,53935,1,0,0:0:0:0:
416,160,54085,6,0,P|296:192|256:304,1,240,0|0,0:0|0:0,0:0:0:0:
257,291,54685,2,0,P|208:185|96:160,1,240,0|0,0:0|0:0,0:0:0:0:
12,160,55285,5,0,0:0:0:0:
384,160,55585,1,0,0:0:0:0:
504,160,55735,1,0,0:0:0:0:
380,160,55885,1,0,0:0:0:0:
8,160,56185,1,0,0:0:0:0:
256,192,56485,12,0,57385,0:0:0:0:
368,192,57685,5,4,0:0:0:0:
488,192,57835,1,0,0:0:0:0:
368,136,57985,1,0,0:0:0:0:
64,192,58135,1,0,0:0:0:0:
112,192,58285,2,0,B|112:312,1,120,8|0,0:0|0:0,0:0:0:0:
232,268,58585,2,0,P|284:296|336:252,1,120,8|0,0:0|0:0,0:0:0:0:
452,264,58885,5,0,0:0:0:0:
356,264,59035,1,0,0:0:0:0:
452,320,59185,1,0,0:0:0:0:
356,320,59335,1,0,0:0:0:0:
384,72,59485,2,0,L|484:148,1,120,8|0,0:0|0:0,0:0:0:0:
476,68,59785,2,0,L|368:156,1,120,8|0,0:0|0:0,0:0:0:0:
172,148,60085,5,0,0:0:0:0:
76,148,60235,1,0,0:0:0:0:
244,148,60385,2,0,L|180:260,1,120
64,252,60685,1,0,0:0:0:0:
184,252,60835,2,0,L|252:360,1,120
428,352,61135,1,0,0:0:0:0:
504,192,61285,5,0,0:0:0:0:
384,192,61435,2,0,L|460:288,1,120
336,288,61735,2,0,L|260:188,2,120
108,192,62185,1,0,0:0:0:0:
52,192,62335,1,0,0:0:0:0:
384,72,62485,5,4,0:0:0:0:
288,72,62635,1,0,0:0:0:0:
384,128,62785,1,0,0:0:0:0:
288,128,62935,1,0,0:0:0:0:
192,72,63085,2,0,L|128:176,1,120,8|0,0:0|0:0,0:0:0:0:
8,176,63385,2,0,L|70:73,1,120,8|0,0:0|0:0,0:0:0:0:
160,176,63685,5,0,0:0:0:0:
256,176,63835,1,0,0:0:0:0:
352,176,63985,1,0,0:0:0:0:
256,232,64135,1,0,0:0:0:0:
344,56,64285,2,0,L|239:115,1,120,8|0,0:0|0:0,0:0:0:0:
240,64,64585,2,0,L|344:123,1,120,8|0,0:0|0:0,0:0:0:0:
172,148,64885,5,0,0:0:0:0:
76,148,65035,1,0,0:0:0:0:
244,148,65185,2,0,L|180:260,1,120
64,252,65485,1,0,0:0:0:0:
184,252,65635,2,0,L|252:360,1,120
428,352,65935,1,0,0:0:0:0:
504,192,66085,5,0,0:0:0:0:
384,192,66235,2,0,L|460:288,1,120
336,288,66535,2,0,L|260:188,2,120
492,288,66985,1,0,0:0:0:0:
436,288,67135,1,0,0:0:0:0:
104,208,67285,5,4,0:0:0:0:
8,208,67435,1,0,0:0:0:0:
128,208,67585,1,8,0:0:0:0:
176,208,67735,1,0,0:0:0:0:
56,336,67885,2,0,L|148:259,2,120,8|0|8,0:0|0:0|0:0,0:0:0:0:
216,240,68335,1,0,0:0:0:0:
296,240,68485,5,4,0:0:0:0:
392,240,68635,1,0,0:0:0:0:
296,240,68785,1,8,0:0:0:0:
476,240,68935,1,0,0:0:0:0:
368,160,69085,2,0,L|300:40,2,120,8|0|8,0:0|0:0|0:0,0:0:0:0:
368,160,69535,1,0,0:0:0:0:
216,160,69685,5,4,0:0:0:0:
120,160,69835,1,0,0:0:0:0:
216,160,69985,1,0,0:0:0:0:
36,160,70135,1,0,0:0:0:0:
152,40,70285,2,0,L|216:160,1,120,0|0,0:0|0:0,0:0:0:0:
328,144,70585,6,0,B|88:144|88:144|208:144,2,360,0|0|0,0:0|0:0|0:0,0:0:0:0:
88,192,71785,1,0,0:0:0:0:
312,160,72085,5,4,0:0:0:0:
432,160,72235,1,0,0:0:0:0:
312,96,72385,1,0,0:0:0:0:
432,96,72535,1,0,0:0:0:0:
312,32,72685,1,0,0:0:0:0:
192,92,72835,2,0,B|64:92|64:92|-8:212,1,240,0|0,0:0|0:0,0:0:0:0:
216,192,73285,5,4,0:0:0:0:
316,192,73435,1,0,0:0:0:0:
416,192,73585,1,0,0:0:0:0:
316,128,73735,1,0,0:0:0:0:
416,128,73885,1,0,0:0:0:0:
512,192,74035,2,0,B|536:332|360:328,1,240,0|0,0:0|0:0,0:0:0:0:
244,328,74485,5,0,0:0:0:0:
124,324,74635,1,0,0:0:0:0:
4,324,74785,1,0,0:0:0:0:
184,324,74935,1,0,0:0:0:0:
304,328,75085,1,4,0:0:0:0:
204,232,75385,1,0,0:0:0:0:
48,232,75535,1,4,0:0:0:0:
512,192,75835,5,4,0:0:0:0:
252,112,76135,1,0,0:0:0:0:
212,12,76285,1,4,0:0:0:0:
60,112,76435,1,0,0:0:0:0:
20,12,76585,1,0,0:0:0:0:
64,208,76885,6,0,L|192:196,1,120,0|0,0:0|0:0,0:0:0:0:
304,236,77185,2,0,L|185:248,1,120,0|0,0:0|0:0,0:0:0:0:
304,332,77485,2,0,L|185:321,1,120,0|0,0:0|0:0,0:0:0:0:
64,348,77785,2,0,L|184:360,1,120,8|0,0:0|0:0,0:0:0:0:
64,296,78010,5,0,0:0:0:0:
8,296,78085,1,0,0:0:0:0:
304,296,78385,1,8,0:0:0:0:
424,296,78535,1,0,0:0:0:0:
144,296,78685,1,0,0:0:0:0:
336,296,78985,1,2,0:0:0:0:
256,192,79135,5,0,0:0:0:0:
352,192,79285,1,0,0:0:0:0:
448,192,79435,1,0,0:0:0:0:
496,192,79510,1,0,0:0:0:0:
448,192,79585,1,0,0:0:0:0:
352,136,79735,1,0,0:0:0:0:
256,128,79885,2,0,L|160:48,1,120,0|0,0:0|0:0,0:0:0:0:
86,56,80110,1,0,0:0:0:0:
160,48,80185,2,0,L|256:128,1,120,8|0,0:0|0:0,0:0:0:0:
64,264,80485,5,4,0:0:0:0:
0,264,80785,1,8,0:0:0:0:
368,264,81085,1,8,0:0:0:0:
488,264,81235,1,4,0:0:0:0:
416,264,81310,1,0,0:0:0:0:
488,264,81385,1,0,0:0:0:0:
152,272,86485,6,0,L|216:160,1,120,4|0,0:0|0:0,0:0:0:0:
360,272,86785,2,0,L|280:128,1,120,8|0,0:0|0:0,0:0:0:0:
176,112,87085,1,4,0:0:0:0:
232,112,87160,1,0,0:0:0:0:
176,112,87235,1,0,0:0:0:0:
96,112,87310,1,0,0:0:0:0:
20,112,87385,1,0,0:0:0:0:
152,112,87535,1,0,0:0:0:0:
360,112,87685,6,0,L|432:208,1,120,0|0,0:0|0:0,0:0:0:0:
360,248,87910,1,0,0:0:0:0:
424,244,87985,1,0,0:0:0:0:
256,248,88135,1,0,0:0:0:0:
316,248,88210,1,0,0:0:0:0:
196,248,88360,1,0,0:0:0:0:
76,248,88510,1,0,0:0:0:0:
16,248,88585,1,0,0:0:0:0:
216,248,88735,1,0,0:0:0:0:
440,192,88885,5,4,0:0:0:0:
336,192,89185,1,0,0:0:0:0:
240,192,89335,1,0,0:0:0:0:
336,192,89485,1,0,0:0:0:0:
328,64,89785,6,0,L|232:152,1,120,0|0,0:0|0:0,0:0:0:0:
168,144,90085,2,0,L|168:24,1,120,0|0,0:0|0:0,0:0:0:0:
96,24,90385,2,0,L|0:112,1,120,0|0,0:0|0:0,0:0:0:0:
36,200,90685,5,0,0:0:0:0:
104,160,90835,1,0,0:0:0:0:
172,120,90985,1,0,0:0:0:0:
240,80,91135,1,0,0:0:0:0:
288,80,91285,6,0,L|400:168,1,120,8|0,0:0|0:0,0:0:0:0:
312,192,91585,2,0,L|424:280,1,120,8|0,0:0|0:0,0:0:0:0:
384,152,91885,2,0,L|496:240,1,120,8|0,0:0|0:0,0:0:0:0:
408,264,92185,2,0,L|520:352,1,120,8|0,0:0|0:0,0:0:0:0:
400,344,92485,5,0,0:0:0:0:
336,344,92635,1,0,0:0:0:0:
272,344,92785,1,0,0:0:0:0:
336,344,92935,1,0,0:0:0:0:
272,344,93085,1,0,0:0:0:0:
272,344,93160,1,0,0:0:0:0:
272,344,93235,1,0,0:0:0:0:
32,344,93385,1,2,0:0:0:0:
256,240,93685,6,0,L|120:40,1,240,0|0,0:0|0:0,0:0:0:0:
8,40,94285,1,0,0:0:0:0:
120,40,94585,1,0,0:0:0:0:
504,48,94885,6,0,L|369:246,1,240,8|0,0:0|0:0,0:0:0:0:
256,248,95485,1,0,0:0:0:0:
368,248,95785,1,0,0:0:0:0:
312,192,96085,6,0,L|344:136,1,60,0|0,0:0|0:0,0:0:0:0:
248,136,96235,2,0,L|216:80,1,60,0|0,0:0|0:0,0:0:0:0:
328,80,96385,1,8,0:0:0:0:
200,192,96685,6,0,L|168:136,1,60,0|0,0:0|0:0,0:0:0:0:
264,136,96835,2,0,L|296:80,1,60,0|0,0:0|0:0,0:0:0:0:
184,80,96985,1,8,0:0:0:0:
256,192,97285,12,0,98185,0:0:0:0:
256,16,98485,6,0,B|144:48|144:48|360:160|360:160|154:286|154:286|280:360,1,720,0|0,0:0|0:0,0:0:0:0:
256,192,99685,6,0,L|308:147,3,60,4|0|0|0,0:0|0:0|0:0|0:0,0:0:0:0:
392,140,99985,2,0,L|340:95,3,60,8|0|0|0,0:0|0:0|0:0|0:0,0:0:0:0:
256,96,100285,6,0,L|204:51,3,60,0|0|0|0,0:0|0:0|0:0|0:0,0:0:0:0:
120,140,100585,2,0,L|165:100,3,60,8|0|0|0,0:0|0:0|0:0|0:0,0:0:0:0:
256,192,100885,12,0,101785,0:0:0:0:
256,192,102085,5,12,0:0:0:0:
184,192,102235,1,0,0:0:0:0:
244,192,102310,1,0,0:0:0:0:
104,192,102460,1,0,0:0:0:0:
164,192,102535,1,0,0:0:0:0:
32,192,102685,1,0,0:0:0:0:
32,272,102835,1,0,0:0:0:0:
256,272,102985,1,8,0:0:0:0:
480,272,103135,1,0,0:0:0:0:
472,80,103285,5,4,0:0:0:0:
392,80,103435,1,0,0:0:0:0:
452,80,103510,1,0,0:0:0:0:
308,80,103660,1,0,0:0:0:0:
368,80,103735,1,0,0:0:0:0:
232,80,103885,1,0,0:0:0:0:
368,80,104035,1,0,0:0:0:0:
24,80,104185,1,8,0:0:0:0:
96,80,104335,1,0,0:0:0:0:
24,80,104485,5,4,0:0:0:0:
96,80,104635,1,0,0:0:0:0:
174,80,104710,1,0,0:0:0:0:
294,80,104860,1,0,0:0:0:0:
234,80,104935,1,0,0:0:0:0:
78,80,105085,1,0,0:0:0:0:
232,80,105235,1,0,0:0:0:0:
488,80,105385,1,8,0:0:0:0:
416,80,105535,1,0,0:0:0:0:
488,160,105685,6,0,L|352:312,1,180,0|0,0:0|0:0,0:0:0:0:
276,296,105985,2,0,L|397:161,1,180,8|0,0:0|0:0,0:0:0:0:
312,164,106285,2,0,B|124:8|124:8,1,240,0|8,0:0|0:0,0:0:0:0:
252,144,106735,1,0,0:0:0:0:
112,248,106885,6,0,L|228:208,1,120,4|0,0:0|0:0,0:0:0:0:
304,208,107110,2,0,L|236:109,1,120,0|0,0:0|0:0,0:0:0:0:
288,48,107335,1,0,0:0:0:0:
108,48,107485,1,0,0:0:0:0:
276,52,107635,1,0,0:0:0:0:
512,56,107785,1,8,0:0:0:0:
392,56,107935,1,0,0:0:0:0:
400,248,108085,6,0,L|284:208,1,120,4|0,0:0|0:0,0:0:0:0:
208,208,108310,2,0,L|276:109,1,120,0|0,0:0|0:0,0:0:0:0:
336,40,108535,1,0,0:0:0:0:
456,40,108685,1,0,0:0:0:0:
276,40,108835,1,0,0:0:0:0:
40,44,108985,1,8,0:0:0:0:
160,44,109135,1,0,0:0:0:0:
40,132,109285,6,0,L|40:260,1,120,4|0,0:0|0:0,0:0:0:0:
100,260,109510,2,0,L|188:344,1,120,0|0,0:0|0:0,0:0:0:0:
97,344,109735,1,0,0:0:0:0:
220,344,109885,1,0,0:0:0:0:
400,344,110035,1,0,0:0:0:0:
160,344,110185,1,8,0:0:0:0:
64,344,110335,1,0,0:0:0:0:
256,192,110485,12,0,111385,0:0:0:0:
256,192,111685,5,12,0:0:0:0:
328,192,111835,1,0,0:0:0:0:
268,192,111910,1,0,0:0:0:0:
408,192,112060,1,0,0:0:0:0:
348,192,112135,1,0,0:0:0:0:
480,192,112285,1,0,0:0:0:0:
480,272,112435,1,0,0:0:0:0:
256,272,112585,1,8,0:0:0:0:
32,272,112735,1,0,0:0:0:0:
40,80,112885,5,4,0:0:0:0:
120,80,113035,1,0,0:0:0:0:
60,80,113110,1,0,0:0:0:0:
204,80,113260,1,0,0:0:0:0:
144,80,113335,1,0,0:0:0:0:
280,80,113485,1,0,0:0:0:0:
144,80,113635,1,0,0:0:0:0:
488,80,113785,1,8,0:0:0:0:
416,80,113935,1,0,0:0:0:0:
488,80,114085,5,4,0:0:0:0:
416,80,114235,1,0,0:0:0:0:
338,80,114310,1,0,0:0:0:0:
218,80,114460,1,0,0:0:0:0:
278,80,114535,1,0,0:0:0:0:
434,80,114685,1,0,0:0:0:0:
280,80,114835,1,0,0:0:0:0:
24,80,114985,1,8,0:0:0:0:
96,80,115135,1,0,0:0:0:0:
24,160,115285,6,0,L|160:312,1,180,0|0,0:0|0:0,0:0:0:0:
236,296,115585,2,0,L|115:161,1,180,8|0,0:0|0:0,0:0:0:0:
200,164,115885,2,0,B|388:8|388:8,1,240,0|8,0:0|0:0,0:0:0:0:
260,144,116335,1,0,0:0:0:0:
400,248,116485,6,0,L|284:208,1,120,4|0,0:0|0:0,0:0:0:0:
208,208,116710,2,0,L|276:109,1,120,0|0,0:0|0:0,0:0:0:0:
224,48,116935,1,0,0:0:0:0:
404,48,117085,1,0,0:0:0:0:
236,52,117235,1,0,0:0:0:0:
0,56,117385,1,8,0:0:0:0:
120,56,117535,1,0,0:0:0:0:
112,248,117685,6,0,L|228:208,1,120,4|0,0:0|0:0,0:0:0:0:
304,208,117910,2,0,L|236:109,1,120,0|0,0:0|0:0,0:0:0:0:
176,40,118135,1,0,0:0:0:0:
56,40,118285,1,0,0:0:0:0:
236,40,118435,1,0,0:0:0:0:
472,44,118585,1,8,0:0:0:0:
352,44,118735,1,0,0:0:0:0:
196,108,118885,6,0,L|124:208,1,120,4|0,0:0|0:0,0:0:0:0:
232,208,119110,2,0,L|300:307,1,120,0|0,0:0|0:0,0:0:0:0:
372,312,119335,1,0,0:0:0:0:
204,316,119485,1,0,0:0:0:0:
24,316,119635,1,0,0:0:0:0:
144,320,119785,6,0,L|216:304,1,60,8|0,0:0|0:0,0:0:0:0:
280,276,119935,2,0,L|208:260,1,60,0|0,0:0|0:0,0:0:0:0:
300,192,120085,5,4,0:0:0:0:
342,192,120160,1,0,0:0:0:0:
384,192,120235,1,0,0:0:0:0:
252,192,120385,1,8,0:0:0:0:
120,192,120535,1,0,0:0:0:0:
172,192,120610,1,0,0:0:0:0:
120,192,120685,1,0,0:0:0:0:
68,192,120760,1,0,0:0:0:0:
224,112,120910,1,0,0:0:0:0:
284,112,120985,1,10,0:0:0:0:
416,112,121135,1,0,0:0:0:0:
256,96,121285,5,4,0:0:0:0:
312,96,121435,2,0,L|448:8,1,120,0|0,0:0|0:0,0:0:0:0:
312,32,121735,1,0,0:0:0:0:
256,32,121885,1,2,0:0:0:0:
200,32,122035,1,0,0:0:0:0:
99,30,122185,2,0,L|199:95,1,120,0|0,0:0|0:0,0:0:0:0:
28,228,122485,6,0,L|180:332,1,180,0|0,0:0|0:0,0:0:0:0:
256,328,122785,2,0,L|216:192,1,120,0|0,0:0|0:0,0:0:0:0:
100,208,123085,2,0,L|130:92,1,120,2|0,0:0|0:0,0:0:0:0:
224,212,123385,2,0,L|257:96,1,120,0|0,0:0|0:0,0:0:0:0:
436,276,123685,6,0,L|284:380,1,180,0|0,0:0|0:0,0:0:0:0:
256,328,123985,2,0,L|296:192,1,120,0|0,0:0|0:0,0:0:0:0:
412,216,124285,2,0,L|444:336,1,120,2|0,0:0|0:0,0:0:0:0:
320,328,124585,2,0,L|289:212,1,120,2|0,0:0|0:0,0:0:0:0:
64,192,124885,6,0,L|208:64,1,180,0|0,0:0|0:0,0:0:0:0:
144,192,125185,2,0,L|288:64,1,180,0|0,0:0|0:0,0:0:0:0:
220,192,125485,2,0,L|364:64,1,180,2|0,0:0|0:0,0:0:0:0:
296,192,125785,2,0,L|440:64,1,180,0|0,0:0|0:0,0:0:0:0:
372,192,126085,1,0,0:0:0:0:
496,304,126385,6,0,B|384:96|384:96|192:112|208:256,1,480,0|0,0:0|0:0,0:0:0:0:
256,192,127285,1,0,0:0:0:0:
305,226,127585,2,0,B|320:112|128:96|128:96|16:304,1,480,0|0,0:0|0:0,0:0:0:0:
256,56,128485,5,4,0:0:0:0:
248,56,128560,1,0,0:0:0:0:
224,56,128635,1,0,0:0:0:0:
192,56,128710,1,0,0:0:0:0:
152,56,128785,1,8,0:0:0:0:
120,56,128860,1,0,0:0:0:0:
96,56,128935,1,0,0:0:0:0:
88,56,129010,1,0,0:0:0:0:
256,56,129085,5,8,0:0:0:0:
264,56,129160,1,0,0:0:0:0:
288,56,129235,1,0,0:0:0:0:
320,56,129310,1,0,0:0:0:0:
360,56,129385,1,8,0:0:0:0:
392,56,129460,1,0,0:0:0:0:
416,56,129535,1,0,0:0:0:0:
424,56,129610,1,0,0:0:0:0:
256,56,129685,5,8,0:0:0:0:
248,56,129760,1,0,0:0:0:0:
224,56,129835,1,0,0:0:0:0:
192,56,129910,1,0,0:0:0:0:
152,56,129985,1,8,0:0:0:0:
120,56,130060,1,0,0:0:0:0:
96,56,130135,1,0,0:0:0:0:
88,56,130210,1,0,0:0:0:0:
296,180,130285,6,0,L|332:228,3,60,8|0|0|0,0:0|0:0|0:0|0:0,0:0:0:0:
216,180,130585,2,0,L|168:124,3,60,0|0|0|0,0:0|0:0|0:0|0:0,0:0:0:0:
256,192,130885,12,0,134485,0:0:0:0:
