osu file format v12

[General]
AudioFilename: calamity_fortune_1280x720.mp3
AudioLeadIn: 0
PreviewTime: 27690
Countdown: 0
SampleSet: Normal
StackLeniency: 0.7
Mode: 2
LetterboxInBreaks: 1
WidescreenStoryboard: 1

[Editor]
Bookmarks: 21690,25890,46890,51690,81390,86490,130890
DistanceSpacing: 1
BeatDivisor: 4
GridSize: 4

[Metadata]
Title:Calamity Fortune
TitleUnicode:Calamity Fortune
Artist:LeaF
ArtistUnicode:LeaF
Creator:Krah
Version:Platter
Source:Touhou
Tags:少女が見た日本の原風景 The Primal Scene of Japan the Girl Saw TH10 Mountain of Faith Kochiya Sanae BMS Event CLSW
BeatmapID:296873
BeatmapSetID:114741

[Difficulty]
HPDrainRate:6
CircleSize:4
OverallDifficulty:8
ApproachRate:8
SliderMultiplier:1.8
SliderTickRate:1

[Events]
//Background and Video events
0,0,"bg.jpg",0,0
//Break Periods
2,47084,50935
2,81585,85735
//Storyboard Layer 0 (Background)
//Storyboard Layer 1 (Fail)
//Storyboard Layer 2 (Pass)
//Storyboard Layer 3 (Foreground)
//Storyboard Sound Samples
//Background Colour Transformations
3,100,163,162,255

[TimingPoints]
1285,300,4,1,1,75,1,0
6085,-100,4,1,1,80,0,0
7285,-100,4,1,1,70,0,0
10585,-100,4,1,1,90,0,0
12085,-100,4,1,1,80,0,0
21685,-100,4,1,1,70,0,0
26485,-100,4,1,1,80,0,0
27685,-100,4,1,1,90,0,1
34885,-100,4,1,1,80,0,0
37285,-100,4,1,1,70,0,0
41485,-100,4,1,1,85,0,0
42085,-100,4,1,1,70,0,0
43285,-100,4,1,1,65,0,0
44485,-100,4,1,1,70,0,0
45685,-100,4,1,1,80,0,0
51685,-100,4,1,1,70,0,0
55285,-100,4,1,1,85,0,0
56485,-100,4,1,1,70,0,0
57685,-100,4,1,1,75,0,0
67285,-100,4,1,1,80,0,0
88885,-100,4,1,1,70,0,0
99685,-100,4,1,1,80,0,0
102085,-100,4,1,1,90,0,1
106285,-66.6666666666667,4,1,1,90,0,1
106585,-100,4,1,1,90,0,1
110485,-100,4,1,1,60,0,0
111685,-100,4,1,1,90,0,1
115885,-66.6666666666667,4,1,1,90,0,1
116185,-100,4,1,1,90,0,1
121285,-100,4,1,1,70,0,0
126085,-100,4,1,1,60,0,0
128485,-100,4,1,1,80,0,0
134485,-100,4,1,1,30,0,0

[Colours]
Combo1 : 88,190,228
Combo2 : 252,131,222
Combo3 : 192,198,233
Combo4 : 186,37,104

[HitObjects]
320,88,1285,1,0,0:0:0:0:
192,88,1435,1,0,0:0:0:0:
256,88,1585,1,0,0:0:0:0:
76,96,1885,2,0,P|91:184|168:248,1,180,0|0,0:0|0:0,0:0:0:0:
32,192,2485,6,0,L|208:256,1,180,0|8,0:0|0:0,0:0:0:0:
312,232,2935,1,0,0:0:0:0:
416,200,3085,1,0,0:0:0:0:
256,192,3385,5,8,0:0:0:0:
480,192,3685,2,0,L|392:352,1,180,0|0,0:0|0:0,0:0:0:0:
508,352,4285,1,0,0:0:0:0:
36,356,4585,5,2,0:0:0:0:
96,192,4885,2,0,B|103:258|103:258|224:264,1,180,4|8,0:0|0:0,0:0:0:0:
96,256,5335,1,0,0:0:0:0:
96,256,5485,1,0,0:0:0:0:
296,192,5785,5,8,0:0:0:0:
456,192,5935,1,0,0:0:0:0:
424,192,6085,1,4,0:0:0:0:
488,192,6235,1,0,0:0:0:0:
480,120,6385,2,0,B|308:88|308:88|388:40|388:40|264:8,1,360,0|2,0:0|0:0,0:0:0:0:
256,192,7285,6,0,L|144:333,1,180
336,336,7885,1,0,0:0:0:0:
256,192,8185,12,0,9385,0:0:0:0:
256,112,9685,5,4,0:0:0:0:
416,112,9910,1,0,0:0:0:0:
464,112,9985,1,0,0:0:0:0:
336,112,10135,1,0,0:0:0:0:
208,112,10285,1,0,0:0:0:0:
256,192,10585,5,0,0:0:0:0:
312,192,10735,1,0,0:0:0:0:
368,192,10885,1,4,0:0:0:0:
312,192,11035,1,0,0:0:0:0:
480,192,11185,1,4,0:0:0:0:
104,192,11485,1,0,0:0:0:0:
392,192,12085,6,0,L|219:141,2,180,0|8|0,0:0|0:0|0:0,0:0:0:0:
392,192,12985,1,8,0:0:0:0:
152,192,13285,1,0,0:0:0:0:
88,192,13435,1,0,0:0:0:0:
24,192,13585,1,8,0:0:0:0:
256,192,13885,5,0,0:0:0:0:
488,192,14185,1,8,0:0:0:0:
328,192,14485,1,0,0:0:0:0:
256,192,14635,1,0,0:0:0:0:
200,192,14785,1,8,0:0:0:0:
488,192,15085,1,0,0:0:0:0:
360,192,15385,1,8,0:0:0:0:
0,192,15685,5,0,0:0:0:0:
0,192,15835,1,0,0:0:0:0:
0,192,15985,2,0,L|96:344,1,180,8|0,0:0|0:0,0:0:0:0:
192,344,16585,2,0,L|280:312,2,90,8|0|0,0:0|0:0|0:0,0:0:0:0:
440,192,17185,6,0,L|352:160,2,90,8|0|0,0:0|0:0|0:0,0:0:0:0:
232,192,17785,1,8,0:0:0:0:
136,192,17935,1,0,0:0:0:0:
136,192,18085,1,0,0:0:0:0:
306,165,18385,2,0,L|392:192,2,90,8|0|0,0:0|0:0|0:0,0:0:0:0:
184,192,18985,1,8,0:0:0:0:
88,192,19135,1,0,0:0:0:0:
88,192,19285,1,0,0:0:0:0:
456,192,19585,6,0,L|392:112,3,90,8|0|0|0,0:0|0:0|0:0|0:0,0:0:0:0:
344,192,20185,1,8,0:0:0:0:
256,192,20335,1,0,0:0:0:0:
344,192,20485,2,0,L|288:120,2,90,0|0|8,0:0|0:0|0:0,0:0:0:0:
456,192,20935,1,0,0:0:0:0:
456,192,21085,1,0,0:0:0:0:
168,192,21235,2,0,P|64:192|56:112,1,180,0|0,0:0|0:0,0:0:0:0:
256,192,21685,12,0,23785,0:0:0:0:
256,192,24085,12,2,26185,0:0:0:0:
256,192,26485,5,0,0:0:0:0:
192,192,26635,1,0,0:0:0:0:
256,192,26785,1,0,0:0:0:0:
192,192,26935,1,0,0:0:0:0:
256,192,27085,1,0,0:0:0:0:
192,192,27235,1,0,0:0:0:0:
256,192,27385,1,0,0:0:0:0:
320,192,27535,1,0,0:0:0:0:
472,192,27685,6,0,B|352:192|352:192|328:248,1,180,4|8,0:0|0:0,0:0:0:0:
256,192,28135,1,0,0:0:0:0:
152,192,28285,1,0,0:0:0:0:
88,192,28435,1,0,0:0:0:0:
56,192,28510,1,0,0:0:0:0:
24,192,28585,1,8,0:0:0:0:
400,192,28885,5,4,0:0:0:0:
400,192,29185,1,0,0:0:0:0:
276,192,29335,1,0,0:0:0:0:
276,192,29635,1,0,0:0:0:0:
336,192,29785,1,8,0:0:0:0:
400,192,29935,1,0,0:0:0:0:
464,192,30085,5,0,0:0:0:0:
200,192,30235,1,0,0:0:0:0:
144,192,30310,1,0,0:0:0:0:
96,192,30385,2,0,P|32:144|104:112,1,180,8|0,0:0|0:0,0:0:0:0:
16,104,30835,1,0,0:0:0:0:
94,106,30985,1,8,0:0:0:0:
176,112,31285,6,0,P|192:144|248:144,1,90,0|0,0:0|0:0,0:0:0:0:
312,112,31585,1,8,0:0:0:0:
392,112,31735,1,0,0:0:0:0:
312,112,31885,1,0,0:0:0:0:
272,112,31960,1,0,0:0:0:0:
232,112,32035,1,0,0:0:0:0:
128,112,32185,1,8,0:0:0:0:
8,192,32485,2,0,B|88:200|88:200|8:248|8:248|200:240,1,360,0|0,0:0|0:0,0:0:0:0:
192,192,33385,1,8,0:0:0:0:
236,192,33460,1,0,0:0:0:0:
280,192,33535,1,0,0:0:0:0:
384,192,33685,5,0,0:0:0:0:
488,192,33835,1,0,0:0:0:0:
436,192,33910,1,0,0:0:0:0:
384,192,33985,1,8,0:0:0:0:
104,192,34285,1,0,0:0:0:0:
192,192,34435,1,0,0:0:0:0:
256,192,34585,1,8,0:0:0:0:
488,96,34885,6,0,P|407:112|352:192,1,180,4|0,0:0|0:0,0:0:0:0:
200,240,35485,1,0,0:0:0:0:
80,192,35785,1,0,0:0:0:0:
160,192,35935,1,0,0:0:0:0:
80,192,36085,1,4,0:0:0:0:
264,192,36235,1,0,0:0:0:0:
368,192,36385,1,0,0:0:0:0:
424,192,36685,2,0,L|344:384,1,180,4|0,0:0|0:0,0:0:0:0:
224,192,37285,6,0,L|56:336,1,180,0|8,0:0|0:0,0:0:0:0:
368,192,37885,2,0,L|200:336,1,180,0|8,0:0|0:0,0:0:0:0:
16,192,38485,1,0,0:0:0:0:
80,192,38635,1,0,0:0:0:0:
144,192,38785,1,0,0:0:0:0:
416,192,39085,1,0,0:0:0:0:
188,192,39385,1,2,0:0:0:0:
352,192,39685,6,0,L|520:336,1,180,0|8,0:0|0:0,0:0:0:0:
216,192,40285,2,0,L|384:336,1,180,0|8,0:0|0:0,0:0:0:0:
216,192,40885,5,0,0:0:0:0:
168,192,40960,1,0,0:0:0:0:
72,192,41110,1,0,0:0:0:0:
120,192,41185,1,0,0:0:0:0:
352,192,41335,1,0,0:0:0:0:
416,192,41485,5,4,0:0:0:0:
480,192,41635,1,0,0:0:0:0:
456,192,41710,1,0,0:0:0:0:
432,192,41785,1,8,0:0:0:0:
408,192,41860,1,0,0:0:0:0:
384,192,41935,1,0,0:0:0:0:
360,192,42010,1,0,0:0:0:0:
280,64,42085,6,0,P|192:32|112:64,1,180,0|8,0:0|0:0,0:0:0:0:
192,120,42685,2,0,P|275:90|357:122,1,180,0|8,0:0|0:0,0:0:0:0:
280,192,43285,5,0,0:0:0:0:
128,192,43585,1,8,0:0:0:0:
376,192,43885,2,0,L|456:368,1,180
256,192,44485,12,0,45385,0:0:0:0:
256,192,45685,5,0,0:0:0:0:
348,192,45835,1,0,0:0:0:0:
404,192,45910,1,0,0:0:0:0:
348,192,45985,1,0,0:0:0:0:
256,192,46135,1,0,0:0:0:0:
200,192,46210,1,0,0:0:0:0:
316,136,46360,1,0,0:0:0:0:
424,80,46510,1,0,0:0:0:0:
368,80,46585,6,0,P|324:88|280:144,2,90
144,184,51685,6,0,B|68:236|68:236|152:312,1,180,4|0,0:0|0:0,0:0:0:0:
328,184,52285,1,0,0:0:0:0:
432,184,52510,1,0,0:0:0:0:
328,184,52735,1,0,0:0:0:0:
208,192,52885,6,0,B|132:244|132:244|216:320,1,180,0|0,0:0|0:0,0:0:0:0:
312,304,53485,1,0,0:0:0:0:
232,244,53710,1,0,0:0:0:0:
156,188,53935,1,0,0:0:0:0:
64,192,54085,2,0,L|184:360,1,180,0|0,0:0|0:0,0:0:0:0:
352,330,54685,2,0,L|248:184,1,180,0|0,0:0|0:0,0:0:0:0:
8,192,55285,5,12,0:0:0:0:
88,192,55585,1,4,0:0:0:0:
152,192,55735,1,0,0:0:0:0:
216,192,55885,1,0,0:0:0:0:
432,192,56185,1,8,0:0:0:0:
256,192,56485,12,0,57385,0:0:0:0:
104,192,57685,5,4,0:0:0:0:
176,192,57835,1,0,0:0:0:0:
16,192,57985,2,0,L|144:344,1,180,0|0,0:0|0:0,0:0:0:0:
256,192,58585,2,0,P|264:288|336:336,1,180,0|0,0:0|0:0,0:0:0:0:
464,192,59035,1,0,0:0:0:0:
396,192,59185,2,0,P|388:288|316:336,1,180,0|0,0:0|0:0,0:0:0:0:
176,192,59785,6,0,L|256:368,2,180,8|0|8,0:0|0:0|0:0,0:0:0:0:
256,192,60685,2,0,B|440:192|440:192|352:192,2,270,0|0|0,0:0|0:0|0:0,0:0:0:0:
296,192,61885,2,0,L|384:364,1,180,0|0,0:0|0:0,0:0:0:0:
408,192,62485,5,4,0:0:0:0:
336,192,62635,1,0,0:0:0:0:
496,192,62785,2,0,L|368:344,1,180,8|0,0:0|0:0,0:0:0:0:
256,192,63385,2,0,P|248:288|176:336,1,180,8|0,0:0|0:0,0:0:0:0:
144,192,63835,1,0,0:0:0:0:
264,192,63985,1,0,0:0:0:0:
264,192,64285,1,0,0:0:0:0:
336,192,64585,6,0,L|256:368,2,180,8|0|8,0:0|0:0|0:0,0:0:0:0:
256,192,65485,2,0,B|72:192|72:192|160:192,2,270,0|0|0,0:0|0:0|0:0,0:0:0:0:
216,192,66685,1,0,0:0:0:0:
304,192,66985,6,0,B|424:192|424:192|400:120,1,180,0|4,0:0|0:0,0:0:0:0:
256,144,67585,1,12,0:0:0:0:
144,144,67735,1,0,0:0:0:0:
256,144,67885,1,0,0:0:0:0:
208,192,68185,6,0,B|88:192|88:192|112:120,1,180,8|0,0:0|0:0,0:0:0:0:
256,144,68785,1,8,0:0:0:0:
368,144,68935,1,0,0:0:0:0:
256,144,69085,1,0,0:0:0:0:
184,224,69385,2,0,B|256:280|256:280|336:224,1,180,8|4,0:0|0:0,0:0:0:0:
384,224,69985,1,8,0:0:0:0:
472,224,70135,1,0,0:0:0:0:
384,224,70285,1,0,0:0:0:0:
200,224,70585,5,8,0:0:0:0:
112,224,70735,1,0,0:0:0:0:
200,224,70885,1,0,0:0:0:0:
16,80,71185,2,0,L|86:136,4,90,0|0|0|0|0,0:0|0:0|0:0|0:0|0:0,0:0:0:0:
256,152,72085,5,4,0:0:0:0:
320,184,72235,1,0,0:0:0:0:
256,208,72385,1,0,0:0:0:0:
192,184,72685,2,0,L|358:252,1,180,0|8,0:0|0:0,0:0:0:0:
256,152,73285,5,4,0:0:0:0:
192,184,73435,1,0,0:0:0:0:
256,208,73585,1,0,0:0:0:0:
320,184,73885,2,0,L|153:252,1,180,0|8,0:0|0:0,0:0:0:0:
256,192,74485,2,0,B|256:136|256:136|288:256|288:256|464:192,1,360,0|0,0:0|0:0,0:0:0:0:
480,112,75385,5,0,0:0:0:0:
384,112,75535,1,4,0:0:0:0:
16,112,75835,1,4,0:0:0:0:
256,112,76135,1,0,0:0:0:0:
200,112,76285,1,4,0:0:0:0:
144,112,76435,1,0,0:0:0:0:
88,112,76585,2,0,P|32:117|32:72,1,90,0|0,0:0|0:0,0:0:0:0:
137,76,76885,6,0,B|344:76|344:76|292:144|292:144|450:144,1,450,0|0,0:0|0:0,0:0:0:0:
376,80,77785,2,0,L|472:144,1,90,8|0,0:0|0:0,0:0:0:0:
386,201,78085,2,0,L|310:151,1,90,0|0,0:0|0:0,0:0:0:0:
248,224,78385,2,0,L|324:274,1,90,8|0,0:0|0:0,0:0:0:0:
108,272,78685,1,2,0:0:0:0:
48,272,78985,1,0,0:0:0:0:
40,184,79285,5,0,0:0:0:0:
124,182,79435,2,0,L|200:232,1,90
204,110,79735,2,0,L|280:160,1,90,0|0,0:0|0:0,0:0:0:0:
284,38,80035,2,0,L|360:88,1,90,0|8,0:0|0:0,0:0:0:0:
240,96,80335,1,0,0:0:0:0:
208,192,80485,6,0,L|336:192,1,90,0|0,0:0|0:0,0:0:0:0:
416,192,80785,2,0,L|520:192,1,90,0|0,0:0|0:0,0:0:0:0:
472,192,81085,1,8,0:0:0:0:
260,192,81235,1,0,0:0:0:0:
16,192,81385,1,4,0:0:0:0:
384,192,86485,5,4,0:0:0:0:
256,192,86635,1,0,0:0:0:0:
128,192,86785,2,0,L|128:296,1,90,8|0,0:0|0:0,0:0:0:0:
280,280,87085,1,4,0:0:0:0:
320,280,87160,1,0,0:0:0:0:
360,280,87235,1,0,0:0:0:0:
384,280,87310,1,0,0:0:0:0:
400,280,87385,1,0,0:0:0:0:
280,280,87535,1,0,0:0:0:0:
168,276,87685,6,0,P|104:252|56:148,3,180,0|0|0|0,0:0|0:0|0:0|0:0,0:0:0:0:
480,156,88885,6,0,L|353:28,1,180,4|0,0:0|0:0,0:0:0:0:
260,112,89485,1,0,0:0:0:0:
152,112,89710,1,2,0:0:0:0:
96,112,89935,1,0,0:0:0:0:
152,112,90085,5,0,0:0:0:0:
288,112,90385,1,0,0:0:0:0:
40,112,90685,1,0,0:0:0:0:
96,112,90910,1,2,0:0:0:0:
40,112,91135,1,0,0:0:0:0:
152,112,91285,5,0,0:0:0:0:
328,192,91585,1,8,0:0:0:0:
232,192,91885,2,0,P|104:182|84:80,2,180,0|0|0,0:0|0:0|0:0,0:0:0:0:
168,192,92635,1,0,0:0:0:0:
104,192,92785,1,0,0:0:0:0:
464,192,93085,1,0,0:0:0:0:
256,196,93385,1,2,0:0:0:0:
480,296,93685,6,0,B|444:112,1,180,0|0,0:0|0:0,0:0:0:0:
264,120,94285,1,0,0:0:0:0:
111,200,94585,1,0,0:0:0:0:
480,296,94885,6,0,B|444:112,1,180,0|0,0:0|0:0,0:0:0:0:
264,120,95485,1,0,0:0:0:0:
111,200,95785,1,0,0:0:0:0:
144,192,96085,6,0,L|324:192,1,180,0|8,0:0|0:0,0:0:0:0:
272,264,96685,2,0,L|452:264,1,180,0|8,0:0|0:0,0:0:0:0:
400,336,97285,2,0,P|336:208|192:152,2,270,0|0|0,0:0|0:0|0:0,0:0:0:0:
464,128,98485,5,0,0:0:0:0:
224,128,98785,1,0,0:0:0:0:
296,128,98935,1,0,0:0:0:0:
224,200,99085,1,0,0:0:0:0:
152,200,99235,1,0,0:0:0:0:
80,200,99385,1,0,0:0:0:0:
12,200,99535,1,0,0:0:0:0:
152,72,99685,6,0,L|200:152,2,90,4|0|8,0:0|0:0|0:0,0:0:0:0:
240,72,100135,2,0,L|288:152,2,90,0|0|0,0:0|0:0|0:0,0:0:0:0:
328,72,100585,2,0,L|376:152,2,90,8|0|0,0:0|0:0|0:0,0:0:0:0:
416,72,101035,6,0,L|464:152,2,90,0|0|0,0:0|0:0|0:0,0:0:0:0:
320,192,101485,2,0,L|204:348,1,180,0|0,0:0|0:0,0:0:0:0:
424,192,102085,5,12,0:0:0:0:
340,192,102235,1,0,0:0:0:0:
296,192,102310,1,0,0:0:0:0:
256,192,102385,1,8,0:0:0:0:
340,192,102535,1,0,0:0:0:0:
252,192,102685,2,0,L|160:220,2,90,0|0|8,0:0|0:0|0:0,0:0:0:0:
88,192,103285,5,4,0:0:0:0:
172,192,103435,1,0,0:0:0:0:
208,192,103510,1,0,0:0:0:0:
256,192,103585,1,8,0:0:0:0:
172,192,103735,1,0,0:0:0:0:
260,192,103885,2,0,L|352:220,2,90,0|0|8,0:0|0:0|0:0,0:0:0:0:
432,192,104485,5,4,0:0:0:0:
368,192,104635,1,0,0:0:0:0:
336,176,104710,1,0,0:0:0:0:
308,192,104785,1,8,0:0:0:0:
416,192,104935,1,0,0:0:0:0:
184,192,105085,2,0,L|92:220,2,90,0|0|8,0:0|0:0|0:0,0:0:0:0:
240,192,105535,1,0,0:0:0:0:
124,192,105685,5,0,0:0:0:0:
32,192,105985,1,8,0:0:0:0:
404,192,106285,2,0,B|452:276|452:276|368:276|368:276|424:368,1,270.000010299683,0|8,0:0|0:0,0:0:0:0:
196,192,106885,5,4,0:0:0:0:
268,192,107035,1,0,0:0:0:0:
304,192,107110,1,0,0:0:0:0:
336,192,107185,1,8,0:0:0:0:
336,192,107335,1,0,0:0:0:0:
148,192,107485,2,0,L|108:288,2,90,0|0|8,0:0|0:0|0:0,0:0:0:0:
316,192,108085,5,4,0:0:0:0:
248,104,108235,1,0,0:0:0:0:
208,144,108310,1,0,0:0:0:0:
176,192,108385,1,8,0:0:0:0:
176,192,108535,1,0,0:0:0:0:
364,192,108685,2,0,L|404:288,2,90,0|0|8,0:0|0:0|0:0,0:0:0:0:
256,192,109285,5,4,0:0:0:0:
296,152,109435,1,0,0:0:0:0:
320,236,109510,1,0,0:0:0:0:
336,192,109585,1,8,0:0:0:0:
424,192,109735,1,0,0:0:0:0:
176,192,109885,2,0,L|72:192,2,90,0|0|8,0:0|0:0|0:0,0:0:0:0:
256,192,110485,12,0,111385,0:0:0:0:
88,192,111685,5,12,0:0:0:0:
172,192,111835,1,0,0:0:0:0:
216,192,111910,1,0,0:0:0:0:
256,192,111985,1,8,0:0:0:0:
172,192,112135,1,0,0:0:0:0:
260,192,112285,2,0,L|352:220,2,90,0|0|8,0:0|0:0|0:0,0:0:0:0:
424,192,112885,5,4,0:0:0:0:
340,192,113035,1,0,0:0:0:0:
300,192,113110,1,0,0:0:0:0:
256,192,113185,1,8,0:0:0:0:
340,192,113335,1,0,0:0:0:0:
252,192,113485,2,0,L|160:220,2,90,0|0|8,0:0|0:0|0:0,0:0:0:0:
80,192,114085,5,4,0:0:0:0:
144,192,114235,1,0,0:0:0:0:
176,152,114310,1,0,0:0:0:0:
204,192,114385,1,8,0:0:0:0:
80,192,114535,1,0,0:0:0:0:
328,192,114685,2,0,L|420:220,2,90,0|0|8,0:0|0:0|0:0,0:0:0:0:
268,192,115135,1,0,0:0:0:0:
388,192,115285,5,0,0:0:0:0:
480,192,115585,1,0,0:0:0:0:
108,192,115885,2,0,B|68:264|68:264|144:264|144:264|92:364,1,270.000010299683,0|8,0:0|0:0,0:0:0:0:
196,192,116485,5,4,0:0:0:0:
268,192,116635,1,0,0:0:0:0:
304,168,116710,1,0,0:0:0:0:
336,192,116785,1,8,0:0:0:0:
336,192,116935,1,0,0:0:0:0:
148,192,117085,2,0,L|108:288,2,90,0|0|8,0:0|0:0|0:0,0:0:0:0:
316,192,117685,5,4,0:0:0:0:
248,112,117835,1,0,0:0:0:0:
208,152,117910,1,0,0:0:0:0:
176,192,117985,1,8,0:0:0:0:
176,192,118135,1,0,0:0:0:0:
364,192,118285,2,0,L|404:288,2,90,0|0|8,0:0|0:0|0:0,0:0:0:0:
256,192,118885,5,4,0:0:0:0:
296,132,119035,1,0,0:0:0:0:
320,160,119110,1,0,0:0:0:0:
336,192,119185,1,8,0:0:0:0:
424,192,119335,1,0,0:0:0:0:
176,192,119485,2,0,L|72:192,2,90,0|0|8,0:0|0:0|0:0,0:0:0:0:
48,332,120085,6,0,L|104:332,3,45,4|0|0|0,0:0|0:0|0:0|0:0,0:0:0:0:
128,332,120385,2,0,L|184:332,3,45,8|0|0|0,0:0|0:0|0:0|0:0,0:0:0:0:
208,332,120685,2,0,L|253:332,3,45,0|0|0|0,0:0|0:0|0:0|0:0,0:0:0:0:
316,332,120985,1,10,0:0:0:0:
256,256,121285,6,0,B|256:184|256:184|312:184|312:184|200:184|200:184|256:184|256:184|256:88,1,360,4|2,0:0|0:0,0:0:0:0:
388,256,122485,2,0,B|464:192|464:192|320:136|320:136|388:52,1,360,0|2,0:0|0:0,0:0:0:0:
124,256,123685,2,0,B|48:192|48:192|192:136|192:136|124:52,1,360,0|2,0:0|0:0,0:0:0:0:
256,192,124885,5,0,0:0:0:0:
436,192,125185,1,0,0:0:0:0:
76,192,125485,1,2,0:0:0:0:
436,192,126085,6,0,P|308:88|176:192,1,360,0|2,0:0|0:0,0:0:0:0:
76,192,127285,2,0,P|204:88|336:192,1,360,0|2,0:0|0:0,0:0:0:0:
256,80,128485,5,4,0:0:0:0:
240,192,128560,1,0,0:0:0:0:
208,192,128635,1,0,0:0:0:0:
192,192,128710,1,0,0:0:0:0:
208,192,128785,1,8,0:0:0:0:
240,192,128860,1,0,0:0:0:0:
272,192,128935,1,0,0:0:0:0:
312,192,129010,1,0,0:0:0:0:
320,192,129085,5,8,0:0:0:0:
312,192,129160,1,0,0:0:0:0:
272,192,129235,1,0,0:0:0:0:
240,192,129310,1,0,0:0:0:0:
208,192,129385,1,8,0:0:0:0:
192,192,129460,1,0,0:0:0:0:
208,192,129535,1,0,0:0:0:0:
240,192,129610,1,0,0:0:0:0:
272,192,129685,5,8,0:0:0:0:
312,192,129760,1,0,0:0:0:0:
320,192,129835,1,0,0:0:0:0:
312,192,129910,1,0,0:0:0:0:
272,192,129985,1,8,0:0:0:0:
240,192,130060,1,0,0:0:0:0:
208,192,130135,1,0,0:0:0:0:
192,192,130210,1,0,0:0:0:0:
208,192,130285,5,8,0:0:0:0:
240,192,130360,1,0,0:0:0:0:
272,192,130435,1,0,0:0:0:0:
312,192,130510,1,0,0:0:0:0:
320,192,130585,5,0,0:0:0:0:
256,192,130885,12,0,134485,0:0:0:0:
