osu file format v12

[General]
AudioFilename: calamity_fortune_1280x720.mp3
AudioLeadIn: 0
PreviewTime: 27690
Countdown: 0
SampleSet: Normal
StackLeniency: 0.7
Mode: 2
LetterboxInBreaks: 1
WidescreenStoryboard: 1

[Editor]
DistanceSpacing: 1
BeatDivisor: 4
GridSize: 8

[Metadata]
Title:Calamity Fortune
TitleUnicode:Calamity Fortune
Artist:LeaF
ArtistUnicode:LeaF
Creator:Krah
Version:Cup
Source:Touhou
Tags:少女が見た日本の原風景 The Primal Scene of Japan the Girl Saw TH10 Mountain of Faith Kochiya Sanae BMS Event CLSW
BeatmapID:296914
BeatmapSetID:114741

[Difficulty]
HPDrainRate:3
CircleSize:3
OverallDifficulty:6
ApproachRate:6
SliderMultiplier:1.2
SliderTickRate:1

[Events]
//Background and Video events
0,0,"bg.jpg",0,0
//Break Periods
2,47085,50635
2,81585,85435
//Storyboard Layer 0 (Background)
//Storyboard Layer 1 (Fail)
//Storyboard Layer 2 (Pass)
//Storyboard Layer 3 (Foreground)
//Storyboard Sound Samples
//Background Colour Transformations
3,100,163,162,255

[TimingPoints]
1285,300,4,1,1,65,1,0
12085,-100,4,1,1,75,0,0
27685,-100,4,1,1,90,0,1
34885,-100,4,1,1,80,0,0
37285,-100,4,1,1,70,0,0
42085,-100,4,1,1,60,0,0
51685,-100,4,1,1,80,0,0
56185,-100,4,1,1,75,0,0
102085,-100,4,1,1,90,0,1
110485,-100,4,1,1,70,0,0
111685,-100,4,1,1,90,0,1
121285,-100,4,1,1,60,0,0
122485,-100,4,1,1,40,0,0
126085,-100,4,1,1,60,0,0
128485,-100,4,1,1,70,0,0
134485,-100,4,1,1,30,0,0

[Colours]
Combo1 : 88,190,228
Combo2 : 252,131,222
Combo3 : 192,198,233
Combo4 : 186,37,104

[HitObjects]
256,192,1285,1,0,0:0:0:0:
80,192,1885,1,0,0:0:0:0:
168,192,2485,2,0,L|256:280,3,120,4|8|0|8,0:0|0:0|0:0|0:0,0:0:0:0:
256,192,3685,5,0,0:0:0:0:
256,192,3985,1,0,0:0:0:0:
432,192,4585,1,2,0:0:0:0:
344,192,4885,6,0,L|256:280,2,120,4|8|0,0:0|0:0|0:0,0:0:0:0:
256,192,5785,1,8,0:0:0:0:
152,192,6085,5,4,0:0:0:0:
344,192,6385,1,0,0:0:0:0:
184,192,6685,2,0,L|80:280,1,120
296,192,7285,6,0,L|392:272,3,120,0|0|0|8,0:0|0:0|0:0|0:0,0:0:0:0:
392,272,8485,2,0,L|484:195,3,120,4|8|0|8,0:0|0:0|0:0|0:0,0:0:0:0:
384,192,9685,5,4,0:0:0:0:
128,192,10285,1,0,0:0:0:0:
320,192,10885,6,4,L|368:256,2,60,4|0|0,0:0|0:0|0:0,0:0:0:0:
256,192,11485,1,4,0:0:0:0:
112,240,12085,6,0,B|192:240|192:240|152:354|272:240,1,240,4|2,0:0|0:0,0:0:0:0:
400,240,13285,2,0,B|320:240|320:240|359:354|240:240,1,240,0|2,0:0|0:0,0:0:0:0:
256,72,14485,2,0,B|288:128|288:128|224:176|224:176|256:272,1,240,0|0,0:0|0:0,0:0:0:0:
456,192,15685,5,0,0:0:0:0:
328,192,15985,1,8,0:0:0:0:
328,304,16285,2,0,L|216:360,1,120,0|8,0:0|0:0,0:0:0:0:
56,192,16885,5,0,0:0:0:0:
184,192,17185,1,8,0:0:0:0:
184,304,17485,2,0,L|296:360,1,120,0|8,0:0|0:0,0:0:0:0:
328,192,18085,5,0,0:0:0:0:
184,192,18385,1,8,0:0:0:0:
328,192,18685,2,0,L|384:312,1,120,0|8,0:0|0:0,0:0:0:0:
184,192,19285,5,0,0:0:0:0:
328,192,19585,1,8,0:0:0:0:
184,192,19885,2,0,L|96:296,3,120
256,288,21085,6,0,L|344:192,1,120,0|8,0:0|0:0,0:0:0:0:
256,192,21685,12,2,23785,0:0:0:0:
256,192,24085,12,2,26185,0:0:0:0:
256,72,27685,6,0,L|480:240,1,240,4|0,0:0|0:0,0:0:0:0:
352,144,28585,1,8,0:0:0:0:
256,72,28885,2,0,L|32:240,1,240,0|0,0:0|0:0,0:0:0:0:
160,144,29785,1,8,0:0:0:0:
256,112,30085,2,0,B|224:192|224:192|288:192|288:192|248:304,1,240,4|0,0:0|0:0,0:0:0:0:
496,192,31285,5,0,0:0:0:0:
376,192,31585,1,8,0:0:0:0:
256,192,31885,1,0,0:0:0:0:
16,192,32485,2,0,L|120:272,2,120,0|8|0,0:0|0:0|0:0,0:0:0:0:
168,192,33685,6,0,L|264:280,1,120,0|8,0:0|0:0,0:0:0:0:
376,272,34285,1,0,0:0:0:0:
496,272,34585,1,8,0:0:0:0:
408,152,34885,6,0,L|294:188,3,120
160,192,36085,6,4,L|103:211,2,60,0|0|4,0:0|0:0|0:0,0:0:0:0:
352,192,36685,1,4,0:0:0:0:
256,192,37285,6,0,B|344:112|344:112|448:208,2,240
168,192,38785,1,0,0:0:0:0:
120,192,38935,1,0,0:0:0:0:
80,192,39085,1,2,0:0:0:0:
168,192,39385,1,2,0:0:0:0:
256,192,39685,6,0,B|168:112|168:112|64:208,2,240
392,192,41185,5,0,0:0:0:0:
280,192,41485,1,4,0:0:0:0:
224,192,41635,1,0,0:0:0:0:
168,192,41785,1,8,0:0:0:0:
96,192,41935,1,0,0:0:0:0:
32,192,42085,5,0,0:0:0:0:
144,192,42685,1,0,0:0:0:0:
32,192,43285,2,0,L|160:136,1,120,8|8,0:0|0:0,0:0:0:0:
144,272,43885,2,0,L|264:216,1,120,8|8,0:0|0:0,0:0:0:0:
368,224,44485,2,0,P|440:144|352:64,1,240
272,160,45685,5,8,0:0:0:0:
200,160,45985,1,0,0:0:0:0:
128,160,46285,1,8,0:0:0:0:
72,160,46585,1,4,0:0:0:0:
144,120,46735,1,0,0:0:0:0:
216,88,46885,5,4,0:0:0:0:
80,192,51685,5,4,0:0:0:0:
368,192,52885,5,4,0:0:0:0:
144,192,54085,5,4,0:0:0:0:
336,192,54685,1,0,0:0:0:0:
96,192,55285,5,12,0:0:0:0:
256,192,55585,1,4,0:0:0:0:
416,192,55885,2,0,P|456:208|408:240,1,120,4|8,0:0|0:0,0:0:0:0:
208,192,57685,6,0,B|88:192|88:192|176:312,1,240,4|0,0:0|0:0,0:0:0:0:
304,192,58885,2,0,B|424:192|424:192|336:312,1,240,4|0,0:0|0:0,0:0:0:0:
128,192,60085,6,0,L|248:192,2,120,0|8|0,0:0|0:0|0:0,0:0:0:0:
288,192,60985,2,0,B|411:238|411:238|411:190,2,180,8|0|0,0:0|0:0|0:0,0:0:0:0:
224,168,62485,6,0,B|304:168|200:320|464:168,1,240
288,168,63685,2,0,B|208:168|312:320|48:168,1,240
392,192,64885,6,0,L|272:192,2,120,0|8|0,0:0|0:0|0:0,0:0:0:0:
248,192,65785,2,0,B|125:239|125:239|125:191,2,180,8|0|8,0:0|0:0|0:0,0:0:0:0:
144,192,67285,6,0,B|192:192|192:192|192:272,3,120,12|8|0|8,0:0|0:0|0:0|0:0,0:0:0:0:
320,264,68485,2,0,B|320:192|320:192|368:192,3,120,0|8|0|8,0:0|0:0|0:0|0:0,0:0:0:0:
208,136,69685,2,0,B|256:104|256:104|312:136,3,120,0|8|0|8,0:0|0:0|0:0|0:0,0:0:0:0:
480,88,70885,6,0,B|424:72|424:72|360:368,1,360
248,192,72085,2,0,L|152:288,3,120,4|8|0|8,0:0|0:0|0:0|0:0,0:0:0:0:
88,192,73285,6,0,L|0:280,3,120,0|8|0|8,0:0|0:0|0:0|0:0,0:0:0:0:
168,280,74485,2,0,L|80:184,1,120,0|8,0:0|0:0,0:0:0:0:
400,192,75535,5,4,0:0:0:0:
256,192,75835,1,4,0:0:0:0:
312,192,76135,1,0,0:0:0:0:
256,192,76285,1,4,0:0:0:0:
32,192,76885,6,0,B|88:192|88:192|88:264|88:264|160:264|160:264|160:168,1,240,4|0,0:0|0:0,0:0:0:0:
288,224,77785,2,0,L|416:288,2,120,8|0|8,0:0|0:0|0:0,0:0:0:0:
448,192,78685,1,2,0:0:0:0:
320,192,78985,1,0,0:0:0:0:
146,246,79285,6,0,P|190:206|248:192,1,120,0|8,0:0|0:0,0:0:0:0:
344,256,79885,2,0,P|388:216|445:201,2,120,0|8|0,0:0|0:0|0:0,0:0:0:0:
400,192,80785,5,0,0:0:0:0:
240,192,81085,1,8,0:0:0:0:
152,192,81235,1,0,0:0:0:0:
64,192,81385,1,12,0:0:0:0:
296,192,86485,5,4,0:0:0:0:
488,192,86785,1,4,0:0:0:0:
400,192,87085,1,8,0:0:0:0:
352,192,87235,1,0,0:0:0:0:
296,192,87385,1,8,0:0:0:0:
168,192,87685,6,4,P|272:232|296:368,2,240,0|0|4,0:0|0:0|0:0,0:0:0:0:
40,192,89485,5,0,0:0:0:0:
112,192,90085,1,0,0:0:0:0:
280,192,90685,1,0,0:0:0:0:
216,192,91285,1,0,0:0:0:0:
384,192,91585,5,8,0:0:0:0:
472,192,91885,2,0,L|356:135,1,120
208,136,92485,1,0,0:0:0:0:
256,192,93385,1,2,0:0:0:0:
120,216,93685,6,4,L|256:248,3,120
392,216,94885,2,4,L|256:248,3,120
72,192,96085,6,0,L|216:176,1,120,0|8,0:0|0:0,0:0:0:0:
320,192,96685,2,0,L|448:176,1,120,4|8,0:0|0:0,0:0:0:0:
256,152,97285,6,0,B|96:216|96:216|264:320,1,360,4|0,0:0|0:0,0:0:0:0:
352,192,98485,1,0,0:0:0:0:
480,192,98785,1,0,0:0:0:0:
352,192,99085,1,0,0:0:0:0:
304,104,99685,5,0,0:0:0:0:
144,96,99985,2,0,B|248:160,1,120,8|0,0:0|0:0,0:0:0:0:
88,96,100585,2,0,B|192:160,1,120
256,192,101485,1,0,0:0:0:0:
32,192,102085,5,4,0:0:0:0:
184,192,102385,2,0,L|88:264,2,120,8|0|8,0:0|0:0|0:0,0:0:0:0:
184,192,103285,5,0,0:0:0:0:
336,192,103585,2,0,L|240:264,2,120,8|0|8,0:0|0:0|0:0,0:0:0:0:
336,192,104485,5,0,0:0:0:0:
488,192,104785,2,0,L|392:264,2,120,8|0|8,0:0|0:0|0:0,0:0:0:0:
360,192,105685,6,0,L|256:256,1,120,4|0,0:0|0:0,0:0:0:0:
152,192,106285,2,0,L|256:256,1,120,4|0,0:0|0:0,0:0:0:0:
32,192,106885,5,4,0:0:0:0:
184,192,107185,2,0,L|88:264,2,120,8|0|8,0:0|0:0|0:0,0:0:0:0:
184,192,108085,5,4,0:0:0:0:
336,192,108385,2,0,L|240:264,2,120,8|0|8,0:0|0:0|0:0,0:0:0:0:
336,192,109285,5,4,0:0:0:0:
488,192,109585,2,0,L|392:264,2,120,8|0|8,0:0|0:0|0:0,0:0:0:0:
256,192,110485,12,0,111385,0:0:0:0:
256,192,111685,5,12,0:0:0:0:
352,192,111985,2,0,P|421:198|384:240,2,120,8|0|8,0:0|0:0|0:0,0:0:0:0:
256,192,112885,5,4,0:0:0:0:
160,192,113185,2,0,P|90:198|128:240,2,120,8|0|8,0:0|0:0|0:0,0:0:0:0:
256,192,114085,5,4,0:0:0:0:
376,248,114385,1,8,0:0:0:0:
256,272,114685,1,0,0:0:0:0:
136,248,114985,1,8,0:0:0:0:
96,192,115285,6,0,P|144:168|208:200,1,120
320,192,115885,2,0,P|368:168|432:200,1,120
256,192,116485,5,4,0:0:0:0:
152,192,116785,2,0,P|83:198|120:240,2,120,8|0|8,0:0|0:0|0:0,0:0:0:0:
256,192,117685,5,4,0:0:0:0:
352,192,117985,2,0,P|422:198|384:240,2,120,8|0|8,0:0|0:0|0:0,0:0:0:0:
256,192,118885,5,4,0:0:0:0:
392,192,119185,1,0,0:0:0:0:
256,248,119485,1,0,0:0:0:0:
120,192,119785,1,0,0:0:0:0:
200,64,120085,5,4,0:0:0:0:
248,64,120235,1,0,0:0:0:0:
248,128,120385,1,8,0:0:0:0:
296,128,120535,1,0,0:0:0:0:
352,192,120685,1,0,0:0:0:0:
296,192,120835,1,0,0:0:0:0:
216,256,120985,1,10,0:0:0:0:
40,192,121285,6,0,P|128:136|240:192,1,240,4|2,0:0|0:0,0:0:0:0:
184,192,122485,2,0,P|272:136|384:192,1,240,0|2,0:0|0:0,0:0:0:0:
320,192,123685,2,0,P|411:135|520:192,1,240,0|2,0:0|0:0,0:0:0:0:
296,192,124885,5,0,0:0:0:0:
96,192,125485,1,2,0:0:0:0:
384,192,126085,6,0,B|312:129|312:129|256:152|256:152|320:224,1,240,0|2,0:0|0:0,0:0:0:0:
128,192,127285,2,0,B|199:129|199:129|256:152|256:152|192:224,1,240,0|2,0:0|0:0,0:0:0:0:
256,64,128485,5,4,0:0:0:0:
224,112,128635,1,0,0:0:0:0:
256,160,128785,1,8,0:0:0:0:
288,112,128935,1,0,0:0:0:0:
256,64,129085,1,8,0:0:0:0:
224,112,129235,1,0,0:0:0:0:
256,160,129385,1,8,0:0:0:0:
288,112,129535,1,0,0:0:0:0:
256,64,129685,1,8,0:0:0:0:
224,112,129835,1,0,0:0:0:0:
256,160,129985,1,8,0:0:0:0:
288,112,130135,1,0,0:0:0:0:
256,160,130285,6,0,L|256:32,1,120,8|0,0:0|0:0,0:0:0:0:
256,192,130885,12,0,134485,0:0:0:0:
