osu file format v12

[General]
AudioFilename: calamity_fortune_1280x720.mp3
AudioLeadIn: 0
PreviewTime: 102065
Countdown: 0
SampleSet: Soft
StackLeniency: 0.7
Mode: 0
LetterboxInBreaks: 0

[Editor]
Bookmarks: 25590
DistanceSpacing: 1
BeatDivisor: 4
GridSize: 4

[Metadata]
Title:Calamity Fortune
TitleUnicode:Calamity Fortune
Artist:LeaF
ArtistUnicode:LeaF
Creator:Flower
Version:Yukari x Flower
Source:Touhou
Tags:少女が見た日本の原風景 The Primal Scene of Japan the Girl Saw TH10 Mountain of Faith Kochiya Sanae BMS Event Touhou Ondan Yuugi 5 Sagisawa-Yukari HelloSCV UnitedWeSin TKSalt
BeatmapID:260349
BeatmapSetID:96103

[Difficulty]
HPDrainRate:3
CircleSize:4
OverallDifficulty:4
ApproachRate:5
SliderMultiplier:0.8
SliderTickRate:1

[Events]
//Background and Video events
0,0,"bg1.jpg",0,0
Video,-65,"bgvideo.avi"
//Break Periods
2,47090,50490
2,89090,92490
//Storyboard Layer 0 (Background)
//Storyboard Layer 1 (Fail)
//Storyboard Layer 2 (Pass)
//Storyboard Layer 3 (Foreground)
//Storyboard Sound Samples
//Background Colour Transformations
3,100,163,162,255

[TimingPoints]
1290,300,4,2,1,70,1,0
51690,-100,4,1,1,70,0,0
57690,-100,4,2,1,70,0,0
97590,-100,4,2,1,50,0,0
98190,-100,4,2,1,70,0,0
102090,-100,4,2,1,70,0,1
111540,-100,4,2,1,70,0,0
111690,-100,4,2,1,70,0,1
121290,-100,4,2,1,60,0,0
134490,-100,4,2,1,30,0,0

[Colours]
Combo1 : 151,136,238
Combo2 : 0,236,23
Combo3 : 91,255,165
Combo4 : 15,115,225

[HitObjects]
88,48,2490,2,0,L|128:120,1,80,4|8,1:0|0:0,0:0:0:0:
204,96,3090,2,0,L|244:168,1,80,0|8,1:0|0:0,0:0:0:0:
269,241,3690,2,0,P|314:200|318:144,2,120,2|0|0,0:0|0:0|0:0,0:0:0:0:
203,286,4890,6,0,L|164:216,1,80,4|8,1:0|0:0,0:0:0:0:
86,236,5490,2,0,L|47:166,1,80,0|8,0:0|0:0,0:0:0:0:
74,91,6090,2,0,P|114:45|170:41,2,120,2|0|8,0:0|0:0|0:0,0:0:0:0:
149,118,7290,6,0,L|189:190,1,80,4|8,1:0|0:0,0:0:0:0:
265,170,7890,2,0,L|305:242,1,80,0|8,1:0|0:0,0:0:0:0:
354,301,8490,6,0,L|394:229,1,80,0|8,1:0|0:0,0:0:0:0:
471,247,9090,2,0,L|511:175,1,80,0|8,0:0|0:0,0:0:0:0:
504,100,9690,6,0,B|468:104|448:132|448:132|396:36,1,160,4|4,0:0|0:0,0:0:0:0:
328,28,10590,1,2,0:0:0:0:
344,108,10890,6,0,B|384:184|384:184|344:200|336:244,1,160,2|4,0:0|0:0,0:0:0:0:
416,260,11790,1,0,1:0:0:0:
360,320,12090,6,0,P|392:340|440:340,2,80,4|0|0,1:0|0:0|0:0,0:0:0:0:
280,304,12990,1,8,0:0:0:0:
208,340,13290,2,0,B|148:340|148:340|112:332|100:296,2,120,0|2|8,1:0|0:0|0:0,0:0:0:0:
208,260,14490,6,0,L|164:184,1,80,0|8,1:0|0:0,0:0:0:0:
92,220,15090,2,0,L|53:150,1,80,0|0,0:0|0:0,0:0:0:0:
96,80,15690,6,0,P|136:83|179:71,1,80,0|8,1:0|0:0,0:0:0:0:
246,39,16290,1,0,1:0:0:0:
313,184,16890,6,0,B|389:184|389:184|405:140|449:128,1,160,4|0,1:0|1:0,0:0:0:0:
468,208,17790,1,8,0:0:0:0:
404,260,18090,2,0,P|441:286|512:274,2,120,0|0|8,1:0|1:0|0:0,0:0:0:0:
324,260,19290,6,0,B|248:260|248:260|236:308|188:320,1,160,0|0,1:0|1:0,0:0:0:0:
168,244,20190,1,8,0:0:0:0:
108,297,20490,6,0,L|40:361,1,80,0|8,1:0|0:0,0:0:0:0:
15,279,21090,2,0,L|83:215,1,80,2|8,0:0|0:0,0:0:0:0:
133,171,21690,6,0,P|177:159|213:171,1,80,4|8,1:0|0:0,0:0:0:0:
288,168,22290,2,0,L|288:104,2,60,0|0|4,1:0|1:0|0:0,0:0:0:0:
252,240,23040,1,0,0:0:0:0:
252,240,23190,2,0,P|292:248|332:236,1,80,8|0,0:0|1:0,0:0:0:0:
360,212,23640,1,8,0:0:0:0:
428,112,24090,6,0,L|428:32,1,80,4|8,1:0|0:0,0:0:0:0:
348,48,24690,2,0,L|288:48,2,60,0|0|0,1:0|1:0|1:0,0:0:0:0:
348,128,25440,1,0,1:0:0:0:
348,128,25590,2,0,L|268:128,1,80,8|0,0:0|1:0,0:0:0:0:
188,128,26190,1,0,0:0:0:0:
120,168,26490,6,0,B|126:174|126:174|118:182|118:182|126:190|126:190|118:198|118:198|126:206|126:206|118:214|118:214|126:222|126:222|118:230|118:230|126:238|126:238|118:246|118:246|126:254|126:254|118:262|118:262|126:270|126:270|118:277|118:277|127:286|127:286|118:293|118:293|127:302|127:302|118:308|118:308|127:315|127:315|118:322|118:322|127:329|127:329|118:336,1,240,0|2,0:0|0:0,0:0:0:0:
204,340,27690,6,0,P|288:368|356:336,1,160,4|0,1:0|1:0,0:0:0:0:
304,276,28590,1,8,0:0:0:0:
384,264,28890,2,0,L|404:176,1,80,0|8,1:0|0:0,0:0:0:0:
348,124,29490,1,0,1:0:0:0:
424,96,29790,1,8,0:0:0:0:
356,44,30090,6,0,P|274:32|197:69,1,160,0|0,1:0|1:0,0:0:0:0:
160,128,30990,1,8,0:0:0:0:
208,192,31290,2,0,P|280:220|364:200,1,160,0|0,1:0|1:0,0:0:0:0:
420,152,32190,1,8,0:0:0:0:
452,224,32490,6,0,L|492:308,1,80,4|8,1:0|0:0,0:0:0:0:
428,352,33090,2,0,L|388:268,1,80,0|8,1:0|0:0,0:0:0:0:
360,208,33690,1,0,1:0:0:0:
280,192,33990,1,8,0:0:0:0:
228,252,34290,2,0,P|237:309|261:333,1,80,0|8,1:0|0:0,0:0:0:0:
304,268,34890,6,0,B|344:280|376:244|376:244|424:252|456:216,1,160,4|0,1:0|1:0,0:0:0:0:
396,164,35790,1,2,0:0:0:0:
440,96,36090,6,0,L|488:96,2,40,0|0|2,1:0|1:0|0:0,0:0:0:0:
360,92,36690,1,0,1:0:0:0:
360,92,36990,1,0,1:0:0:0:
292,52,37290,6,0,B|276:92|292:128|292:128|260:164|216:144|216:144|212:108|180:72,1,240,4|8,1:0|0:0,0:0:0:0:
104,88,38490,2,0,L|104:8,2,80,0|0|0,1:0|1:0|1:0,0:0:0:0:
48,148,39390,1,0,0:0:0:0:
128,164,39690,6,0,B|116:208|76:224|76:224|88:256|136:264|136:264|120:308|144:344,1,240,4|8,1:0|0:0,0:0:0:0:
209,297,40890,2,0,L|301:297,1,80,0|0,1:0|1:0,0:0:0:0:
356,340,41490,2,0,B|392:340|392:340|398:337|398:337|404:342|404:342|410:337|410:337|416:342|416:342|422:337|422:337|428:342|428:342|434:337|434:337|440:342|440:342|446:337|446:337|452:342|452:342|458:340|458:340|470:340,1,120,0|0,1:0|1:0,0:0:0:0:
480,308,42090,6,0,L|432:240,1,80,4|8,1:0|0:0,0:0:0:0:
476,176,42690,2,0,L|428:108,1,80,0|8,1:0|0:0,0:0:0:0:
356,76,43290,5,0,1:0:0:0:
284,112,43590,1,0,1:0:0:0:
212,76,43890,1,0,1:0:0:0:
140,112,44190,1,0,1:2:0:0:
256,192,44490,12,4,46890,1:0:0:0:
104,68,51690,5,4,1:0:0:0:
24,204,52290,2,0,P|72:228|176:204,1,160,0|4,1:0|1:0,0:0:0:0:
284,92,53490,6,0,P|309:68|353:59,1,80,0|0,1:0|1:0,0:0:0:0:
432,64,54090,2,0,P|472:84|491:112,2,80,4|0|4,0:0|0:0|0:0,0:0:0:0:
416,144,54990,1,0,0:0:0:0:
464,208,55290,6,0,B|480:252|452:284|452:284|408:292|392:332,1,160,4|0,0:0|0:0,0:0:0:0:
464,364,56190,1,4,0:0:0:0:
272,64,57690,6,0,B|285:72|285:72|293:64|293:64|301:72|301:72|309:64|309:64|317:72|317:72|325:64|325:64|333:72|333:72|341:64|341:64|349:72|349:72|357:64|357:64|365:72|365:72|373:64|373:64|381:72|381:72|388:64|388:64|396:72|396:72|404:64|404:64|412:72|412:72|420:64|420:64|428:72|428:72|436:64|436:64|444:72|444:72|452:64,1,240,4|8,1:0|0:0,0:0:0:0:
412,144,58890,2,0,B|398:152|398:152|390:144|390:144|382:152|382:152|374:144|374:144|366:152|366:152|358:144|358:144|350:152|350:152|342:144|342:144|334:152|334:152|326:144|326:144|318:152|318:152|310:144|310:144|302:152|302:152|296:144|296:144|288:152|288:152|280:144|280:144|272:152|272:152|264:144|264:144|256:152|256:152|248:144|248:144|240:152|240:152|232:144,1,240,0|8,0:0|0:0,0:0:0:0:
208,224,60090,2,0,B|221:232|221:232|229:224|229:224|237:232|237:232|245:224|245:224|253:232|253:232|261:224|261:224|269:232|269:232|277:224|277:224|285:232|285:232|293:224|293:224|301:232|301:232|309:224|309:224|317:232|317:232|324:224|324:224|332:232|332:232|340:224|340:224|348:232|348:232|356:224|356:224|364:232|364:232|372:224|372:224|380:232|380:232|388:224,1,240,0|8,1:0|0:0,0:0:0:0:
408,304,61290,6,0,P|370:313|320:300,1,80,0|2,1:0|0:0,0:0:0:0:
252,316,61890,2,0,P|212:307|174:317,1,80,0|8,1:0|0:0,0:0:0:0:
96,308,62490,6,0,B|88:294|88:294|96:286|96:286|88:278|88:278|96:270|96:270|88:262|88:262|96:254|96:254|88:246|88:246|96:238|96:238|88:230|88:230|96:222|96:222|88:214|88:214|96:206|96:206|88:198|88:198|96:192|96:192|88:184|88:184|96:176|96:176|88:168|88:168|96:160|96:160|88:152|88:152|96:144|96:144|88:136|88:136|96:128,1,240,0|8,1:0|0:0,0:0:0:0:
164,108,63690,2,0,B|172:122|172:122|164:130|164:130|172:138|172:138|164:146|164:146|172:154|172:154|164:162|164:162|172:170|172:170|164:178|164:178|172:186|172:186|164:194|164:194|172:202|172:202|164:210|164:210|172:218|172:218|164:224|164:224|172:232|172:232|164:240|164:240|172:248|172:248|164:256|164:256|172:264|172:264|164:272|164:272|172:280|172:280|164:288,1,240,0|8,1:0|0:0,0:0:0:0:
248,264,64890,2,0,B|240:250|240:250|248:242|248:242|240:234|240:234|248:226|248:226|240:218|240:218|248:210|248:210|240:202|240:202|248:194|248:194|240:186|240:186|248:178|248:178|240:170|240:170|248:162|248:162|240:154|240:154|248:148|248:148|240:140|240:140|248:132|248:132|240:124|240:124|248:116|248:116|240:108|240:108|248:100|248:100|240:92|240:92|248:84,1,240,0|8,1:0|0:0,0:0:0:0:
316,68,66090,6,0,P|352:60|396:68,1,80,0|2,1:0|0:0,0:0:0:0:
436,136,66690,2,0,P|400:144|356:136,1,80,2|8,0:0|0:0,0:0:0:0:
296,188,67290,6,0,L|176:188,2,120,0|0|8,1:0|1:0|0:0,0:0:0:0:
260,260,68490,2,0,L|140:260,2,120,0|0|8,1:0|1:0|0:0,0:0:0:0:
232,336,69690,2,0,L|112:336,2,120,0|0|8,1:0|1:0|0:0,0:0:0:0:
312,340,70890,6,0,P|352:352|396:336,1,80,0|2,1:0|0:0,0:0:0:0:
468,332,71490,2,0,L|496:372,2,40,0|0|8,1:0|1:0|0:0,0:0:0:0:
424,264,72090,6,0,L|424:144,2,120,4|0|8,1:0|1:0|0:0,0:0:0:0:
348,240,73290,2,0,L|348:120,2,120,0|0|8,1:0|1:0|0:0,0:0:0:0:
272,212,74490,6,0,L|272:124,1,80,0|2,1:0|1:2,0:0:0:0:
208,84,75090,2,0,L|208:36,2,40,0|2|0,1:0|1:2|1:0,0:0:0:0:
184,116,75540,5,0,1:0:0:0:
116,72,75840,1,0,1:0:0:0:
52,120,76140,2,0,L|52:164,1,40,0|0,1:0|1:0,0:0:0:0:
84,184,76440,2,0,L|84:228,1,40,4|0,1:2|1:0,0:0:0:0:
28,280,76890,6,0,B|56:312|100:304|100:304|124:344|168:344,1,160,4|0,1:0|1:0,0:0:0:0:
172,264,77790,1,8,0:0:0:0:
236,312,78090,5,0,1:0:0:0:
308,280,78390,1,0,1:0:0:0:
376,240,78690,1,0,1:0:0:0:
444,196,78990,1,0,0:0:0:0:
392,136,79290,6,0,P|356:120|308:120,1,80,4|8,1:0|0:0,0:0:0:0:
256,172,79890,2,0,P|220:188|172:188,1,80,0|8,1:0|0:0,0:0:0:0:
112,148,80490,5,0,1:0:0:0:
112,148,80790,1,0,1:0:0:0:
44,192,81090,2,0,L|4:192,2,40,0|8|8,1:0|0:0|0:0,0:0:0:0:
112,232,81690,6,0,L|188:276,1,80,4|8,1:0|0:0,0:0:0:0:
116,320,82290,2,0,L|192:364,1,80,0|8,1:0|0:0,0:0:0:0:
252,316,82890,6,0,L|322:275,1,80,0|8,1:0|0:0,0:0:0:0:
336,356,83490,2,0,L|406:315,1,80,0|8,1:0|0:0,0:0:0:0:
476,276,84090,6,0,P|496:228|474:166,2,120,0|0|8,1:0|1:0|0:0,0:0:0:0:
420,220,85290,2,0,P|399:172|421:110,2,120,0|0|8,1:0|1:0|0:0,0:0:0:0:
344,248,86490,6,0,L|264:248,1,80,4|2,1:0|0:0,0:0:0:0:
196,292,87090,2,0,L|116:292,1,80,0|8,1:0|0:0,0:0:0:0:
256,192,87690,12,0,88890,0:0:0:0:
256,68,93690,6,0,L|336:68,2,80,4|8|0,1:0|0:0|1:0,0:0:0:0:
176,68,94590,1,2,0:0:0:0:
124,128,94890,6,0,P|100:88|100:48,2,80,4|8|0,1:0|0:0|1:0,0:0:0:0:
204,144,95790,1,2,0:0:0:0:
152,204,96090,6,0,L|104:272,1,80,0|0,1:0|1:0,0:0:0:0:
152,336,96690,2,0,L|198:270,1,80,0|0,1:0|1:0,0:0:0:0:
236,200,97290,6,0,B|272:220|280:260|280:260|316:292|356:280|356:280|368:236|408:224,1,240,0|0,1:0|1:0,0:0:0:0:
436,300,98490,5,2,0:0:0:0:
488,240,98790,2,0,B|482:234|482:234|490:226|490:226|482:218|482:218|490:210|490:210|482:202|482:202|490:194|490:194|482:186|482:186|490:178|490:178|482:170|482:170|490:162|490:162|482:154|482:154|490:146|490:146|482:138|482:138|488:116,1,160,0|0,0:0|0:0,0:0:0:0:
256,192,99690,12,0,101490,0:0:0:0:
392,192,102090,6,0,P|412:176|432:88,2,120,4|2|8,1:0|0:0|0:0,0:0:0:0:
312,192,103290,2,0,P|292:208|272:296,2,120,0|2|8,1:0|0:0|0:0,0:0:0:0:
356,128,104490,6,0,B|320:108|280:124|280:124|240:108|200:128,1,160,0|0,1:0|1:0,0:0:0:0:
120,128,105390,1,8,0:0:0:0:
152,56,105690,6,0,P|80:60|38:135,1,160,0|0,1:0|1:0,0:0:0:0:
80,196,106590,1,12,0:0:0:0:
20,248,106890,6,0,P|3:309|20:364,2,120,4|2|8,1:0|2:0|2:0,0:0:0:0:
96,272,108090,2,0,P|124:327|177:353,2,120,0|2|8,1:0|2:0|2:0,0:0:0:0:
164,228,109290,6,0,P|176:176|276:144,1,160,0|0,1:0|1:0,0:0:0:0:
244,220,110190,1,8,0:0:0:0:
324,208,110490,6,0,L|416:192,1,80,0|8,1:0|0:0,0:0:0:0:
364,124,111090,2,0,L|456:108,1,80,0|8,1:0|0:0,0:0:0:0:
480,180,111690,6,0,P|496:228|464:288,1,120,4|2,1:0|0:0,0:0:0:0:
428,296,112290,2,0,L|336:296,1,80,0|8,1:0|0:0,0:0:0:0:
300,360,112890,6,0,P|272:320|288:244,1,120,0|2,1:0|0:0,0:0:0:0:
280,212,113490,2,0,L|280:128,1,80,0|8,1:0|0:0,0:0:0:0:
352,100,114090,6,0,P|320:64|248:60,1,120,0|2,1:0|0:0,0:0:0:0:
212,60,114690,2,0,L|128:60,1,80,0|8,1:0|0:0,0:0:0:0:
52,76,115290,6,0,P|40:116|49:156,1,80,0|8,1:0|0:0,0:0:0:0:
124,176,115890,2,0,P|135:216|127:252,1,80,0|0,1:0|0:0,0:0:0:0:
52,280,116490,6,0,P|80:320|160:328,1,120,4|2,1:0|0:0,0:0:0:0:
184,324,117090,2,0,L|264:324,1,80,0|0,0:0|0:0,0:0:0:0:
276,244,117690,6,0,P|324:268|344:332,1,120,4|2,1:0|0:0,0:0:0:0:
384,336,118290,2,0,L|468:336,1,80,0|0,0:0|0:0,0:0:0:0:
504,268,118890,6,0,P|464:240|456:172,1,120,4|2,1:0|0:0,0:0:0:0:
436,136,119490,1,0,1:0:0:0:
364,172,119790,1,8,0:0:0:0:
296,128,120090,6,0,L|223:86,1,80,0|8,1:0|0:0,0:0:0:0:
200,164,120690,2,0,L|127:122,1,80,0|10,1:0|0:0,0:0:0:0:
140,44,121290,6,0,P|55:101|113:203,1,240,4|0,0:0|0:0,0:0:0:0:
176,252,122490,2,0,B|240:268|256:332|256:332|272:268|336:252,1,240,2|0,0:0|0:0,0:0:0:0:
399,203,123690,2,0,P|456:101|372:44,1,240,2|0,0:0|0:0,0:0:0:0:
376,124,124890,6,0,P|332:144|296:140,1,80,2|2,0:0|0:0,0:0:0:0:
224,120,125490,2,0,P|193:117|149:137,1,80,2|2,0:0|0:0,0:0:0:0:
124,212,126090,6,0,L|0:212,2,120,4|2|0,0:0|0:0|0:0,0:0:0:0:
188,260,127290,2,0,L|312:260,2,120,4|2|0,0:0|0:0|0:0,0:0:0:0:
256,192,128490,12,4,130890,0:0:0:0:
256,192,131040,12,0,134490,0:0:0:0:
