osu file format v12

[General]
AudioFilename: calamity_fortune_1280x720.mp3
AudioLeadIn: 0
PreviewTime: 102065
Countdown: 0
SampleSet: Soft
StackLeniency: 0.7
Mode: 0
LetterboxInBreaks: 0

[Editor]
Bookmarks: 25590
DistanceSpacing: 1
BeatDivisor: 2
GridSize: 4

[Metadata]
Title:Calamity Fortune
TitleUnicode:Calamity Fortune
Artist:LeaF
ArtistUnicode:LeaF
Creator:Flower
Version:UWS's Easy
Source:Touhou
Tags:少女が見た日本の原風景 The Primal Scene of Japan the Girl Saw TH10 Mountain of Faith Kochiya Sanae BMS Event Touhou Ondan Yuugi 5 Sagisawa-Yukari HelloSCV UnitedWeSin TKSalt
BeatmapID:264228
BeatmapSetID:96103

[Difficulty]
HPDrainRate:2
CircleSize:3
OverallDifficulty:2
ApproachRate:3
SliderMultiplier:0.6
SliderTickRate:1

[Events]
//Background and Video events
0,0,"bg1.jpg",0,0
Video,-65,"bgvideo.avi"
//Break Periods
2,47090,50250
2,89090,92250
//Storyboard Layer 0 (Background)
//Storyboard Layer 1 (Fail)
//Storyboard Layer 2 (Pass)
//Storyboard Layer 3 (Foreground)
//Storyboard Sound Samples
//Background Colour Transformations
3,100,163,162,255

[TimingPoints]
1290,300,4,2,1,70,1,0
56490,-100,4,2,1,40,0,0
57690,-100,4,2,1,70,0,0
97590,-100,4,2,1,50,0,0
98190,-100,4,2,1,70,0,0
102090,-100,4,2,1,70,0,1
111540,-100,4,2,1,70,0,0
111690,-100,4,2,1,70,0,1
121290,-100,4,2,1,60,0,0
134490,-100,4,2,1,30,0,0

[Colours]
Combo1 : 151,136,238
Combo2 : 0,236,23
Combo3 : 91,255,165
Combo4 : 15,115,225

[HitObjects]
344,288,2490,5,4,0:1:0:0:
256,372,3090,1,0,1:0:0:0:
168,288,3690,2,0,P|105:283|43:302,2,120,2|0|0,0:0|0:0|0:1,0:0:0:0:
256,208,5490,1,0,1:0:0:0:
192,108,6090,2,0,L|128:104,2,60,2|2|2,0:0|0:0|0:0,0:0:0:0:
312,108,7290,6,0,P|368:96|424:64,1,120,4|0,0:1|1:0,0:0:0:0:
460,180,8490,2,0,P|404:194|350:229,1,120,4|0,0:1|1:0,0:0:0:0:
312,340,9690,2,0,B|256:364|256:364|200:340,1,120,4|0,0:0|0:0,0:0:0:0:
256,236,10890,5,2,1:2:0:0:
256,236,11190,1,2,1:2:0:0:
256,236,11490,1,8,1:2:0:0:
216,124,12090,6,0,B|202:85|202:85|135:34,1,120,4|0,0:1|1:0,0:0:0:0:
24,72,13290,2,0,B|36:109|36:109|103:160,1,120,4|0,0:1|1:0,0:0:0:0:
180,248,14490,2,0,P|170:310|136:358,2,120,4|0|8,0:1|1:0|0:0,0:0:0:0:
204,192,15990,1,2,0:0:0:0:
256,156,16290,1,0,1:0:0:0:
316,260,16890,6,0,P|373:293|430:302,1,120,4|0,0:1|1:0,0:0:0:0:
476,192,18090,2,0,L|461:68,1,120,4|0,0:1|1:0,0:0:0:0:
348,36,19290,1,4,0:1:0:0:
256,112,19890,1,0,1:0:0:0:
164,36,20490,2,0,P|131:28|96:32,2,60,8|0|0,0:0|0:0|1:0,0:0:0:0:
192,88,21390,1,2,0:0:0:0:
196,148,21690,6,0,B|196:190|154:227|154:227|196:265|196:310,2,180,4|0|2,0:0|0:0|0:0,0:0:0:0:
316,148,24090,2,0,B|314:190|356:227|356:227|314:265|314:310,2,180,2|0|2,0:1|0:0|0:0,0:0:0:0:
256,44,26490,2,0,L|196:44,1,60,2|0,0:0|0:0,0:0:0:0:
144,76,27090,2,0,L|84:76,1,60,2|0,0:0|0:0,0:0:0:0:
28,52,27690,6,0,L|18:176,1,120,4|0,0:1|1:0,0:0:0:0:
136,180,28890,2,0,L|155:304,1,120,4|0,0:1|1:0,0:0:0:0:
248,372,30090,2,0,B|310:376|310:376|358:333,2,120,4|0|8,0:1|1:0|0:0,0:0:0:0:
272,256,31890,1,0,1:0:0:0:
320,220,32190,1,2,0:0:0:0:
380,228,32490,6,0,P|430:200|459:148,1,120,4|0,0:1|1:0,0:0:0:0:
388,48,33690,2,0,P|328:56|284:95,1,120,4|0,0:1|1:0,0:0:0:0:
256,212,34890,2,0,B|232:268|280:268|256:344,2,120,4|0|4,0:0|0:0|1:0,0:0:0:0:
256,92,36690,1,4,1:0:0:0:
148,144,37290,6,0,B|88:152|88:152|32:135,1,120,4|0,0:1|0:0,0:0:0:0:
16,252,38490,2,0,B|11:303|11:303|20:312|20:312|16:368,2,120,0|2|4,1:1|0:0|0:1,0:0:0:0:
84,152,40290,1,0,1:0:0:0:
196,200,40890,1,2,0:0:0:0:
256,188,41190,1,0,0:0:0:0:
304,152,41490,2,0,P|352:190|376:245,1,120,8|4,0:0|0:1,0:0:0:0:
360,364,42690,5,0,1:0:0:0:
256,304,43290,2,0,L|256:240,2,60
256,192,44490,12,4,46890,0:1:0:0:
376,220,51690,5,4,0:0:0:0:
136,220,52890,1,2,0:0:0:0:
256,12,54090,1,2,0:0:0:0:
256,132,54690,1,2,0:0:0:0:
256,252,55290,2,0,L|256:376,2,120,6|2|0,1:1|1:1|0:0,0:0:0:0:
64,108,57690,6,0,B|50:165|50:165|59:226,1,120,4|0,0:1|1:0,0:0:0:0:
160,292,58890,2,0,B|173:234|173:234|164:173,1,120,4|0,0:1|1:0,0:0:0:0:
192,56,60090,1,4,0:1:0:0:
312,52,60690,1,0,1:0:0:0:
348,168,61290,1,2,0:0:0:0:
320,220,61590,1,2,0:0:0:0:
264,240,61890,1,2,0:0:0:0:
320,348,62490,6,0,P|368:371|432:367,1,120,4|0,0:1|1:0,0:0:0:0:
492,260,63690,2,0,B|507:202|507:202|496:139,1,120,4|0,0:1|1:0,0:0:0:0:
392,84,64890,2,0,B|292:76|292:76|248:93|248:93|147:84,1,240,4|2,0:1|0:0,0:0:0:0:
100,104,66390,1,2,0:0:0:0:
52,144,66690,1,2,0:0:0:0:
16,260,67290,6,0,L|29:383,2,120,4|0|4,0:1|1:0|0:1,0:0:0:0:
52,144,69090,1,0,1:0:0:0:
136,228,69690,2,0,P|193:242|260:228,1,120,4|0,0:1|1:0,0:0:0:0:
304,124,70890,1,2,0:0:0:0:
281,68,71190,1,2,0:0:0:0:
238,28,71490,1,2,0:0:0:0:
256,192,72090,12,0,75540,1:0:0:0:
256,64,76890,6,0,B|229:104|282:138|256:179,1,120,4|0,0:1|1:0,0:0:0:0:
256,300,78090,1,0,1:0:0:0:
256,300,78390,1,0,1:0:0:0:
256,300,78690,1,8,1:2:0:0:
136,288,79290,6,0,B|100:240|100:240|96:169,2,120,4|0|0,0:1|1:0|1:0,0:0:0:0:
256,300,81090,2,0,L|328:284,1,60,0|8,1:0|0:0,0:0:0:0:
372,304,81690,6,0,P|434:324|492:314,1,120,4|0,0:1|1:0,0:0:0:0:
488,196,82890,2,0,L|460:76,1,120,4|0,0:1|1:0,0:0:0:0:
360,16,84090,5,4,0:1:0:0:
256,72,84690,1,0,1:0:0:0:
152,16,85290,2,0,P|108:47|78:105,1,120,4|0,0:1|1:0,0:0:0:0:
76,164,86190,1,8,0:0:0:0:
96,224,86490,1,4,1:0:0:0:
256,192,86640,12,4,88890,0:1:0:0:
256,132,93690,6,0,B|238:191|238:191|195:235,1,120,4|0,0:1|1:0,0:0:0:0:
90,170,94890,2,0,B|105:113|105:113|149:69,1,120,4|0,0:1|1:0,0:0:0:0:
256,12,96090,1,4,0:1:0:0:
256,132,96690,1,0,1:0:0:0:
256,252,97290,2,0,L|256:376,2,120,4|2|4,0:1|1:0|0:0,0:0:0:0:
256,192,98640,12,0,100890,1:0:0:0:
188,92,102090,6,0,P|147:131|132:192,1,120,4|0,0:1|1:0,0:0:0:0:
240,248,103290,2,0,P|280:208|295:147,1,120,4|0,0:1|1:0,0:0:0:0:
380,64,104490,2,0,L|508:52,2,120,4|0|8,0:1|1:0|0:0,0:0:0:0:
296,148,106290,1,0,1:0:0:0:
240,164,106590,1,2,0:0:0:0:
184,148,106890,6,0,B|128:176|128:176|99:238,1,120,4|0,0:1|1:0,0:0:0:0:
144,344,108090,2,0,P|195:367|258:359,1,120,4|0,0:1|1:0,0:0:0:0:
316,256,109290,1,4,0:1:0:0:
256,152,109890,1,0,1:0:0:0:
316,48,110490,2,0,L|372:68,2,60,2|8|0,0:0|0:0|0:0,0:0:0:0:
256,36,111390,1,2,0:0:0:0:
200,52,111690,6,0,P|140:76|80:76,1,120,4|0,0:1|1:0,0:0:0:0:
32,184,112890,2,0,L|44:320,1,120,4|0,0:1|1:0,0:0:0:0:
160,332,114090,2,0,L|228:324,1,60,4|0,0:1|0:0,0:0:0:0:
248,272,114690,2,0,L|316:264,1,60,0|0,1:0|0:0,0:0:0:0:
360,240,115290,2,0,P|336:180|336:120,1,120,8|0,0:0|1:0,0:0:0:0:
452,152,116490,6,0,P|476:212|476:272,1,120,4|0,0:1|1:0,0:0:0:0:
380,340,117690,2,0,L|248:344,1,120,4|0,0:1|1:0,0:0:0:0:
140,324,118890,2,0,L|112:260,1,60,4|0,0:1|0:0,0:0:0:0:
104,212,119490,2,0,L|128:144,1,60,0|0,1:0|0:0,0:0:0:0:
144,100,120090,5,2,0:0:0:0:
256,140,120690,1,8,0:0:0:0:
368,100,121290,5,4,0:0:0:0:
256,312,122490,1,2,0:0:0:0:
144,100,123690,1,2,0:0:0:0:
212,44,126090,6,0,L|188:168,1,120,2|0,0:0|0:0,0:0:0:0:
308,160,127290,2,0,L|336:292,1,120,2|0,0:0|0:0,0:0:0:0:
224,324,128490,1,0,1:0:0:0:
173,218,129090,1,0,1:0:0:0:
200,100,129690,2,0,P|256:80|312:100,2,120,2|2|4,0:0|0:0|0:1,0:0:0:0:
256,192,131040,12,0,134490,0:0:0:0:
