osu file format v12

[General]
AudioFilename: calamity_fortune_1280x720.mp3
AudioLeadIn: 0
PreviewTime: 102065
Countdown: 0
SampleSet: Soft
StackLeniency: 0.7
Mode: 0
LetterboxInBreaks: 0

[Editor]
DistanceSpacing: 0.6
BeatDivisor: 4
GridSize: 4

[Metadata]
Title:Calamity Fortune
TitleUnicode:Calamity Fortune
Artist:LeaF
ArtistUnicode:LeaF
Creator:Flower
Version:Extra
Source:Touhou
Tags:少女が見た日本の原風景 The Primal Scene of Japan the Girl Saw TH10 Mountain of Faith Kochiya Sanae BMS Event Touhou Ondan Yuugi 5 Sagisawa-Yukari HelloSCV UnitedWeSin TKSalt
BeatmapID:257793
BeatmapSetID:96103

[Difficulty]
HPDrainRate:6
CircleSize:4
OverallDifficulty:8
ApproachRate:9
SliderMultiplier:1.6
SliderTickRate:1

[Events]
//Background and Video events
0,0,"bg1.jpg",0,0
Video,-65,"bgvideo.avi"
//Break Periods
2,47090,51090
//Storyboard Layer 0 (Background)
//Storyboard Layer 1 (Fail)
//Storyboard Layer 2 (Pass)
//Storyboard Layer 3 (Foreground)
//Storyboard Sound Samples
//Background Colour Transformations
3,100,163,162,255

[TimingPoints]
1290,300,4,2,1,70,1,0
51690,-100,4,1,1,60,0,0
57690,-100,4,2,1,70,0,0
102090,-100,4,2,1,70,0,1
111540,-100,4,2,1,70,0,0
111690,-100,4,2,1,70,0,1
116490,-100,4,1,1,65,0,1
120390,-100,4,2,1,70,0,1
121290,-100,4,2,1,70,0,0
126090,-100,4,2,1,60,0,0
128490,-100,4,1,1,60,0,0
130890,-100,4,2,1,60,0,0
134490,-100,4,2,1,30,0,0

[Colours]
Combo1 : 151,136,238
Combo2 : 0,236,23
Combo3 : 91,255,165
Combo4 : 15,115,225

[HitObjects]
184,232,2490,1,4,1:0:0:0:
140,300,2640,1,0,0:0:0:0:
268,220,2790,1,8,0:0:0:0:
312,152,2940,1,0,0:0:0:0:
100,228,3090,6,0,P|56:244|20:240,1,80,0|0,1:0|0:0,0:0:0:0:
292,296,3390,2,0,P|336:280|372:284,1,80,8|0,0:0|0:0,0:0:0:0:
432,332,3690,5,2,0:0:0:0:
500,288,3840,1,0,0:0:0:0:
476,212,3990,1,2,0:3:0:0:
396,204,4140,1,0,0:0:0:0:
396,204,4215,1,0,0:0:0:0:
396,204,4290,5,2,0:0:0:0:
500,288,4440,1,0,0:0:0:0:
512,104,4590,1,0,0:0:0:0:
512,104,4890,6,0,P|468:128|424:132,1,80,4|0,1:0|0:0,0:0:0:0:
244,208,5190,2,0,P|288:184|332:180,1,80,8|0,0:0|0:0,0:0:0:0:
396,204,5490,2,0,L|424:292,1,80
244,208,5790,2,0,L|216:120,1,80,8|0,0:0|0:0,0:0:0:0:
124,44,6090,5,2,0:0:0:0:
308,108,6240,1,0,0:0:0:0:
308,108,6315,1,0,0:0:0:0:
308,108,6390,1,2,0:0:0:0:
224,28,6540,1,0,0:0:0:0:
152,208,6690,6,0,P|192:180|224:104,1,120,4|0,0:0|0:0,0:0:0:0:
228,76,6990,1,8,0:0:0:0:
124,44,7140,1,0,1:0:0:0:
124,44,7215,1,0,1:0:0:0:
124,44,7290,5,4,1:0:0:0:
80,108,7440,1,0,0:0:0:0:
108,272,7590,1,8,0:0:0:0:
152,208,7740,1,0,0:0:0:0:
76,188,7890,6,0,P|32:200|-8:192,1,80,0|0,1:0|0:0,0:0:0:0:
228,184,8190,2,0,P|272:172|312:180,1,80,8|0,0:0|0:0,0:0:0:0:
208,260,8490,6,0,P|180:248|152:208,1,80,0|0,1:0|0:0,0:0:0:0:
228,28,8790,2,0,L|208:124,1,80,8|0,0:0|1:0,0:0:0:0:
136,128,9090,1,0,0:0:0:0:
136,128,9240,1,0,1:0:0:0:
300,72,9390,1,8,0:0:0:0:
300,72,9540,1,0,0:0:0:0:
496,144,9690,6,0,P|460:168|384:168,1,120,4|2,0:0|0:0,0:0:0:0:
385,168,9990,2,0,L|344:244,1,80,0|2,0:0|0:0,0:0:0:0:
300,72,10290,1,4,0:0:0:0:
464,244,10590,1,2,0:0:0:0:
424,96,10740,1,2,0:0:0:0:
464,244,10890,5,2,0:0:0:0:
388,264,11040,1,8,0:3:0:0:
312,284,11190,2,0,P|268:232|260:180,1,120,2|0,0:3|0:0,0:0:0:0:
264,144,11490,1,4,0:0:0:0:
388,264,11790,1,0,1:0:0:0:
388,280,11865,1,0,1:0:0:0:
388,296,11940,1,0,1:0:0:0:
384,312,12015,1,0,1:0:0:0:
376,328,12090,6,0,P|340:356|260:340,1,120,4|2,1:0|0:0,0:0:0:0:
256,336,12390,2,0,L|224:244,1,80,8|2,0:0|0:0,0:0:0:0:
356,128,12690,2,0,L|320:216,1,80,0|0,0:0|1:0,0:0:0:0:
156,204,12990,1,8,0:0:0:0:
156,204,13065,1,0,0:0:0:0:
156,204,13140,1,0,0:0:0:0:
251,180,13290,6,0,P|276:196|325:202,1,80,0|0,1:0|0:0,0:0:0:0:
192,112,13590,2,0,P|167:96|118:90,1,80,8|2,0:0|0:0,0:0:0:0:
296,192,13890,2,0,P|336:184|376:148,1,80,0|4,1:0|0:0,0:0:0:0:
156,204,14190,1,8,0:0:0:0:
152,220,14265,1,0,0:0:0:0:
152,236,14340,1,4,0:0:0:0:
252,260,14490,6,0,P|292:296|312:368,1,120,0|2,1:0|0:0,0:0:0:0:
312,357,14790,2,0,L|355:283,1,80,8|2,0:0|0:0,0:0:0:0:
200,360,15090,2,0,P|156:372|116:360,1,80,0|0,0:0|1:0,0:0:0:0:
312,212,15390,2,0,P|356:200|396:212,1,80,0|0,0:0|1:0,0:0:0:0:
404,216,15615,1,0,1:0:0:0:
416,228,15690,5,0,1:0:0:0:
448,316,15840,1,2,0:0:0:0:
312,212,15990,1,8,0:0:0:0:
376,104,16140,1,2,0:0:0:0:
352,304,16290,2,0,P|296:316|208:240,1,160,0|0,1:0|1:0,0:0:0:0:
208,244,16665,1,0,1:0:0:0:
208,224,16740,1,0,1:0:0:0:
216,204,16815,1,0,1:0:0:0:
228,188,16890,6,0,L|280:124,1,80,4|2,1:0|0:0,0:0:0:0:
128,200,17190,2,0,P|120:240|128:280,1,80,8|0,0:0|0:0,0:0:0:0:
208,356,17490,1,0,1:0:0:0:
312,212,17640,1,0,0:0:0:0:
168,128,17790,1,8,0:0:0:0:
312,212,17940,1,0,1:0:0:0:
264,284,18090,6,0,P|280:320|356:364,1,120,0|2,1:0|0:0,0:0:0:0:
372,352,18390,2,0,L|456:336,1,80,8|2,0:0|0:0,0:0:0:0:
504,152,18690,2,0,L|420:168,1,80,0|4,1:0|0:0,0:0:0:0:
324,88,18990,1,8,0:0:0:0:
324,88,19065,1,0,0:0:0:0:
324,88,19140,1,4,0:0:0:0:
445,53,19290,6,0,P|448:120|425:166,1,120,0|2,1:0|0:0,0:0:0:0:
400,180,19590,2,0,L|316:164,1,80,8|2,0:0|0:0,0:0:0:0:
184,244,19890,2,0,P|236:236|264:216,1,80,0|0,1:0|1:0,0:0:0:0:
324,88,20190,1,8,0:0:0:0:
336,248,20340,1,2,0:0:0:0:
240,136,20490,6,0,L|192:64,1,80,0|0,1:0|0:0,0:0:0:0:
336,248,20790,2,0,P|372:268|412:268,1,80,8|0,0:0|0:0,0:0:0:0:
168,168,21090,2,0,P|126:165|90:181,1,80,0|0,1:0|1:0,0:0:0:0:
4,264,21390,1,8,0:0:0:0:
4,264,21690,6,0,P|36:292|80:296,1,80,4|0,1:0|0:0,0:0:0:0:
360,164,21990,2,0,P|304:160|236:188,1,120,8|2,0:0|0:0,0:0:0:0:
232,208,22290,1,0,1:0:0:0:
176,348,22440,1,8,0:0:0:0:
176,348,22515,1,0,0:0:0:0:
176,348,22590,1,2,0:0:0:0:
328,324,22740,1,4,0:0:0:0:
244,288,22890,5,2,0:0:0:0:
408,312,23040,1,0,0:0:0:0:
336,152,23190,1,8,0:0:0:0:
328,324,23340,5,2,0:0:0:0:
480,244,23490,1,0,1:0:0:0:
372,80,23640,1,8,0:0:0:0:
372,80,24090,6,0,P|336:100|288:108,1,80,4|0,1:0|1:0,0:0:0:0:
108,88,24390,1,8,0:0:0:0:
248,176,24540,2,0,L|280:252,1,80,0|0,0:0|1:0,0:0:0:0:
240,36,24840,1,8,0:0:0:0:
164,140,24990,1,2,0:0:0:0:
8,124,25140,1,0,1:0:0:0:
164,140,25290,6,0,P|198:165|221:203,1,80,4|0,0:0|1:0,0:0:0:0:
400,240,25590,2,0,P|365:214|342:176,1,80,8|2,0:0|0:0,0:0:0:0:
128,232,25890,5,0,1:0:0:0:
276,108,26040,1,0,1:0:0:0:
312,300,26190,1,0,0:0:0:0:
312,300,26490,5,0,0:0:0:0:
308,319,26565,1,0,0:0:0:0:
297,336,26640,1,2,0:0:0:0:
281,347,26715,1,0,0:0:0:0:
261,352,26790,1,0,0:0:0:0:
242,348,26865,1,0,0:0:0:0:
225,338,26940,1,2,0:0:0:0:
213,322,27015,1,0,0:0:0:0:
207,303,27090,1,0,0:0:0:0:
210,284,27165,1,0,0:0:0:0:
219,266,27240,1,2,0:0:0:0:
235,254,27315,1,0,0:0:0:0:
254,248,27390,2,0,L|264:196,1,40,2|0,0:0|0:0,0:0:0:0:
340,188,27540,2,0,L|330:240,1,40,2|0,0:0|0:0,0:0:0:0:
312,300,27690,6,0,P|344:344|408:360,1,120,4|2,1:0|0:0,0:0:0:0:
405,360,27990,2,0,L|484:320,1,80,8|2,0:0|0:0,0:0:0:0:
444,136,28290,5,0,1:0:0:0:
444,136,28365,1,2,0:0:0:0:
508,232,28515,1,0,0:0:0:0:
508,232,28590,1,8,0:0:0:0:
340,280,28740,1,2,0:0:0:0:
340,168,28890,6,0,P|312:130|266:106,1,80,0|0,1:0|0:0,0:0:0:0:
340,280,29190,2,0,P|396:280|424:268,1,80,8|0,0:0|0:0,0:0:0:0:
272,224,29490,2,0,L|200:264,1,80,0|2,1:0|0:0,0:0:0:0:
340,168,29790,2,0,P|348:124|336:80,1,80,8|0,0:0|0:0,0:0:0:0:
193,89,30090,5,0,1:0:0:0:
267,50,30240,1,0,1:0:0:0:
264,128,30390,1,8,0:0:0:0:
192,8,30540,5,2,0:0:0:0:
116,124,30690,1,0,1:0:0:0:
116,124,30765,1,2,0:0:0:0:
256,212,30915,1,0,0:0:0:0:
256,212,30990,1,8,0:0:0:0:
267,50,31140,1,4,0:0:0:0:
176,184,31290,5,0,1:0:0:0:
336,232,31440,1,2,0:0:0:0:
412,92,31590,1,8,0:0:0:0:
264,128,31740,1,0,0:0:0:0:
336,232,31890,1,0,1:0:0:0:
348,252,31965,1,0,0:0:0:0:
352,276,32040,1,0,1:0:0:0:
408,184,32190,5,8,0:0:0:0:
256,212,32340,1,0,1:0:0:0:
408,184,32490,6,0,P|436:148|468:128,1,80,4|2,1:0|0:0,0:0:0:0:
352,276,32790,2,0,P|324:312|292:332,1,80,8|2,0:0|0:0,0:0:0:0:
160,344,33090,5,0,1:0:0:0:
256,212,33240,1,0,1:0:0:0:
432,260,33390,1,8,0:0:0:0:
272,292,33540,1,0,0:0:0:0:
408,184,33690,6,0,P|424:148|420:104,1,80,0|0,1:0|0:0,0:0:0:0:
320,132,33990,1,8,0:0:0:0:
320,132,34065,1,0,0:0:0:0:
320,132,34140,1,0,1:0:0:0:
352,276,34290,2,0,P|376:320|404:336,1,80,0|4,1:0|0:0,0:0:0:0:
256,212,34590,2,0,L|172:188,1,80,8|4,0:0|0:0,0:0:0:0:
396,104,34890,5,4,1:0:0:0:
120,136,35115,1,0,1:0:0:0:
120,136,35190,1,0,1:0:0:0:
228,296,35340,1,0,1:0:0:0:
320,132,35490,1,0,1:0:0:0:
320,132,35790,5,2,0:0:0:0:
216,196,35940,1,2,0:0:0:0:
324,316,36090,5,0,1:0:0:0:
471,236,36240,1,0,1:0:0:0:
306,213,36390,1,2,0:0:0:0:
427,331,36540,1,0,1:0:0:0:
396,164,36690,1,0,1:0:0:0:
184,276,36990,1,0,1:0:0:0:
160,280,37065,1,0,1:0:0:0:
136,276,37140,1,0,1:0:0:0:
116,264,37215,1,0,1:0:0:0:
100,244,37290,6,0,P|64:208|32:200,1,80,4|0,1:0|0:0,0:0:0:0:
216,196,37590,2,0,P|252:232|284:240,1,80,8|0,0:0|0:0,0:0:0:0:
148,128,37890,2,0,L|120:44,1,80,0|0,1:0|0:0,0:0:0:0:
336,188,38190,2,0,P|356:236|348:276,1,80,8|2,0:0|0:0,0:0:0:0:
248,116,38490,5,0,0:0:0:0:
248,116,38565,1,0,0:0:0:0:
248,116,38640,1,2,0:0:0:0:
440,168,38790,1,8,0:0:0:0:
440,168,38940,1,2,0:0:0:0:
260,200,39090,5,0,1:0:0:0:
400,96,39240,1,0,1:0:0:0:
420,288,39390,1,0,0:0:0:0:
420,288,39690,6,0,P|460:312|496:312,1,80,4|0,1:0|0:0,0:0:0:0:
348,232,39990,2,0,L|260:248,1,80,8|0,0:0|0:0,0:0:0:0:
440,168,40290,2,0,P|472:136|480:96,1,80,0|2,1:0|0:0,0:0:0:0:
196,196,40590,2,0,L|292:212,1,80,8|2,0:0|0:0,0:0:0:0:
432,248,40890,5,0,1:0:0:0:
432,248,40965,1,0,1:0:0:0:
324,128,41115,1,0,1:0:0:0:
324,128,41190,1,0,1:0:0:0:
196,196,41340,1,0,1:0:0:0:
296,208,41490,5,0,1:0:0:0:
244,88,41640,1,0,1:0:0:0:
232,72,41715,1,0,1:0:0:0:
220,56,41790,1,0,1:0:0:0:
204,44,41865,1,0,1:0:0:0:
184,36,41940,1,0,1:0:0:0:
164,32,42015,1,0,1:0:0:0:
144,32,42090,6,0,L|56:64,1,80,4|0,1:0|0:0,0:0:0:0:
208,164,42390,2,0,P|240:192|280:200,1,80,8|0,0:0|0:0,0:0:0:0:
72,80,42690,2,0,P|44:116|36:148,1,80,0|0,1:0|0:0,0:0:0:0:
52,284,42990,1,8,0:0:0:0:
132,176,43140,1,0,1:0:0:0:
132,176,43215,1,0,1:0:0:0:
132,176,43290,5,0,1:0:0:0:
144,208,43590,5,0,1:0:0:0:
156,236,43890,5,0,1:0:0:0:
168,264,44190,5,8,1:2:0:0:
276,332,44490,2,0,P|312:352|364:356,1,80,4|0,1:0|0:0,0:0:0:0:
352,224,44790,2,0,L|384:128,1,80,8|0,0:0|0:0,0:0:0:0:
156,236,45090,2,0,L|68:252,1,80,0|0,1:0|1:0,0:0:0:0:
336,176,45390,2,0,P|332:136|304:88,1,80,8|0,0:0|0:0,0:0:0:0:
220,168,45690,5,4,0:0:0:0:
299,283,45840,1,0,0:0:0:0:
316,297,45915,1,2,0:0:0:0:
339,305,45990,1,8,0:0:0:0:
432,250,46140,5,2,0:0:0:0:
432,250,46215,1,0,0:0:0:0:
336,176,46365,1,2,0:0:0:0:
232,246,46515,1,0,0:0:0:0:
232,246,46590,1,8,0:0:0:0:
432,334,46740,1,2,0:0:0:0:
405,120,46890,1,4,1:0:0:0:
116,352,51690,6,0,L|164:336,7,40,4|0|0|0|0|0|0|0,0:0|0:0|0:0|0:0|0:0|0:0|0:0|0:0,0:0:0:0:
224,352,52290,2,0,L|272:336,7,40
368,328,52890,2,0,L|320:312,7,40,4|0|0|0|0|0|0|0,0:0|0:0|0:0|0:0|0:0|0:0|0:0|0:0,0:0:0:0:
296,248,53490,2,0,L|248:232,7,40
188,192,54090,6,0,L|204:144,3,40,4|0|0|0,0:0|0:0|0:0|0:0,0:0:0:0:
188,192,54390,2,0,L|172:240,3,40
188,192,54690,2,0,L|140:176,3,40,4|0|0|0,0:0|0:0|0:0|0:0,0:0:0:0:
188,192,54990,2,0,L|236:208,3,40
248,212,55290,5,4,0:0:0:0:
271,214,55365,1,0,0:0:0:0:
293,209,55440,1,0,0:0:0:0:
313,197,55515,1,0,0:0:0:0:
329,180,55590,1,0,0:0:0:0:
338,159,55665,1,0,0:0:0:0:
341,136,55740,1,0,0:0:0:0:
337,114,55815,1,0,0:0:0:0:
326,93,55890,1,0,0:0:0:0:
310,77,55965,1,0,0:0:0:0:
289,67,56040,1,0,0:0:0:0:
266,63,56115,1,0,0:0:0:0:
244,66,56190,1,4,0:0:0:0:
223,76,56265,1,0,0:0:0:0:
206,92,56340,1,0,0:0:0:0:
195,112,56415,1,0,0:0:0:0:
400,360,57690,5,4,1:0:0:0:
376,352,57765,1,0,0:0:0:0:
356,340,57840,1,0,1:0:0:0:
344,320,57915,1,0,0:0:0:0:
344,296,57990,1,2,0:0:0:0:
352,272,58065,1,0,0:0:0:0:
368,256,58140,1,0,1:0:0:0:
388,244,58215,1,0,0:0:0:0:
408,228,58290,1,0,0:0:0:0:
420,208,58365,1,2,0:0:0:0:
428,184,58440,1,0,0:0:0:0:
428,160,58515,1,0,1:0:0:0:
420,136,58590,2,0,L|392:96,3,40,8|0|2|0,0:0|0:0|0:0|0:0,0:0:0:0:
376,92,58890,5,0,1:0:0:0:
360,108,58965,1,0,0:0:0:0:
340,120,59040,1,0,0:0:0:0:
316,124,59115,1,0,0:0:0:0:
292,124,59190,1,2,0:0:0:0:
268,116,59265,1,0,0:0:0:0:
248,104,59340,1,2,0:0:0:0:
236,84,59415,1,0,0:0:0:0:
224,64,59490,1,0,1:0:0:0:
208,44,59565,1,0,0:0:0:0:
188,32,59640,1,2,0:0:0:0:
164,28,59715,1,0,0:0:0:0:
140,32,59790,2,0,L|100:52,3,40,8|0|2|0,0:0|0:0|0:0|0:0,0:0:0:0:
92,72,60090,5,0,1:0:0:0:
88,96,60165,1,0,0:0:0:0:
100,116,60240,1,0,1:0:0:0:
120,128,60315,1,0,0:0:0:0:
136,144,60390,1,2,0:0:0:0:
144,168,60465,1,0,0:0:0:0:
144,192,60540,1,0,1:0:0:0:
132,212,60615,1,0,0:0:0:0:
116,228,60690,1,0,1:0:0:0:
92,236,60765,1,2,0:0:0:0:
72,252,60840,1,0,0:0:0:0:
60,272,60915,1,2,0:0:0:0:
52,296,60990,2,0,L|40:348,3,40,8|0|2|0,0:0|0:0|0:0|0:0,0:0:0:0:
52,356,61290,5,0,1:0:0:0:
72,372,61365,1,0,0:0:0:0:
96,376,61440,1,0,0:0:0:0:
120,368,61515,1,0,0:0:0:0:
132,348,61590,1,2,0:0:0:0:
132,324,61665,1,0,0:0:0:0:
144,304,61740,1,0,1:0:0:0:
164,292,61815,1,0,0:0:0:0:
188,296,61890,6,0,L|240:324,1,40,0|2,1:0|0:0,0:0:0:0:
244,240,62040,2,0,L|296:212,1,40,0|0,0:0|1:0,0:0:0:0:
296,300,62190,2,0,L|348:328,1,40,8|0,0:0|0:0,0:0:0:0:
352,244,62340,2,0,L|404:216,1,40,2|0,0:0|0:0,0:0:0:0:
412,224,62490,5,0,1:0:0:0:
436,220,62565,1,0,0:0:0:0:
456,208,62640,1,0,0:0:0:0:
472,188,62715,1,0,0:0:0:0:
476,164,62790,1,2,0:0:0:0:
472,140,62865,1,0,0:0:0:0:
460,120,62940,1,0,1:0:0:0:
444,104,63015,1,0,0:0:0:0:
424,92,63090,1,0,0:0:0:0:
400,88,63165,1,0,0:0:0:0:
376,96,63240,1,2,0:0:0:0:
356,108,63315,1,0,0:0:0:0:
336,120,63390,2,0,L|292:144,3,40,8|0|2|0,0:0|0:0|0:0|0:0,0:0:0:0:
276,144,63690,5,0,1:0:0:0:
252,148,63765,1,0,0:0:0:0:
228,148,63840,1,0,1:0:0:0:
204,144,63915,1,0,0:0:0:0:
180,136,63990,1,2,0:0:0:0:
160,120,64065,1,0,0:0:0:0:
148,100,64140,1,0,0:0:0:0:
144,76,64215,1,0,0:0:0:0:
148,52,64290,1,0,1:0:0:0:
164,36,64365,1,2,0:0:0:0:
184,28,64440,1,0,0:0:0:0:
208,24,64515,1,2,0:0:0:0:
228,36,64590,2,0,L|248:88,3,40,8|0|2|0,0:0|0:0|0:0|0:0,0:0:0:0:
264,84,64890,5,0,1:0:0:0:
264,108,64965,1,0,0:0:0:0:
256,132,65040,1,0,0:0:0:0:
240,152,65115,1,0,0:0:0:0:
220,168,65190,1,2,0:0:0:0:
196,176,65265,1,0,0:0:0:0:
172,184,65340,1,0,1:0:0:0:
152,196,65415,1,0,0:0:0:0:
136,216,65490,1,0,1:0:0:0:
132,240,65565,1,0,0:0:0:0:
140,264,65640,1,2,0:0:0:0:
160,280,65715,1,0,0:0:0:0:
184,284,65790,2,0,L|232:256,3,40,8|0|2|0,0:0|0:0|0:0|0:0,0:0:0:0:
268,320,66090,6,0,L|308:348,1,40,0|0,1:0|0:0,0:0:0:0:
336,280,66240,2,0,L|376:308,1,40
400,236,66390,2,0,L|440:264,1,40,2|0,0:0|0:0,0:0:0:0:
468,196,66540,2,0,L|508:224,1,40,2|0,0:0|0:0,0:0:0:0:
472,120,66690,6,0,L|432:92,3,40,2|0|0|0,0:0|0:0|0:0|1:0,0:0:0:0:
396,156,66990,2,0,L|356:128,3,40,8|0|2|0,0:0|0:0|0:0|0:0,0:0:0:0:
340,124,67290,5,0,1:0:0:0:
316,124,67365,1,0,0:0:0:0:
292,132,67440,1,0,0:0:0:0:
272,148,67515,1,0,0:0:0:0:
260,168,67590,1,2,0:0:0:0:
256,192,67665,1,0,0:0:0:0:
240,212,67740,1,0,0:0:0:0:
220,224,67815,1,0,0:0:0:0:
196,228,67890,1,0,1:0:0:0:
172,224,67965,1,2,0:0:0:0:
152,212,68040,1,0,0:0:0:0:
136,196,68115,1,2,0:0:0:0:
124,176,68190,2,0,L|112:128,3,40,8|0|2|0,0:0|0:0|0:0|0:0,0:0:0:0:
108,116,68490,5,0,1:0:0:0:
92,100,68565,1,0,0:0:0:0:
68,96,68640,1,0,1:0:0:0:
44,100,68715,1,0,0:0:0:0:
24,112,68790,1,2,0:0:0:0:
12,132,68865,1,0,0:0:0:0:
8,156,68940,1,0,0:0:0:0:
12,180,69015,1,0,0:0:0:0:
28,200,69090,1,0,1:0:0:0:
52,208,69165,1,0,0:0:0:0:
72,220,69240,1,2,0:0:0:0:
84,240,69315,1,0,0:0:0:0:
88,264,69390,2,0,L|80:304,3,40,8|0|2|0,0:0|0:0|0:0|0:0,0:0:0:0:
88,328,69690,5,0,1:0:0:0:
104,312,69765,1,0,0:0:0:0:
128,304,69840,1,0,0:0:0:0:
152,300,69915,1,0,0:0:0:0:
176,304,69990,1,2,0:0:0:0:
196,316,70065,1,0,0:0:0:0:
216,332,70140,1,0,0:0:0:0:
232,352,70215,1,2,0:0:0:0:
252,364,70290,1,0,1:0:0:0:
276,372,70365,1,0,0:0:0:0:
300,372,70440,1,2,0:0:0:0:
320,360,70515,1,0,0:0:0:0:
336,344,70590,2,0,L|360:292,3,40,8|0|2|0,0:0|0:0|0:0|0:0,0:0:0:0:
444,260,70890,6,0,L|420:312,3,40,0|0|2|0,1:0|0:0|0:0|0:0,0:0:0:0:
312,244,71190,2,0,L|336:192,3,40,2|0|2|0,0:0|0:0|0:0|0:0,0:0:0:0:
404,184,71490,6,0,L|456:176,1,40,8|0,0:0|0:0,0:0:0:0:
308,136,71640,2,0,L|360:128,1,40,0|0,1:0|0:0,0:0:0:0:
204,96,71790,2,0,L|256:88,1,40,8|0,0:0|0:0,0:0:0:0:
108,48,71940,2,0,L|160:40,1,40,2|0,0:0|0:0,0:0:0:0:
88,68,72090,5,4,1:0:0:0:
76,88,72165,1,0,0:0:0:0:
72,112,72240,1,2,0:0:0:0:
76,136,72315,1,0,0:0:0:0:
84,160,72390,1,2,0:0:0:0:
104,176,72465,1,0,0:0:0:0:
124,188,72540,1,0,0:0:0:0:
148,192,72615,1,0,0:0:0:0:
172,188,72690,1,0,1:0:0:0:
196,196,72765,1,2,0:0:0:0:
212,212,72840,1,0,0:0:0:0:
224,232,72915,1,2,0:0:0:0:
228,256,72990,2,0,L|220:296,3,40,8|0|2|0,0:0|0:0|0:0|0:0,0:0:0:0:
204,312,73290,5,0,1:0:0:0:
180,320,73365,1,0,0:0:0:0:
156,320,73440,1,0,1:0:0:0:
132,312,73515,1,0,0:0:0:0:
112,296,73590,1,2,0:0:0:0:
104,272,73665,1,0,0:0:0:0:
108,248,73740,1,0,0:0:0:0:
120,228,73815,1,2,0:0:0:0:
136,212,73890,1,0,1:0:0:0:
156,200,73965,1,0,0:0:0:0:
176,188,74040,1,2,0:0:0:0:
188,168,74115,1,0,0:0:0:0:
196,144,74190,2,0,L|188:96,3,40,8|0|2|0,0:0|0:0|0:0|0:0,0:0:0:0:
200,84,74490,5,0,1:0:0:0:
224,92,74565,1,0,1:0:0:0:
248,92,74640,1,0,1:0:0:0:
272,88,74715,1,0,1:0:0:0:
292,76,74790,1,2,1:2:0:0:
308,56,74865,1,0,1:0:0:0:
328,40,74940,1,0,1:0:0:0:
352,32,75015,1,0,1:0:0:0:
376,32,75090,2,0,L|420:52,1,40,0|0,1:0|1:0,0:0:0:0:
392,120,75240,2,0,L|436:140,1,40,2|0,1:2|1:0,0:0:0:0:
404,208,75390,2,0,L|448:228,1,40,0|0,1:0|1:0,0:0:0:0:
416,300,75540,5,0,1:0:0:0:
384,316,75840,5,0,1:0:0:0:
352,332,76140,5,0,1:0:0:0:
320,308,76290,1,0,1:0:0:0:
288,284,76440,1,4,1:2:0:0:
256,260,76590,1,0,1:0:0:0:
16,340,76890,6,0,P|64:344|100:328,1,80,4|0,1:0|0:0,0:0:0:0:
284,156,77190,2,0,P|236:152|200:168,1,80,8|0,0:0|0:0,0:0:0:0:
180,304,77490,2,0,L|232:372,1,80,0|0,1:0|0:0,0:0:0:0:
100,252,77790,2,0,P|128:208|128:168,1,80,8|2,0:0|0:0,0:0:0:0:
124,156,78015,1,0,0:0:0:0:
108,132,78090,5,0,1:0:0:0:
112,116,78390,5,0,1:0:0:0:
116,100,78690,5,0,1:0:0:0:
120,84,78990,5,0,0:0:0:0:
504,124,79290,5,4,1:0:0:0:
376,28,79440,1,0,1:0:0:0:
376,28,79515,1,0,1:0:0:0:
376,28,79590,1,8,0:0:0:0:
352,184,79740,1,2,0:0:0:0:
504,124,79890,6,0,P|472:164|432:176,1,80,0|4,1:0|0:0,0:0:0:0:
172,292,80190,2,0,P|204:252|244:240,1,80,8|4,0:0|0:0,0:0:0:0:
404,244,80490,5,0,1:0:0:0:
412,260,80790,5,0,1:0:0:0:
420,276,81090,5,0,1:0:0:0:
380,364,81240,5,8,0:0:0:0:
420,136,81390,1,8,0:0:0:0:
504,252,81540,1,0,1:0:0:0:
504,252,81615,1,0,1:0:0:0:
504,252,81690,5,4,1:0:0:0:
492,168,81840,1,0,0:0:0:0:
412,260,81990,1,8,0:0:0:0:
420,136,82140,1,0,0:0:0:0:
320,268,82290,1,0,1:0:0:0:
348,96,82440,1,0,1:0:0:0:
236,272,82590,1,8,0:0:0:0:
276,52,82740,1,0,1:0:0:0:
340,184,82890,5,0,1:0:0:0:
340,184,82965,1,0,0:0:0:0:
340,184,83040,1,0,1:0:0:0:
416,52,83190,2,0,P|456:40|504:44,1,80,8|2,0:0|0:0,0:0:0:0:
260,156,83490,2,0,P|220:168|172:164,1,80,0|2,1:0|0:0,0:0:0:0:
420,136,83790,2,0,P|432:184|420:224,1,80,8|0,0:0|0:0,0:0:0:0:
308,332,84090,5,0,1:0:0:0:
340,184,84240,1,0,1:0:0:0:
488,296,84390,1,8,0:0:0:0:
460,304,84465,1,0,1:0:0:0:
432,304,84540,1,0,1:0:0:0:
404,300,84615,1,0,1:0:0:0:
380,288,84690,1,0,1:0:0:0:
260,156,84840,1,0,1:0:0:0:
420,136,84990,1,8,0:0:0:0:
280,240,85140,1,2,0:0:0:0:
324,96,85290,5,0,1:0:0:0:
324,96,85365,1,0,1:0:0:0:
324,96,85440,1,0,1:0:0:0:
280,240,85590,1,0,1:0:0:0:
264,261,85665,1,0,1:0:0:0:
243,278,85740,1,0,1:0:0:0:
219,289,85815,1,0,0:0:0:0:
193,293,85890,1,0,1:0:0:0:
167,290,85965,1,0,0:0:0:0:
142,280,86040,1,2,0:0:0:0:
121,263,86115,1,0,0:0:0:0:
105,242,86190,1,8,0:0:0:0:
95,218,86265,1,0,0:0:0:0:
92,191,86340,1,2,0:0:0:0:
96,165,86415,1,0,0:0:0:0:
108,140,86490,6,0,L|232:120,1,120,4|0,1:0|0:0,0:0:0:0:
352,132,86790,2,0,P|268:128|208:64,1,160,2|0,0:0|1:0,0:0:0:0:
104,68,87165,2,0,L|159:59,1,40,0|0,0:0|0:0,1:0:0:0:
312,36,87390,1,8,0:0:0:0:
192,196,87540,1,0,0:0:0:0:
352,132,87690,6,0,P|392:140|428:164,1,80,4|0,1:0|0:0,0:0:0:0:
440,180,87915,1,0,0:0:0:0:
448,204,87990,1,2,0:0:0:0:
288,328,88140,1,0,0:0:0:0:
288,328,88215,1,0,0:0:0:0:
352,132,88365,1,2,0:0:0:0:
496,292,88515,1,0,0:0:0:0:
496,292,88590,1,2,0:0:0:0:
388,272,88740,1,2,0:0:0:0:
428,104,88890,5,4,0:0:0:0:
388,272,89190,1,0,0:0:0:0:
408,188,89340,1,2,0:0:0:0:
428,104,89490,1,0,0:0:0:0:
292,232,89790,6,0,P|256:252|208:260,1,80,0|2,0:0|0:0,0:0:0:0:
140,76,90090,2,0,L|184:164,1,80,0|0,1:0|0:0,0:0:0:0:
32,224,90390,2,0,P|68:204|116:196,1,80,2|0,0:0|0:0,0:0:0:0:
248,164,90690,5,0,0:0:0:0:
316,124,90840,1,0,0:0:0:0:
384,84,90990,1,2,0:0:0:0:
320,136,91140,1,0,0:0:0:0:
264,244,91290,6,0,P|268:288|292:324,1,80,0|0,1:0|0:0,0:0:0:0:
248,164,91590,2,0,L|160:140,1,80,2|0,0:0|0:0,0:0:0:0:
344,216,91890,2,0,P|380:200|404:160,1,80,0|0,0:0|1:0,0:0:0:0:
184,232,92190,2,0,L|100:260,1,80,2|0,0:0|0:0,0:0:0:0:
12,240,92490,5,0,1:0:0:0:
12,240,92640,1,0,1:0:0:0:
164,136,92790,1,2,0:0:0:0:
164,136,92940,1,0,0:0:0:0:
280,308,93090,5,2,0:0:0:0:
280,308,93165,1,0,0:0:0:0:
280,308,93240,1,0,0:0:0:0:
248,164,93390,1,0,0:0:0:0:
248,164,93690,6,0,L|264:116,1,40,4|0,1:0|0:0,0:0:0:0:
340,52,93840,2,0,L|324:100,1,40,0|0,1:0|0:0,0:0:0:0:
328,200,93990,2,0,L|344:152,1,40,8|0,0:0|0:0,0:0:0:0:
420,84,94140,2,0,L|404:132,1,40,0|0,1:0|0:0,0:0:0:0:
412,144,94290,5,0,1:0:0:0:
424,164,94365,1,0,1:0:0:0:
444,176,94440,1,0,1:0:0:0:
468,184,94515,1,0,1:0:0:0:
492,184,94590,1,2,0:0:0:0:
492,184,94890,6,0,L|504:240,1,40,4|0,1:0|0:0,0:0:0:0:
452,288,95040,2,0,L|464:344,1,40,0|0,1:0|0:0,0:0:0:0:
368,224,95190,2,0,L|380:280,1,40,8|0,0:0|0:0,0:0:0:0:
328,328,95340,2,0,L|340:384,1,40,0|0,1:0|0:0,0:0:0:0:
312,312,95490,5,0,1:0:0:0:
292,304,95565,1,0,1:0:0:0:
268,300,95640,1,0,1:0:0:0:
244,304,95715,1,0,1:0:0:0:
224,316,95790,1,2,0:0:0:0:
0,356,96090,6,0,L|44:340,1,40,0|0,1:0|1:0,0:0:0:0:
72,264,96240,2,0,L|116:248,1,40,0|0,1:0|1:0,0:0:0:0:
168,180,96390,1,0,1:0:0:0:
168,180,96690,6,0,L|212:208,1,40,0|0,1:0|1:0,0:0:0:0:
176,88,96840,2,0,L|132:60,1,40,0|0,1:0|1:0,0:0:0:0:
44,56,96990,1,0,1:0:0:0:
44,56,97290,5,0,1:0:0:0:
28,76,97365,1,0,1:0:0:0:
20,100,97440,1,0,1:0:0:0:
20,124,97515,1,0,1:0:0:0:
28,148,97590,1,0,1:0:0:0:
40,168,97665,1,0,1:0:0:0:
60,184,97740,1,0,1:0:0:0:
80,196,97815,1,0,1:0:0:0:
104,204,97890,1,0,1:0:0:0:
124,216,97965,1,0,1:0:0:0:
140,236,98040,1,0,1:0:0:0:
148,260,98115,1,0,1:0:0:0:
148,284,98190,1,0,1:0:0:0:
140,308,98265,1,0,1:0:0:0:
128,328,98340,1,0,1:0:0:0:
108,340,98415,1,0,1:0:0:0:
84,348,98490,6,0,P|24:334|6:228,1,160,2|0,0:0|0:0,0:0:0:0:
8,224,98865,1,2,0:0:0:0:
25,205,98940,1,0,0:0:0:0:
48,194,99015,1,2,0:0:0:0:
72,191,99090,1,0,0:0:0:0:
96,196,99165,1,0,0:0:0:0:
117,206,99240,1,2,0:0:0:0:
136,219,99315,1,0,0:0:0:0:
157,229,99390,1,0,0:0:0:0:
182,233,99465,1,2,0:0:0:0:
205,231,99540,1,0,0:0:0:0:
228,224,99615,1,2,0:0:0:0:
252,213,99690,6,0,L|291:175,3,40,0|0|0|0,1:0|0:0|0:0|0:0,0:0:0:0:
384,172,99990,2,0,L|345:210,3,40,0|0|0|0,1:0|0:0|0:0|0:0,0:0:0:0:
340,304,100290,2,0,L|379:266,3,40,0|0|0|0,1:0|0:0|0:0|0:0,0:0:0:0:
472,263,100590,2,0,L|433:301,3,40,0|0|0|0,1:0|0:0|0:0|0:0,0:0:0:0:
256,192,100890,12,0,101790,0:0:0:0:
300,312,102090,5,4,1:0:0:0:
398,175,102240,1,0,0:0:0:0:
398,175,102315,1,2,0:0:0:0:
398,344,102465,1,0,0:0:0:0:
398,344,102540,1,2,0:0:0:0:
300,208,102690,1,0,1:0:0:0:
460,260,102840,1,2,0:0:0:0:
300,312,102990,1,8,0:0:0:0:
328,132,103140,1,2,0:0:0:0:
89,210,103290,5,0,1:0:0:0:
232,160,103440,1,0,0:0:0:0:
232,160,103515,1,2,0:0:0:0:
144,284,103665,1,0,0:0:0:0:
144,284,103740,1,2,0:0:0:0:
142,133,103890,1,0,1:0:0:0:
233,254,104040,1,2,0:0:0:0:
89,210,104190,1,8,0:0:0:0:
204,85,104340,1,2,0:0:0:0:
300,208,104490,5,0,1:0:0:0:
484,223,104640,1,0,0:0:0:0:
484,223,104715,1,2,0:0:0:0:
342,104,104865,1,0,0:0:0:0:
342,104,104940,1,2,0:0:0:0:
387,282,105090,1,0,1:0:0:0:
456,111,105240,1,4,0:0:0:0:
300,208,105390,1,8,0:0:0:0:
471,313,105540,1,4,0:0:0:0:
304,292,105690,5,0,1:0:0:0:
268,304,105765,1,0,0:0:0:0:
236,324,105840,1,2,0:0:0:0:
216,352,105915,1,0,0:0:0:0:
184,368,105990,1,8,0:0:0:0:
148,368,106065,1,0,0:0:0:0:
116,352,106140,1,2,0:0:0:0:
96,320,106215,1,0,0:0:0:0:
96,284,106290,1,0,1:0:0:0:
112,252,106365,1,0,0:0:0:0:
144,236,106440,1,0,1:0:0:0:
180,236,106515,1,0,0:0:0:0:
216,224,106590,1,12,0:0:0:0:
244,200,106665,1,0,0:0:0:0:
252,164,106740,1,0,0:0:0:0:
240,128,106815,1,0,0:0:0:0:
212,104,106890,6,0,L|132:80,1,80,4|0,1:0|0:0,0:0:0:0:
8,132,107115,2,0,L|88:156,1,80,2|0,0:0|0:0,0:0:0:0:
164,196,107340,5,2,2:0:0:0:
311,114,107490,1,0,1:0:0:0:
143,93,107640,1,2,2:0:0:0:
266,207,107790,1,8,2:0:0:0:
234,43,107940,1,2,2:0:0:0:
408,196,108090,6,0,L|500:216,1,80,0|0,1:0|0:0,0:0:0:0:
452,80,108315,2,0,L|360:60,1,80,2|0,0:0|0:0,0:0:0:0:
311,114,108540,5,2,2:0:0:0:
164,196,108690,1,0,1:0:0:0:
332,217,108840,1,2,2:0:0:0:
209,103,108990,1,8,2:0:0:0:
241,267,109140,1,2,2:0:0:0:
96,360,109290,6,0,L|188:336,1,80,0|0,1:0|0:0,0:0:0:0:
164,196,109515,2,0,L|72:220,1,80,2|0,0:0|0:0,0:0:0:0:
36,280,109740,5,2,0:0:0:0:
245,212,109890,1,0,1:0:0:0:
36,143,110040,1,4,0:0:0:0:
165,322,110190,1,8,0:0:0:0:
165,101,110340,1,4,0:0:0:0:
36,280,110490,5,0,1:0:0:0:
36,280,110565,1,0,1:0:0:0:
36,280,110640,1,0,1:0:0:0:
245,212,110790,1,8,0:0:0:0:
400,348,110940,1,2,0:0:0:0:
400,348,111015,1,0,0:0:0:0:
400,348,111090,1,0,1:0:0:0:
400,348,111165,1,2,0:0:0:0:
296,276,111315,1,2,0:0:0:0:
296,276,111390,1,8,0:0:0:0:
165,322,111540,1,2,0:0:0:0:
212,72,111690,5,4,1:0:0:0:
114,209,111840,1,0,0:0:0:0:
114,209,111915,1,2,0:0:0:0:
114,40,112065,1,0,0:0:0:0:
114,40,112140,1,2,0:0:0:0:
212,176,112290,1,0,1:0:0:0:
52,124,112440,1,2,0:0:0:0:
212,72,112590,1,8,0:0:0:0:
344,172,112740,1,2,0:0:0:0:
200,216,112890,5,0,1:0:0:0:
343,266,113040,1,0,0:0:0:0:
343,266,113115,1,2,0:0:0:0:
256,142,113265,1,0,0:0:0:0:
256,142,113340,1,2,0:0:0:0:
253,294,113490,1,0,1:0:0:0:
344,172,113640,1,2,0:0:0:0:
200,216,113790,1,8,0:0:0:0:
192,348,113940,1,2,0:0:0:0:
280,220,114090,5,0,1:0:0:0:
462,188,114240,1,0,0:0:0:0:
462,188,114315,1,2,0:0:0:0:
330,320,114465,1,0,0:0:0:0:
330,320,114540,1,2,0:0:0:0:
361,138,114690,1,0,1:0:0:0:
445,303,114840,1,4,0:0:0:0:
280,220,114990,1,8,0:0:0:0:
441,100,115140,1,4,0:0:0:0:
280,136,115290,5,0,1:0:0:0:
244,132,115365,1,0,0:0:0:0:
216,108,115440,1,2,0:0:0:0:
204,76,115515,1,0,0:0:0:0:
180,48,115590,1,8,0:0:0:0:
148,32,115665,1,0,0:0:0:0:
112,32,115740,1,0,1:0:0:0:
80,48,115815,1,0,0:0:0:0:
60,76,115890,1,0,1:0:0:0:
52,112,115965,1,0,0:0:0:0:
60,148,116040,1,0,1:0:0:0:
84,176,116115,1,0,0:0:0:0:
116,192,116190,2,0,L|168:176,1,40
116,268,116340,2,0,L|64:284,1,40,2|0,0:0|0:0,0:0:0:0:
148,288,116490,5,4,0:0:0:0:
164,324,116565,1,0,0:0:0:0:
192,352,116640,1,0,0:0:0:0:
232,360,116715,1,0,0:0:0:0:
272,356,116790,1,0,0:0:0:0:
304,332,116865,1,0,0:0:0:0:
320,296,116940,1,0,0:0:0:0:
316,256,117015,1,0,0:0:0:0:
292,224,117090,1,0,0:0:0:0:
292,184,117165,1,0,0:0:0:0:
308,148,117240,1,0,0:0:0:0:
340,124,117315,1,0,0:0:0:0:
380,120,117390,2,0,L|432:136,1,40
468,192,117540,2,0,L|520:208,1,40
460,240,117690,5,4,0:0:0:0:
432,272,117765,1,0,0:0:0:0:
392,280,117840,1,0,0:0:0:0:
352,280,117915,1,0,0:0:0:0:
320,260,117990,1,0,0:0:0:0:
296,228,118065,1,0,0:0:0:0:
264,208,118140,1,0,0:0:0:0:
224,196,118215,1,0,0:0:0:0:
184,204,118290,1,0,0:0:0:0:
152,228,118365,1,0,0:0:0:0:
136,264,118440,1,0,0:0:0:0:
136,304,118515,1,0,0:0:0:0:
156,340,118590,2,0,L|196:372,1,40
44,328,118740,2,0,L|84:360,1,40
0,336,118890,5,4,0:0:0:0:
28,308,118965,1,0,0:0:0:0:
36,268,119040,1,0,0:0:0:0:
24,228,119115,1,0,0:0:0:0:
4,192,119190,1,0,0:0:0:0:
4,152,119265,1,0,0:0:0:0:
16,112,119340,1,0,0:0:0:0:
48,88,119415,1,0,0:0:0:0:
88,80,119490,1,0,0:0:0:0:
128,92,119565,1,0,0:0:0:0:
156,124,119640,1,0,0:0:0:0:
164,164,119715,1,0,0:0:0:0:
160,204,119790,2,0,L|136:248,1,40
260,144,119940,2,0,L|236:188,1,40
260,268,120090,5,0,0:0:0:0:
260,268,120165,1,0,0:0:0:0:
260,268,120240,1,0,0:0:0:0:
216,64,120390,1,8,0:0:0:0:
348,160,120540,1,2,0:0:0:0:
348,160,120615,1,0,0:0:0:0:
348,160,120690,1,0,1:0:0:0:
348,160,120765,1,2,0:0:0:0:
508,108,120915,1,2,0:0:0:0:
508,108,120990,1,8,0:0:0:0:
396,232,121140,1,2,0:0:0:0:
336,72,121290,5,4,0:0:0:0:
436,156,121440,2,0,P|464:184|480:224,1,80,2|0,0:0|0:0,0:0:0:0:
452,296,121740,1,2,0:0:0:0:
396,232,121890,1,0,0:0:0:0:
428,68,122040,1,2,0:0:0:0:
348,160,122190,2,0,P|304:172|264:168,1,80,0|2,0:0|0:0,0:0:0:0:
24,172,122490,6,0,P|72:148|144:160,1,120,2|2,0:0|0:0,0:0:0:0:
160,176,122790,2,0,L|188:260,1,80,0|2,0:0|0:0,0:0:0:0:
192,96,123090,2,0,L|216:12,1,80,0|2,0:0|0:0,0:0:0:0:
240,160,123390,2,0,P|280:172|320:164,1,80,0|2,0:0|0:0,0:0:0:0:
456,36,123690,6,0,P|488:72|492:152,1,120,2|2,0:0|0:0,0:0:0:0:
495,141,123990,2,0,L|408:176,1,80,0|2,0:0|0:0,0:0:0:0:
296,68,124290,2,0,P|348:68|384:84,1,80,0|2,0:0|0:0,0:0:0:0:
436,244,124590,2,0,L|416:328,1,80,0|2,0:0|0:0,0:0:0:0:
136,228,124890,6,0,P|200:232|249:209,1,120,2|0,0:0|0:0,0:0:0:0:
167,289,125190,2,0,P|222:256|249:209,1,120,2|0,0:0|0:0,0:0:0:0:
228,322,125490,2,0,P|254:263|249:209,1,120,2|0,0:0|0:0,0:0:0:0:
297,313,125790,2,0,P|284:250|249:209,1,120,2|0,0:0|0:0,0:0:0:0:
185,170,126090,5,4,0:0:0:0:
168,136,127290,5,4,0:0:0:0:
148,100,128490,5,0,0:0:0:0:
180,124,128565,1,0,0:0:0:0:
220,128,128640,1,0,0:0:0:0:
260,116,128715,1,0,0:0:0:0:
284,84,128790,1,0,0:0:0:0:
288,44,128865,1,0,0:0:0:0:
312,12,128940,1,0,0:0:0:0:
352,4,129015,1,0,0:0:0:0:
392,12,129090,1,0,0:0:0:0:
420,40,129165,1,0,0:0:0:0:
432,80,129240,1,0,0:0:0:0:
416,116,129315,1,0,0:0:0:0:
384,140,129390,1,0,0:0:0:0:
344,148,129465,1,0,0:0:0:0:
320,180,129540,1,0,0:0:0:0:
320,220,129615,1,0,0:0:0:0:
352,248,129690,5,0,0:0:0:0:
392,240,129765,1,0,0:0:0:0:
420,208,129840,1,0,0:0:0:0:
460,204,129915,1,0,0:0:0:0:
496,228,129990,1,0,0:0:0:0:
512,268,130065,1,0,0:0:0:0:
496,308,130140,1,0,0:0:0:0:
456,328,130215,1,0,0:0:0:0:
412,320,130290,6,0,L|376:312,7,20
360,336,130590,6,0,L|324:344,7,20
300,328,130890,5,4,0:0:0:0:
256,192,130965,12,0,134490,0:0:0:0:
