osu file format v13

[General]
AudioFilename: 4hz8I1z4mjVR.128.mp3
AudioLeadIn: 0
PreviewTime: 82528
Countdown: 1
SampleSet: Normal
StackLeniency: 0.7
Mode: 0
LetterboxInBreaks: 1
WidescreenStoryboard: 0

[Editor]
DistanceSpacing: 0.5
BeatDivisor: 3
GridSize: 4
TimelineZoom: 1.5

[Metadata]
Title:Arianrhod
TitleUnicode:Arianrhod
Artist:LeaF
ArtistUnicode:LeaF
Creator:finap
Version:Insane
Source:
Tags:
BeatmapID:555847
BeatmapSetID:240521

[Difficulty]
HPDrainRate:4.7
CircleSize:4.2
OverallDifficulty:7
ApproachRate:8.6
SliderMultiplier:2.3
SliderTickRate:4

[Events]
//Background and Video events
0,0,"redgirl.jpg",0,0
//Break Periods
2,34681,36869
2,58728,60869
//Storyboard Layer 0 (Background)
//Storyboard Layer 1 (Fail)
//Storyboard Layer 2 (Pass)
//Storyboard Layer 3 (Foreground)
//Storyboard Sound Samples

[TimingPoints]
1528,375,4,1,0,100,1,0
4528,-83.3333333333333,4,1,0,100,0,0
6778,-166.666666666667,4,1,0,100,0,0
7528,-83.3333333333333,4,1,0,100,0,0
9775,-166.666666666667,4,1,0,100,0,0
10528,-83.3333333333333,4,1,0,100,0,0
12778,-166.666666666667,4,1,0,100,0,0
13528,-83.3333333333333,4,1,0,100,0,0
15028,-200,4,1,0,100,0,0
16528,-80,4,1,0,100,0,1
27028,-166.666666666667,4,1,0,100,0,0
28528,-90.9090909090909,4,1,0,100,0,0
33028,-200,4,1,0,100,0,0
33778,-90.9090909090909,4,1,0,100,0,0
37528,-83.3333333333333,4,1,0,100,0,0
42028,-100,4,1,0,100,0,0
42403,-83.3333333333333,4,1,0,100,0,0
43153,-125,4,1,0,100,0,0
43528,-80,4,1,0,100,0,0
75028,-166.666666666667,4,1,0,100,0,0
82528,-111.111111111111,4,1,0,100,0,0
87028,-90.9090909090909,4,1,0,100,0,0
90028,-80,4,1,0,100,0,1
102028,-166.666666666667,4,1,0,100,0,0

[Colours]
Combo1 : 165,54,79
Combo2 : 54,58,56
Combo3 : 255,217,102
Combo4 : 109,208,242
Combo5 : 245,154,190
Combo6 : 239,244,247
Combo7 : 37,37,37

[HitObjects]
160,164,1528,6,0,P|196:116|192:52,1,115
172,264,1903,2,0,P|96:268|56:224,1,115
252,208,2278,2,0,P|312:132|364:136,1,115
408,308,2653,1,0,0:0:0:0:
365,325,2746,1,0,0:0:0:0:
323,307,2840,1,0,0:0:0:0:
305,265,2934,1,0,0:0:0:0:
320,228,3028,70,0,P|349:185|257:101,1,172.5
112,128,3403,2,0,P|189:158|262:117,1,172.5,0|0,0:0|0:0,0:0:0:0:
88,152,3778,2,0,B|29:206|87:277,1,115,0|0,0:0|0:0,0:0:0:0:
226,331,4153,1,0,0:0:0:0:
194,298,4246,1,0,0:0:0:0:
195,252,4340,1,0,0:0:0:0:
228,219,4434,1,0,0:0:0:0:
268,220,4528,38,0,P|360:236|412:152,1,137.999995788574,0|0,0:0|0:0,0:0:0:0:
120,176,4903,2,0,P|176:240|160:324,1,137.999995788574
328,168,5278,1,0,0:0:0:0:
100,256,5465,1,0,0:0:0:0:
351,92,5653,1,0,0:0:0:0:
354,138,5746,1,0,0:0:0:0:
325,173,5840,1,0,0:0:0:0:
279,178,5934,1,0,0:0:0:0:
248,152,6028,6,0,P|168:96|104:136,1,137.999995788574
380,216,6403,2,0,P|416:288|388:356,1,137.999995788574
240,292,6778,54,0,P|176:232|172:232,1,68.9999978942872,0|0,0:0|0:0,0:0:0:0:
340,140,7153,1,0,0:0:0:0:
340,140,7246,1,0,0:0:0:0:
340,140,7340,1,0,0:0:0:0:
248,192,7528,54,0,P|224:124|112:120,1,137.999995788574
308,256,7809,1,0,0:0:0:0:
336,276,7903,2,0,L|424:336,1,68.9999978942872
368,176,8090,2,0,P|312:104|248:96,1,137.999995788574
294,230,8465,1,0,0:0:0:0:
255,246,8559,1,0,0:0:0:0:
217,230,8653,1,0,0:0:0:0:
201,191,8746,1,0,0:0:0:0:
216,152,8840,1,0,0:0:0:0:
200,113,8933,1,0,0:0:0:0:
162,98,9028,6,0,P|84:124|96:224,1,137.999995788574,0|0,0:0|0:0,0:0:0:0:
364,304,9403,2,0,B|332:252|336:248|464:328,1,137.999995788574
400,100,9778,22,0,P|348:104|316:88,1,68.9999978942872
156,232,10153,2,0,L|184:264,2,34.4999989471436,0|0|0,0:0|0:0|0:0,0:0:0:0:
144,152,10434,1,0,0:0:0:0:
248,185,10528,22,0,L|340:128,2,91.9999971923829,0|0|0,0:0|0:0|0:0,0:0:0:0:
248,275,10903,2,0,L|340:218,2,91.9999971923829,0|0|0,0:0|0:0|0:0,0:0:0:0:
336,310,11278,2,0,L|244:367,2,91.9999971923829,0|0|0,0:0|0:0|0:0,0:0:0:0:
216,304,11653,1,0,0:0:0:0:
177,319,11747,1,0,0:0:0:0:
139,303,11841,1,0,0:0:0:0:
123,265,11934,1,0,0:0:0:0:
137,225,12028,6,0,L|80:140,1,68.9999978942872
204,132,12215,1,0,0:0:0:0:
220,104,12309,1,0,0:0:0:0:
236,76,12403,2,0,L|296:44,1,68.9999978942872
272,264,12590,1,0,0:0:0:0:
288,236,12684,1,0,0:0:0:0:
304,208,12778,54,0,L|364:176,1,68.9999978942872
174,198,13153,1,0,0:0:0:0:
172,240,13246,1,0,0:0:0:0:
141,268,13341,1,0,0:0:0:0:
100,267,13434,1,0,0:0:0:0:
69,238,13528,70,0,L|-31:255,1,68.9999978942872
112,156,13715,1,0,0:0:0:0:
88,128,13809,1,0,0:0:0:0:
64,100,13903,2,0,L|-4:64,1,68.9999978942872
264,132,14090,1,0,0:0:0:0:
240,104,14184,1,0,0:0:0:0:
216,76,14278,2,0,P|136:48|64:104,1,137.999995788574
304,280,14653,21,0,0:0:0:0:
280,252,14747,1,0,0:0:0:0:
256,224,14841,2,0,L|188:188,1,68.9999978942872
116,216,15028,6,0,P|172:232|184:248,1,57.5
328,124,15403,2,0,P|356:92|388:88,1,57.5
248,256,15778,2,0,P|272:296|352:312,1,115
392,192,16340,85,0,0:0:0:0:
264,92,16528,22,0,P|200:156|124:148,1,143.75
324,200,16903,2,0,P|432:260|448:328,1,143.75
216,264,17278,2,0,P|160:320|72:320,1,143.75
278,338,17653,1,0,0:0:0:0:
312,352,17746,1,0,0:0:0:0:
345,338,17840,1,0,0:0:0:0:
358,305,17934,1,0,0:0:0:0:
345,271,18028,6,0,P|344:168|412:128,1,143.75
232,224,18309,1,0,0:0:0:0:
232,224,18403,2,0,P|144:296|144:344,1,143.75
145,166,18778,1,0,0:0:0:0:
310,115,18965,1,0,0:0:0:0:
340,133,19059,1,0,0:0:0:0:
371,149,19153,2,0,L|392:240,1,71.875
265,198,19340,2,0,P|191:255|185:277,1,71.875
289,296,19528,6,0,P|383:291|441:334,1,143.75
337,212,19903,1,0,0:0:0:0:
191,246,20090,1,0,0:0:0:0:
165,220,20184,1,0,0:0:0:0:
138,195,20278,2,0,L|140:118,1,71.875
322,265,20465,1,0,0:0:0:0:
296,239,20559,1,0,0:0:0:0:
269,214,20653,2,0,L|271:137,1,71.875
355,104,20840,2,0,L|353:181,1,71.875
198,118,21028,6,0,P|137:168|166:265,1,143.75
246,184,21403,2,0,P|307:134|278:37,1,143.75
289,225,21778,1,0,0:0:0:0:
255,238,21871,1,0,0:0:0:0:
222,225,21965,1,0,0:0:0:0:
209,191,22059,1,0,0:0:0:0:
218,156,22153,1,0,0:0:0:0:
205,123,22247,1,0,0:0:0:0:
171,109,22341,1,0,0:0:0:0:
138,122,22434,1,0,0:0:0:0:
117,151,22528,54,0,P|127:215|58:264,1,143.75
196,249,22903,1,0,0:0:0:0:
196,249,23090,1,0,0:0:0:0:
222,225,23184,1,0,0:0:0:0:
248,200,23278,2,0,L|208:124,1,71.875
381,261,23465,1,0,0:0:0:0:
407,237,23559,1,0,0:0:0:0:
433,212,23653,2,0,L|393:136,1,71.875
304,137,23840,2,0,L|344:213,1,71.875
170,115,24028,6,0,P|91:167|118:243,1,143.75
251,82,24403,1,0,0:0:0:0:
164,188,24590,1,0,0:0:0:0:
192,208,24684,1,0,0:0:0:0:
228,220,24778,1,0,0:0:0:0:
264,220,24871,1,0,0:0:0:0:
300,208,24965,2,0,P|356:188|432:272,1,143.75
356,260,25340,1,0,0:0:0:0:
368,120,25528,6,0,B|416:96|444:80|276:96,1,143.75
172,64,25903,1,0,0:0:0:0:
188,96,25996,1,0,0:0:0:0:
220,116,26090,1,0,0:0:0:0:
256,124,26184,1,0,0:0:0:0:
290,109,26278,1,0,0:0:0:0:
324,96,26371,1,0,0:0:0:0:
357,109,26465,1,0,0:0:0:0:
370,142,26559,1,0,0:0:0:0:
406,137,26653,1,0,0:0:0:0:
440,124,26746,1,0,0:0:0:0:
473,137,26840,2,0,L|488:188,3,35.9375,0|0|0|0,0:0|0:0|0:0|0:0,0:0:0:0:
452,200,27028,37,0,0:0:0:0:
412,224,27153,1,0,0:0:0:0:
364,224,27278,1,0,0:0:0:0:
320,196,27403,1,0,0:0:0:0:
288,152,27528,1,0,0:0:0:0:
288,112,27653,1,0,0:0:0:0:
252,96,27778,6,0,P|156:88|116:140,1,137.999995788574
228,176,28340,2,0,L|208:196,3,17.2499994735718,0|0|0|0,0:0|0:0|0:0|0:0,0:0:0:0:
216,196,28528,85,0,0:0:0:0:
280,192,28715,1,0,0:0:0:0:
308,204,28809,1,0,0:0:0:0:
332,228,28903,2,0,P|348:328|376:328,1,126.500003860474
250,293,29278,1,0,0:0:0:0:
230,316,29372,1,0,0:0:0:0:
200,332,29466,2,0,P|99:316|91:342,1,126.500003860474
216,216,29840,1,0,0:0:0:0:
384,64,30028,6,0,P|320:116|240:108,1,126.500003860474
112,108,30403,1,0,0:0:0:0:
100,136,30496,1,0,0:0:0:0:
108,168,30590,1,0,0:0:0:0:
136,188,30684,1,0,0:0:0:0:
156,212,30778,2,0,P|200:292|200:348,1,126.500003860474
296,260,31153,2,0,P|336:208|360:200,1,63.2500019302369
316,188,31340,2,0,L|264:180,3,31.6250009651184,0|0|0|0,0:0|0:0|0:0|0:0,0:0:0:0:
272,172,31528,86,0,P|180:136|136:168,1,126.500003860474
152,160,31809,2,0,P|128:224|8:228,1,189.750005790711
232,260,32278,2,0,B|264:276|284:288|296:280|336:272|308:328|308:328|372:280|372:280|452:328,1,253.000007720947
336,208,32840,1,0,0:0:0:0:
264,116,33028,6,0,B|172:164|160:112|160:112|116:196|128:232,1,230
220,240,33965,1,0,0:0:0:0:
272,104,34153,2,0,L|304:88,7,31.6250009651184,0|0|0|0|0|0|0|0,0:0|0:0|0:0|0:0|0:0|0:0|0:0|0:0,0:0:0:0:
180,184,37528,6,0,P|232:104|216:32,1,126.500003860474
280,208,37903,2,0,P|340:272|408:288,1,137.999995788574
216,256,38278,2,0,P|156:320|64:308,1,137.999995788574
384,284,38653,1,0,0:0:0:0:
352,297,38746,1,0,0:0:0:0:
320,283,38840,1,0,0:0:0:0:
307,252,38934,1,0,0:0:0:0:
320,220,39028,6,0,P|368:144|320:64,1,137.999995788574
200,60,39403,2,0,B|220:140|304:148|304:148,1,137.999995788574
232,222,39778,1,0,0:0:0:0:
240,256,39871,1,0,0:0:0:0:
221,284,39965,1,0,0:0:0:0:
187,292,40059,1,0,0:0:0:0:
158,273,40153,2,0,P|112:192|40:212,1,137.999995788574
204,120,40528,6,0,P|284:136|332:64,1,137.999995788574
360,220,40903,1,0,0:0:0:0:
256,68,41090,1,0,0:0:0:0:
224,208,41278,1,0,0:0:0:0:
204,236,41371,1,0,0:0:0:0:
184,264,41465,2,0,L|100:268,1,68.9999978942872
356,260,41653,1,0,0:0:0:0:
336,288,41746,1,0,0:0:0:0:
316,316,41840,2,0,L|232:320,1,68.9999978942872
392,80,42028,6,0,P|344:160|380:200,1,115
248,108,42403,2,0,P|176:160|108:156,1,137.999995788574
288,208,42778,2,0,P|400:252|408:320,1,137.999995788574
136,236,43153,22,0,P|164:280|212:292,2,61.3333333333333,0|0|0,0:0|0:0|0:0,0:0:0:0:
388,96,43528,22,0,P|464:192|436:232,1,143.75
352,296,43903,2,0,P|352:224|404:168,1,143.75
368,148,44184,2,0,L|288:76,1,71.875
292,240,44371,1,0,0:0:0:0:
264,220,44465,1,0,0:0:0:0:
232,200,44559,2,0,L|178:152,1,71.875
276,52,44840,2,0,P|312:148|240:168,1,143.75
160,136,45262,70,0,L|136:100,3,35.9375,0|0|0|0,0:0|0:0|0:0|0:0,0:0:0:0:
200,288,45637,2,0,L|164:312,3,35.9375,0|0|0|0,0:0|0:0|0:0|0:0,0:0:0:0:
352,248,46012,2,0,L|376:284,3,35.9375,0|0|0|0,0:0|0:0|0:0|0:0,0:0:0:0:
312,96,46387,1,0,0:0:0:0:
304,208,46528,54,0,P|368:180|420:100,2,95.8333333333333,0|0|0,0:0|0:0|0:0,0:0:0:0:
272,144,46903,2,0,P|244:80|164:28,2,95.8333333333333,0|0|0,0:0|0:0|0:0,0:0:0:0:
208,176,47278,2,0,P|144:204|92:284,2,95.8333333333333,0|0|0,0:0|0:0|0:0,0:0:0:0:
240,240,47653,2,0,P|268:304|348:356,2,95.8333333333333,0|0|0,0:0|0:0|0:0,0:0:0:0:
256,192,48028,12,0,49528,0:0:0:0:
352,108,49715,53,0,0:0:0:0:
340,140,49809,1,0,0:0:0:0:
328,176,49903,2,0,P|392:280|460:260,2,143.75,0|0|0,0:0|0:0|0:0,0:0:0:0:
240,108,50465,1,0,0:0:0:0:
208,92,50559,1,0,0:0:0:0:
172,92,50653,2,0,P|116:180|56:208,2,143.75,0|0|0,0:0|0:0|0:0,0:0:0:0:
200,220,51215,2,0,B|288:212|328:280|328:280|456:280|456:280|408:176|344:184,1,431.25
412,96,51903,1,0,0:0:0:0:
284,136,52059,1,0,0:0:0:0:
320,288,52340,1,0,0:0:0:0:
220,224,52528,70,0,P|120:276|64:252,1,143.75
276,296,52903,1,0,0:0:0:0:
304,317,52996,1,0,0:0:0:0:
337,330,53090,1,0,0:0:0:0:
373,335,53184,1,0,0:0:0:0:
408,330,53278,2,0,P|452:232|500:216,1,143.75
360,196,53653,2,0,P|304:120|264:116,2,71.875,0|0|0,0:0|0:0|0:0,0:0:0:0:
256,200,54028,2,0,B|92:200|92:200|160:132|40:92,1,287.5
204,296,54590,21,0,0:0:0:0:
231,319,54683,1,0,0:0:0:0:
264,333,54777,1,0,0:0:0:0:
299,336,54871,1,0,0:0:0:0:
334,328,54965,2,0,B|380:248|380:248|296:256|172:152,1,287.5
256,192,55528,12,0,58528,0:0:0:0:
296,232,61528,6,0,P|392:156|368:80,2,215.625,0|0|0,0:0|0:0|0:0,0:0:0:0:
320,128,63028,2,0,P|176:80|88:136,2,215.625,0|0|0,0:0|0:0|0:0,0:0:0:0:
214,263,64528,1,0,0:0:0:0:
214,120,64809,1,0,0:0:0:0:
338,192,65090,1,0,0:0:0:0:
184,233,65278,1,0,0:0:0:0:
256,109,65559,1,0,0:0:0:0:
327,233,65840,1,0,0:0:0:0:
408,88,66028,5,0,0:0:0:0:
384,114,66121,1,0,0:0:0:0:
352,130,66215,1,0,0:0:0:0:
316,134,66309,1,0,0:0:0:0:
281,129,66403,1,0,0:0:0:0:
247,121,66496,1,0,0:0:0:0:
228,151,66590,1,0,0:0:0:0:
209,182,66684,1,0,0:0:0:0:
191,213,66778,1,0,0:0:0:0:
200,248,66871,1,0,0:0:0:0:
229,228,66965,1,0,0:0:0:0:
265,232,67059,1,0,0:0:0:0:
299,242,67153,1,0,0:0:0:0:
333,256,67246,1,0,0:0:0:0:
365,272,67340,1,0,0:0:0:0:
395,291,67434,1,0,0:0:0:0:
425,312,67528,6,0,L|312:344,1,71.875,0|0,0:0|0:0,0:0:0:0:
228,256,67715,2,0,L|341:224,1,71.875,0|0,0:0|0:0,0:0:0:0:
276,324,67903,2,0,L|162:355,1,71.875,0|0,0:0|0:0,0:0:0:0:
78,267,68090,2,0,L|191:235,1,71.875,0|0,0:0|0:0,0:0:0:0:
88,176,68278,2,0,L|201:144,1,71.875,0|0,0:0|0:0,0:0:0:0:
285,232,68465,2,0,L|171:263,1,71.875,0|0,0:0|0:0,0:0:0:0:
237,164,68653,2,0,L|350:132,1,71.875,0|0,0:0|0:0,0:0:0:0:
435,221,68840,2,0,L|321:252,1,71.875,0|0,0:0|0:0,0:0:0:0:
256,192,69028,12,0,71278,0:0:0:0:
256,192,71653,5,0,0:0:0:0:
412,136,72028,2,0,P|360:212|376:292,1,143.75
272,180,72309,1,0,0:0:0:0:
252,152,72403,2,0,P|164:108|84:136,1,143.75
280,280,72778,2,0,P|368:232|424:252,1,143.75
240,192,73153,1,0,0:0:0:0:
212,212,73246,1,0,0:0:0:0:
176,216,73340,1,0,0:0:0:0:
140,208,73434,1,0,0:0:0:0:
112,184,73528,54,0,P|80:112|4:108,1,143.75
208,120,73996,1,0,0:0:0:0:
216,260,74278,2,0,B|292:216|300:216|268:340|376:360,1,215.625
388,336,74653,2,0,P|396:216|464:180,1,143.75
288,120,75028,70,0,B|156:120|156:120|208:164|76:208,1,275.999991577149,0|0,0:0|0:0,2:0:0:0:
372,184,76153,1,0,2:0:0:0:
316,272,76574,6,0,B|232:272|232:272|276:216|252:200,1,137.999995788574,0|0,0:0|0:0,2:0:0:0:
168,160,77184,2,0,L|120:192,1,34.4999989471436,0|0,0:0|0:0,2:0:0:0:
304,128,77559,2,0,L|312:80,1,34.4999989471436,0|0,0:0|0:0,2:0:0:0:
244,256,77840,1,0,2:0:0:0:
328,232,78028,70,0,P|320:308|328:324,1,68.9999978942872,0|0,0:0|0:0,2:0:0:0:
232,196,78403,1,0,2:0:0:0:
212,168,78496,1,0,2:0:0:0:
216,132,78590,1,0,2:0:0:0:
236,104,78684,1,0,2:0:0:0:
264,84,78778,2,0,P|304:120|348:112,1,68.9999978942872,0|0,0:0|0:0,2:0:0:0:
184,200,79153,2,0,P|144:164|100:172,1,68.9999978942872,0|0,0:0|0:0,2:0:0:0:
176,312,79528,6,0,B|208:288|208:288|240:296,1,68.9999978942872,0|0,0:0|0:0,2:0:0:0:
344,328,79903,1,0,2:0:0:0:
336,212,80090,2,0,B|288:156|288:156|288:156|288:156,1,68.9999978942872
224,116,80465,1,0,0:0:0:0:
224,212,80653,1,0,0:0:0:0:
152,164,80840,2,0,P|92:168|64:192,1,68.9999978942872
224,308,81590,2,0,P|260:300|296:304,1,68.9999978942872
160,184,82528,22,0,P|224:136|232:80,1,103.499996841431
388,256,82903,2,0,P|312:192|276:200,1,103.499996841431
392,116,83278,2,0,P|464:72|496:96,1,103.499996841431
460,232,83653,1,0,0:0:0:0:
437,219,83746,1,0,0:0:0:0:
413,210,83840,1,0,0:0:0:0:
387,207,83934,1,0,0:0:0:0:
360,208,84028,6,0,P|280:256|240:244,1,103.499996841431
132,168,84403,2,0,P|208:116|216:60,1,103.499996841431
316,244,84684,1,0,0:0:0:0:
316,244,84778,2,0,P|276:304|312:344,1,103.499996841431
204,280,85153,2,0,P|132:312|96:284,1,103.499996841431
256,192,85528,12,0,86278,0:0:0:0:
372,64,87028,6,0,P|312:104|304:180,1,126.500003860474
176,168,87403,1,0,0:0:0:0:
168,200,87496,1,0,0:0:0:0:
172,232,87590,1,0,0:0:0:0:
188,260,87684,1,0,0:0:0:0:
216,280,87778,2,0,P|272:296|320:352,1,126.500003860474
340,248,88153,2,0,P|344:176|392:148,1,126.500003860474
256,192,88528,12,0,89653,0:0:0:0:
252,92,90028,6,0,P|332:116|368:224,1,143.75
320,304,90403,2,0,P|304:224|228:220,1,143.75
144,168,90778,2,0,P|180:227|161:295,1,143.75
288,236,91153,1,0,0:0:0:0:
320,216,91246,1,0,0:0:0:0:
356,204,91340,1,0,0:0:0:0:
392,200,91434,1,0,0:0:0:0:
428,208,91528,86,0,P|464:124|392:84,1,143.75
272,144,91903,2,0,P|332:124|368:48,1,143.75
344,236,92278,2,0,P|216:208|176:152,1,143.75
228,312,92653,1,0,0:0:0:0:
196,324,92746,1,0,0:0:0:0:
160,324,92840,1,0,0:0:0:0:
124,312,92934,1,0,0:0:0:0:
96,292,93028,70,0,P|144:200|96:148,1,143.75
236,240,93403,2,0,P|296:200|392:200,1,143.75
336,284,93778,2,0,P|260:324|176:300,1,143.75
224,212,94153,1,0,0:0:0:0:
256,200,94246,1,0,0:0:0:0:
288,184,94340,1,0,0:0:0:0:
312,160,94434,1,0,0:0:0:0:
332,128,94528,6,0,P|444:112|480:172,1,143.75
400,244,94903,1,0,0:0:0:0:
304,316,95090,1,0,0:0:0:0:
276,296,95184,1,0,0:0:0:0:
248,276,95278,2,0,L|232:136,1,71.875
400,260,95465,1,0,0:0:0:0:
372,240,95559,1,0,0:0:0:0:
344,220,95653,2,0,L|328:80,1,71.875
240,128,95840,2,0,L|256:268,1,71.875
76,300,96028,6,0,P|156:272|248:336,1,143.75
304,332,96309,1,0,0:0:0:0:
336,316,96403,2,0,P|404:252|380:168,1,143.75
256,184,96778,1,0,0:0:0:0:
231,201,96871,1,0,0:0:0:0:
200,205,96965,1,0,0:0:0:0:
172,194,97059,1,0,0:0:0:0:
144,184,97153,1,0,0:0:0:0:
137,213,97246,1,0,0:0:0:0:
145,243,97340,1,0,0:0:0:0:
165,265,97434,1,0,0:0:0:0:
192,284,97528,6,0,P|268:268|320:324,1,143.75
388,272,97809,1,0,0:0:0:0:
368,240,97903,2,0,L|320:172,1,71.875
392,104,98090,2,0,L|440:172,1,71.875
288,108,98278,2,0,P|172:72|120:120,1,143.75
180,184,98653,1,0,0:0:0:0:
212,200,98746,1,0,0:0:0:0:
236,228,98840,1,0,0:0:0:0:
248,260,98934,1,0,0:0:0:0:
272,288,99028,6,0,L|404:324,1,71.875
452,260,99215,2,0,L|320:224,1,71.875,0|0,0:0|0:0,0:0:0:0:
228,196,99403,2,0,L|360:232,1,71.875
408,168,99590,2,0,L|276:132,1,71.875,0|0,0:0|0:0,0:0:0:0:
184,104,99778,2,0,L|316:140,1,71.875
364,76,99965,2,0,L|232:40,1,71.875,0|0,0:0|0:0,0:0:0:0:
256,132,100153,2,0,P|260:228|224:280,1,143.75
344,244,100528,6,0,L|392:224,4,35.9375,0|0|0|0|0,0:0|0:0|0:0|0:0|0:0,0:0:0:0:
256,192,100903,12,0,101653,0:0:0:0:
