osu file format v14

[General]
AudioFilename: audio.mp3
AudioLeadIn: 0
PreviewTime: -1
Countdown: 1
SampleSet: Normal
StackLeniency: 0.7
Mode: 0
LetterboxInBreaks: 1
EpilepsyWarning: 1
WidescreenStoryboard: 1

[Editor]
DistanceSpacing: 0.8
BeatDivisor: 4
GridSize: 4
TimelineZoom: 1

[Metadata]
Title:Aleph-0
TitleUnicode:ℵ0
Artist:LeaF
ArtistUnicode:LeaF
Creator:OwOwWhatsThis
Version:azertyuiop lmao
Source:bofu
Tags:optie bofue bmsoffighters aspire2019 lol
BeatmapID:1689439
BeatmapSetID:804768

[Difficulty]
HPDrainRate:10
CircleSize:3
OverallDifficulty:10
ApproachRate:10
SliderMultiplier:1.4
SliderTickRate:4

[Events]
//Background and Video events
0,0,"theres no math.jpg",0,0
//Break Periods
//Storyboard Layer 0 (Background)
//Storyboard Layer 1 (Fail)
//Storyboard Layer 2 (Pass)
//Storyboard Layer 3 (Foreground)
//Storyboard Sound Samples

[TimingPoints]
-1,1E+90,4,1,0,20,1,0
6696,963.855421686747,4,1,0,20,1,0
7656,1440,4,1,0,20,1,0
9096,240,4,1,0,20,1,0
11496,240,4,1,0,20,1,0
11976,-133.333333333333,4,1,0,20,0,0
12456,-100,4,1,0,20,0,0
14856,-80,4,1,0,20,0,0
15336,-100,4,1,0,20,0,0
16656,-133.333333333333,4,1,0,20,0,0
17016,-100,4,1,0,20,0,0
17736,-86.9565217391304,4,1,0,20,0,0
17976,-100,4,1,0,20,0,0
20136,-86.9565217391304,4,1,0,20,0,0
20856,-100,4,1,0,20,0,0
21576,-80,4,1,0,20,0,0
22536,-74.0740740740741,4,1,0,20,0,0
23016,-95.2380952380952,4,1,0,20,0,0
23496,-84.0336134453781,4,1,0,20,0,0
23736,-86.9565217391304,4,1,0,20,0,0
23976,-100,4,1,0,20,0,0
24696,-90.9090909090909,4,1,0,20,0,0
25656,-111.111111111111,4,1,0,20,0,0
25896,-90.9090909090909,4,1,0,20,0,0
26856,428.571428571429,16,1,0,20,1,0
26856,-303.030303030303,16,1,0,20,0,0
40570,1E+90,4,1,0,20,1,0
40570,-303.030303030303,16,1,0,20,0,0
41421,5663,2,1,0,20,1,0
47084,240,4,1,0,20,1,1
47319,239.043824701195,4,1,0,20,1,1
47558,238.095238095238,4,1,0,20,1,1
47796,237.154150197628,4,1,0,20,1,1
48033,236.220472440945,4,1,0,20,1,1
48269,235.294117647059,4,1,0,20,1,1
48504,234.375,4,1,0,20,1,1
48504,-111.111111111111,4,1,0,20,0,1
48738,233.463035019455,4,1,0,20,1,1
48971,232.558139534884,4,1,0,20,1,1
49203,231.660231660232,4,1,0,20,1,1
49434,230.769230769231,4,1,0,20,1,1
49664,229.885057471264,4,1,0,20,1,1
49893,1E-46,4,1,0,20,1,1
50122,1E-46,4,1,0,20,1,1
50350,1E-46,4,1,0,20,1,1
50577,1E-46,4,1,0,20,1,1
50804,225.563909774436,4,1,0,20,1,1
51029,224.719101123595,4,1,0,20,1,1
51029,-125,4,1,0,20,0,1
51253,223.880597014925,4,1,0,20,1,1
51476,223.048327137546,4,1,0,20,1,1
51699,222.222222222222,4,1,0,20,1,1
51921,221.40221402214,4,1,0,20,1,1
52142,220.588235294118,4,1,0,20,1,1
52362,219.78021978022,4,1,0,20,1,1
52581,218.978102189781,4,1,0,20,1,1
52581,-100,4,1,0,20,0,1
52799,218.181818181818,4,1,0,20,1,1
53017,217.391304347826,4,1,0,20,1,1
53234,216.606498194946,4,1,0,20,1,1
53450,1E-46,4,1,0,20,1,1
53665,1E-46,4,1,0,20,1,1
53880,1E-46,4,1,0,20,1,1
54094,1E-46,4,1,0,20,1,1
54309,212.765957446809,4,1,0,20,1,1
54521,212.014134275618,4,1,0,20,1,1
54733,211.267605633803,4,1,0,20,1,1
54733,-133.333333333333,4,1,0,20,0,1
54944,210.526315789474,4,1,0,20,1,1
55049,-111.111111111111,4,1,0,20,0,1
55154,209.79020979021,4,1,0,20,1,1
55363,209.059233449477,4,1,0,20,1,1
55572,208.333333333333,4,1,0,20,1,1
55572,-100,4,1,0,20,0,1
55780,207.612456747405,4,1,0,20,1,1
55987,206.896551724138,4,1,0,20,1,1
56193,206.185567010309,4,1,0,20,1,1
56399,205.479452054795,4,1,0,20,1,1
56604,204.778156996587,4,1,0,20,1,1
56809,1E-46,4,1,0,20,1,1
57013,1E-46,4,1,0,20,1,1
57216,1E-46,4,1,0,20,1,1
57418,1E-46,4,1,0,20,1,1
57622,201.342281879195,4,1,0,20,1,1
57823,200.66889632107,4,1,0,20,1,1
58023,200,4,1,0,20,1,1
58223,199.335548172757,4,1,0,20,1,1
58223,-111.111111111111,4,1,0,20,0,1
58422,198.675496688742,4,1,0,20,1,1
58620,198.019801980198,4,1,0,20,1,1
58818,197.368421052632,4,1,0,20,1,1
58818,-117.647058823529,4,1,0,20,0,1
59015,196.72131147541,4,1,0,20,1,1
59212,196.078431372549,4,1,0,20,1,1
59212,-80,4,1,0,20,0,1
59408,195.439739413681,4,1,0,20,1,1
59603,194.805194805195,4,1,0,20,1,1
59797,194.174757281553,4,1,0,20,1,1
59991,1E-46,4,1,0,20,1,1
60184,1E-46,4,1,0,20,1,1
60376,1E-46,4,1,0,20,1,1
60568,1E-46,4,1,0,20,1,1
60761,191.082802547771,4,1,0,20,1,1
60952,190.47619047619,4,1,0,20,1,1
61142,189.873417721519,4,1,0,20,1,1
61333,189.274447949527,4,1,0,20,1,1
61522,188.679245283019,4,1,0,20,1,1
61710,188.087774294671,4,1,0,20,1,1
61710,-133.333333333333,4,1,0,20,0,1
61898,187.5,4,1,0,20,1,1
62085,186.915887850467,4,1,0,20,1,1
62273,186.335403726708,4,1,0,20,1,1
62273,-80,4,1,0,20,0,1
62459,185.758513931889,4,1,0,20,1,1
62644,185.185185185185,4,1,0,20,1,1
62829,184.615384615385,4,1,0,20,1,1
63015,1E-46,4,1,0,20,1,1
63199,1E-46,4,1,0,20,1,1
63382,1E-46,4,1,0,20,1,1
63564,1E-46,4,1,0,20,1,1
63753,181.818181818182,4,1,0,20,1,1
63934,181.268882175227,4,1,0,20,1,1
64115,180.722891566265,4,1,0,20,1,1
64295,180.18018018018,4,1,0,20,1,1
64475,179.640718562874,4,1,0,20,1,1
64654,179.10447761194,4,1,0,20,1,1
64833,178.571428571429,4,1,0,20,1,1
65011,178.041543026706,4,1,0,20,1,1
65193,177.514792899408,4,1,0,20,1,1
65193,-72.7272727272727,4,1,0,20,0,1
65370,176.991150442478,4,1,0,20,1,1
65546,176.470588235294,4,1,0,20,1,1
65722,175.953079178886,4,1,0,20,1,1
65897,1E-46,4,1,0,20,1,1
66072,1E-46,4,1,0,20,1,1
66246,1E-46,4,1,0,20,1,1
66420,1E-46,4,1,0,20,1,1
66595,173.410404624277,4,1,0,20,1,1
66768,172.910662824207,4,1,0,20,1,1
66940,172.413793103448,4,1,0,20,1,1
67112,171.919770773639,4,1,0,20,1,1
67283,171.428571428571,4,1,0,20,1,1
67454,170.940170940171,4,1,0,20,1,1
67624,170.454545454545,4,1,0,20,1,1
67624,-125,4,1,0,20,0,1
67794,169.971671388102,4,1,0,20,1,1
67969,169.491525423729,4,1,0,20,1,1
67969,-66.6666666666667,4,1,0,20,0,1
68137,169.014084507042,4,1,0,20,1,1
68306,168.539325842697,4,1,0,20,1,1
68476,168.067226890756,4,1,0,20,1,1
68644,1E-46,4,1,0,20,1,1
68811,1E-46,4,1,0,20,1,1
68978,1E-46,4,1,0,20,1,1
69144,1E-46,4,1,0,20,1,1
69319,165.745856353591,4,1,0,20,1,1
69484,165.289256198347,4,1,0,20,1,1
69484,-125,4,1,0,20,0,1
69649,164.835164835165,4,1,0,20,1,1
69813,164.383561643836,4,1,0,20,1,1
69981,163.934426229508,4,1,0,20,1,1
70144,163.487738419619,4,1,0,20,1,1
70307,163.04347826087,4,1,0,20,1,1
70470,162.60162601626,4,1,0,20,1,1
70632,162.162162162162,4,1,0,20,1,1
70632,-51.2820512820513,4,1,0,20,0,1
70794,161.725067385445,4,1,0,20,1,1
70955,161.290322580645,4,1,0,20,1,1
71116,160.857908847185,4,1,0,20,1,1
71276,1E-46,4,1,0,20,1,1
71436,1E-46,4,1,0,20,1,1
71596,1E-46,4,1,0,20,1,1
71755,1E-46,4,1,0,20,1,1
71924,158.730158730159,3,1,0,20,1,1
71924,-133.333333333333,3,1,0,20,0,1
72082,158.311345646438,3,1,0,20,1,1
72240,157.894736842105,3,1,0,20,1,1
72397,157.48031496063,3,1,0,20,1,1
72397,-133.333333333333,3,1,0,20,0,1
72554,157.068062827225,3,1,0,20,1,1
72711,156.657963446475,3,1,0,20,1,1
72867,156.25,3,1,0,20,1,1
72867,-133.333333333333,3,1,0,20,0,1
73023,155.844155844156,3,1,0,20,1,1
73178,155.440414507772,3,1,0,20,1,1
73333,155.038759689922,3,1,0,20,1,1
73333,-133.333333333333,3,1,0,20,0,1
73488,154.639175257732,3,1,0,20,1,1
73642,154.241645244216,3,1,0,20,1,1
73796,153.846153846154,3,1,0,20,1,1
73949,153.452685421995,3,1,0,20,1,1
74102,153.061224489796,3,1,0,20,1,1
74255,152.671755725191,3,1,0,20,1,1
74407,152.284263959391,3,1,0,20,1,1
74559,151.898734177215,3,1,0,20,1,1
74710,151.515151515152,3,1,0,20,1,1
74861,151.133501259446,3,1,0,20,1,1
75012,150.753768844221,3,1,0,20,1,1
75162,150.375939849624,3,1,0,20,1,1
75312,2400,4,1,0,20,1,0
77712,150,16,1,0,20,1,0
80112,3840,4,1,0,20,1,0
80112,-50,4,1,0,20,0,0
82032,240,4,1,0,20,1,0
89712,960,2,1,0,20,1,0
93552,480,4,1,0,20,1,0
108912,120,1,1,0,20,1,1
108912,-100,1,1,0,20,0,1
110832,960,2,1,0,20,1,0
110832,-100,4,1,0,20,0,0
111792,120,1,1,0,20,1,1
111792,-100,1,1,0,20,0,1
115632,480,4,1,0,20,1,0
115632,-100,4,1,0,20,0,0
116592,120,1,1,0,20,1,1
116592,-100,1,1,0,20,0,1
118512,480,4,1,0,20,1,0
118512,-100,4,1,0,20,0,0
119472,120,1,1,0,20,1,1
119472,-100,1,1,0,20,0,1
123312,480,4,1,0,20,1,0
123312,-100,4,1,0,20,0,0
124271,7679,1,1,0,20,1,0
124272,-66.711140760507,1,1,0,20,0,0
131950,-1E+90,1,1,0,5,1,0

[HitObjects]
44,100,6696,5,0,0:0:0:0:
276,132,6936,6,0,P|208:148|180:192,1,105
72,276,8016,2,0,P|112:312|188:292,1,105
300,268,9276,2,0,P|216:240|168:276,1,140
284,112,9576,1,0,0:0:0:0:
304,144,9636,1,0,0:0:0:0:
308,152,9696,1,0,0:0:0:0:
88,196,9756,1,0,0:0:0:0:
200,312,9816,1,0,0:0:0:0:
60,344,9876,1,0,0:0:0:0:
456,340,9936,1,0,0:0:0:0:
152,340,9996,1,0,0:0:0:0:
152,48,10056,1,0,0:0:0:0:
260,192,10116,1,0,0:0:0:0:
272,184,10176,1,0,0:0:0:0:
280,172,10236,1,0,0:0:0:0:
288,160,10296,1,0,0:0:0:0:
296,144,10356,1,0,0:0:0:0:
280,132,10416,1,0,0:0:0:0:
252,120,10476,1,0,0:0:0:0:
160,228,10536,1,0,0:0:0:0:
64,232,10596,1,0,0:0:0:0:
64,320,10656,1,0,0:0:0:0:
160,320,10716,1,0,0:0:0:0:
240,52,10776,6,8,P|156:104|184:144,1,175
456,192,11136,1,8,0:0:0:0:
0,172,11196,1,8,0:0:0:0:
464,336,11256,2,8,P|380:272|328:296,1,140
144,12,11556,1,8,0:0:0:0:
140,384,11616,1,8,0:0:0:0:
112,192,11676,2,8,P|56:176|32:248,1,140
124,308,11976,2,8,L|272:308,1,131.25000500679
464,76,12456,2,8,L|308:80,1,140
240,140,12816,2,8,L|212:236,1,70
320,224,13056,2,8,L|372:256,1,35
120,64,13176,1,8,0:0:0:0:
200,300,13236,1,8,0:0:0:0:
188,300,13296,1,0,0:0:0:0:
212,168,13356,1,0,0:0:0:0:
212,168,13416,1,0,0:0:0:0:
232,180,13476,1,0,0:0:0:0:
232,180,13536,1,0,0:0:0:0:
232,180,13596,1,0,0:0:0:0:
240,276,13656,1,0,0:0:0:0:
260,336,13716,1,0,0:0:0:0:
300,368,13776,1,0,0:0:0:0:
368,372,13836,1,0,0:0:0:0:
40,80,13956,5,0,0:0:0:0:
40,80,14016,1,0,0:0:0:0:
304,160,14076,1,0,0:0:0:0:
304,160,14136,1,0,0:0:0:0:
112,288,14196,1,0,0:0:0:0:
112,288,14256,1,0,0:0:0:0:
152,140,14316,1,0,0:0:0:0:
152,140,14376,1,0,0:0:0:0:
352,228,14436,1,0,0:0:0:0:
372,136,14496,1,0,0:0:0:0:
256,128,14556,1,0,0:0:0:0:
248,240,14616,1,0,0:0:0:0:
128,232,14676,1,0,0:0:0:0:
24,188,14796,2,0,L|-32:188,1,35
504,260,14916,2,0,L|556:264,1,43.75
276,64,15036,1,0,0:0:0:0:
268,76,15096,1,0,0:0:0:0:
256,92,15156,1,0,0:0:0:0:
236,120,15216,2,0,P|176:112|132:120,1,87.5
56,284,15456,2,0,P|92:344|112:336,1,105
308,176,15696,2,0,P|156:172|136:208,1,210
212,312,16116,2,0,L|208:260,1,35
428,240,16236,2,0,B|0:232|0:236|0:236|-12:-32,1,665
128,24,17496,2,0,P|160:60|252:68,2,140
288,88,19356,6,0,P|216:100|196:144,1,105
212,256,19596,2,0,P|116:280|68:208,1,175
360,128,19956,1,0,0:0:0:0:
352,236,20016,1,0,0:0:0:0:
324,300,20076,1,0,0:0:0:0:
212,172,20136,1,0,0:0:0:0:
260,72,20196,2,0,P|180:108|176:152,1,120.750002303124
180,264,20436,2,0,P|112:332|96:328,1,120.750002303124
116,188,20676,2,0,P|40:192|28:228,1,120.750002303124
260,208,20976,2,0,L|364:208,1,105
365,208,21216,2,0,L|384:164,1,35
384,168,21456,2,0,L|356:140,1,35
359,143,21636,2,0,L|392:112,1,43.75
390,113,21816,2,0,L|392:60,1,43.75
392,60,21996,2,0,P|248:120|256:264,1,306.25
240,56,22716,1,0,0:0:0:0:
168,56,22776,1,0,0:0:0:0:
164,188,22836,1,0,0:0:0:0:
176,344,22896,1,0,0:0:0:0:
120,344,22956,1,0,0:0:0:0:
412,348,23016,1,0,0:0:0:0:
408,136,23076,1,0,0:0:0:0:
28,136,23136,1,0,0:0:0:0:
256,292,23196,2,0,B|260:248|260:248|248:308|248:312|248:312|252:224,1,183.749994392395
251,237,23556,6,0,P|296:208|308:80,1,166.599996695252
318,102,23856,2,0,P|280:64|168:240,1,362.250006909371
164,240,24516,2,0,L|480:240,1,315
479,240,25176,2,0,L|384:240,1,77.0000023498536
160,264,25416,2,0,B|196:264|216:264|212:264|212:264|152:264|144:264|144:260|144:256|152:224|148:212|308:220,1,269.500008224488
320,208,25896,2,0,P|260:144|212:200,1,154.000004699707
184,160,26376,2,0,B|136:168|88:180|88:180|168:160|168:160|160:160|120:168|64:184|64:184|104:304,1,385.000011749268
104,288,27177,2,0,B|128:296|128:292|184:272,1,80.8499997532654
92,168,28034,1,0,0:0:0:0:
288,140,28141,1,14,3:3:0:0:
288,140,28248,1,14,3:3:0:0:
472,24,28677,1,8,3:3:0:0:
72,24,28784,1,8,3:3:0:0:
472,24,28891,1,8,3:3:0:0:
72,24,28998,1,8,3:3:0:0:
472,24,29106,1,8,3:3:0:0:
48,184,29427,2,8,P|84:136|124:120,1,103.94999968277
432,136,30498,2,8,B|404:136|404:136|404:96|404:96|408:136|408:140|456:136|456:136|448:96|448:32|448:32|320:28,1,381.149998836823
60,216,34141,2,8,P|72:320|168:324,1,219.449999330292
328,120,36391,2,0,B|272:116|180:256|180:256|328:112,1,404.249998766327
332,108,40248,2,0,L|308:104,1,23.0999999295044
236,156,41421,2,0,B|320:160|320:160|320:156,1,70
12,116,44252,1,0,3:3:0:0:
40,116,45668,1,0,3:3:0:0:
96,120,47144,2,0,P|88:168|140:272,1,140
140,272,47498,6,0,L|304:272,1,140
344,88,47855,1,0,3:3:0:0:
352,212,47914,1,0,3:3:0:0:
160,192,48092,1,0,3:3:0:0:
144,172,48151,1,0,3:3:0:0:
420,44,48210,2,0,P|280:60|276:64,1,140
252,160,48562,2,0,P|168:184|160:184,1,94.499997116089
124,152,48913,1,0,3:3:0:0:
128,256,48971,1,0,3:3:0:0:
312,256,49203,1,0,3:3:0:0:
344,28,49260,1,0,3:3:0:0:
308,264,49318,1,0,3:3:0:0:
344,28,49376,1,0,3:3:0:0:
72,232,49491,1,0,3:3:0:0:
240,136,49607,1,0,3:3:0:0:
264,216,49664,1,0,3:3:0:0:
280,232,49721,1,0,3:3:0:0:
292,240,49778,1,0,3:3:0:0:
296,248,49836,1,0,3:3:0:0:
64,72,49893,2,0,B|16:268|16:268|68:72|264:152,1,525
88,324,50122,2,0,B|232:324|232:324|232:84|232:84|500:80,1,630
500,88,50350,2,0,B|400:48|248:128|256:256,1,315
4,240,50577,2,0,L|212:228,1,175
104,144,50916,1,0,3:3:0:0:
360,164,51085,5,0,3:3:0:0:
288,280,51141,6,0,P|312:208|360:164,1,140
272,192,51531,6,0,P|208:260|164:252,1,140
252,96,52087,1,0,0:0:0:0:
256,368,52142,5,0,0:0:0:0:
412,368,52197,5,0,0:0:0:0:
116,364,52252,5,0,0:0:0:0:
428,356,52307,5,0,0:0:0:0:
96,352,52362,5,0,0:0:0:0:
448,340,52416,5,0,0:0:0:0:
72,328,52471,5,0,0:0:0:0:
464,308,52526,5,0,0:0:0:0:
64,288,52581,5,0,0:0:0:0:
460,260,52635,5,0,0:0:0:0:
80,244,52690,5,0,0:0:0:0:
436,224,52745,5,0,0:0:0:0:
100,208,52799,5,0,0:0:0:0:
448,168,52853,5,0,0:0:0:0:
76,160,52908,5,0,0:0:0:0:
416,120,52962,5,0,0:0:0:0:
52,120,53017,5,0,0:0:0:0:
96,72,53071,5,0,0:0:0:0:
360,80,53125,5,0,0:0:0:0:
136,40,53180,5,0,0:0:0:0:
320,36,53234,5,0,0:0:0:0:
184,96,53288,5,0,0:0:0:0:
272,112,53342,5,0,0:0:0:0:
192,180,53396,5,0,0:0:0:0:
48,364,53450,2,0,B|40:68|40:68|36:68|36:68|308:72|308:72|328:360,1,840
240,340,53665,2,0,B|132:56|144:40|304:28,1,420
280,104,53880,2,0,B|116:88|104:196|160:208,1,210
144,196,54094,2,0,P|220:80|328:408,1,805
40,264,54362,2,0,P|136:280|192:228,1,175
328,240,54680,2,0,P|424:236|464:240,1,105
460,240,54891,2,0,P|496:192|448:28,1,236.250009012223
80,80,55467,2,0,P|96:184|320:248,1,350
488,252,56038,2,0,P|500:132|208:160,1,525
56,232,56809,2,0,B|208:232|224:140|224:140|224:136|224:136|408:232|440:236|496:216|496:216|328:336|324:336|324:336|112:348|112:348|-20:352|-20:352|-24:-52|-24:-52|496:-52,1,1960
356,64,57013,2,0,B|500:80|488:116|488:116|508:252|508:256|392:248,1,350
380,260,57216,2,0,B|184:280|184:272|184:272|400:260,1,385
212,108,57418,2,0,B|128:244|528:156,1,385
316,208,57722,2,0,P|216:140|192:184,1,210
200,264,58073,2,0,P|116:208|144:132,1,175
144,140,58471,2,0,L|212:144,1,35
300,324,58620,2,0,L|212:328,1,70
72,240,58818,2,0,P|88:192|152:156,1,119.000002269745
160,160,59261,6,0,L|224:160,1,43.75
240,240,59456,6,0,L|188:240,1,35
96,292,59603,6,0,L|180:296,1,70
312,324,59749,6,0,P|328:248|316:232,1,105
112,136,59942,6,0,L|240:144,1,105
264,232,59991,6,0,B|628:216|628:216|648:396|648:396|640:396|-184:408|-184:408|-184:44|-184:44|428:56,1,2345
340,96,60184,2,0,P|308:360|484:252,1,595
484,264,60376,2,0,P|168:144|112:240,1,525
112,240,60568,2,0,L|576:196,1,455
416,104,60856,2,0,P|272:256|392:244,1,525
124,220,61710,1,0,0:0:0:0:
124,220,61757,1,0,0:0:0:0:
124,220,61804,1,0,0:0:0:0:
124,220,61851,1,0,0:0:0:0:
124,220,61898,1,0,0:0:0:0:
124,220,61944,1,0,0:0:0:0:
124,220,61991,1,0,0:0:0:0:
416,220,62038,1,0,0:0:0:0:
416,220,62085,1,0,0:0:0:0:
416,220,62178,1,0,0:0:0:0:
72,84,62225,1,0,0:0:0:0:
104,304,62271,1,0,0:0:0:0:
104,304,62319,1,0,0:0:0:0:
104,304,62412,1,0,0:0:0:0:
408,80,62505,1,0,0:0:0:0:
408,80,62551,1,0,0:0:0:0:
200,312,62598,1,0,0:0:0:0:
200,312,62644,1,0,0:0:0:0:
104,48,62690,5,2,0:0:0:0:
424,296,62736,1,2,0:0:0:0:
96,60,62782,1,2,0:0:0:0:
208,128,62875,1,2,0:0:0:0:
400,304,62921,1,2,0:0:0:0:
168,260,62967,2,2,P|120:280|160:336,1,140
136,192,63199,2,4,B|264:184|348:184|288:184,1,175
496,136,63382,2,4,B|32:112|8:160|60:192|588:240|612:236|92:240,1,1015
92,276,63564,6,8,P|404:192|96:72,1,840
144,96,63753,5,0,0:0:0:0:
144,96,63798,5,0,0:0:0:0:
144,96,63843,5,0,0:0:0:0:
144,96,63889,5,0,0:0:0:0:
144,96,63934,5,0,0:0:0:0:
144,96,63979,5,0,0:0:0:0:
272,216,64024,5,0,0:0:0:0:
156,236,64069,5,0,0:0:0:0:
308,236,64115,5,0,0:0:0:0:
188,256,64160,5,0,0:0:0:0:
344,256,64205,5,0,0:0:0:0:
236,280,64250,5,0,0:0:0:0:
192,312,64295,5,0,0:0:0:0:
316,304,64340,5,0,0:0:0:0:
168,324,64385,5,0,0:0:0:0:
128,152,64430,5,0,0:0:0:0:
132,256,64475,5,0,0:0:0:0:
300,232,64519,5,0,0:0:0:0:
312,160,64564,5,0,0:0:0:0:
112,164,64609,5,0,0:0:0:0:
120,288,64654,5,0,0:0:0:0:
396,252,64698,5,0,0:0:0:0:
400,152,64743,5,0,0:0:0:0:
404,60,64833,5,0,0:0:0:0:
160,176,64877,6,0,L|100:176,1,35
140,320,64966,6,0,L|264:332,1,105
204,116,65237,1,0,0:0:0:0:
208,132,65281,1,0,0:0:0:0:
200,200,65326,1,0,0:0:0:0:
196,212,65370,1,0,0:0:0:0:
356,272,65414,1,0,0:0:0:0:
368,288,65458,1,0,0:0:0:0:
332,288,65502,1,0,0:0:0:0:
104,156,65546,1,0,0:0:0:0:
80,156,65590,1,0,0:0:0:0:
80,144,65634,1,0,0:0:0:0:
464,80,65722,1,0,0:0:0:0:
492,80,65765,1,0,0:0:0:0:
484,20,65809,1,0,0:0:0:0:
196,248,65853,6,0,B|212:188|212:188|192:272,1,140
332,264,66072,2,0,B|428:280|428:284|428:284|296:260,1,210
164,68,66246,2,0,B|160:348|160:348|72:336|-32:328|-44:328|-48:332|-48:336|-48:336|192:284|456:312|532:328,1,1050
376,92,66420,2,0,B|152:144|364:112|364:108|364:108|328:264,1,350
232,16,66768,2,0,P|68:108|184:192,1,385
332,240,67325,2,0,L|196:252,1,105
264,104,67539,1,0,0:0:0:0:
240,164,67582,1,0,0:0:0:0:
308,204,67624,1,0,0:0:0:0:
288,208,67666,1,0,0:0:0:0:
212,248,67709,1,0,0:0:0:0:
200,256,67751,1,0,0:0:0:0:
392,292,67794,1,0,0:0:0:0:
384,308,67836,1,0,0:0:0:0:
44,280,67878,1,0,0:0:0:0:
364,288,67921,1,0,0:0:0:0:
332,28,67963,1,0,0:0:0:0:
340,328,68011,1,0,0:0:0:0:
144,336,68053,1,0,0:0:0:0:
148,252,68096,1,0,0:0:0:0:
176,252,68137,1,0,0:0:0:0:
180,240,68179,1,0,0:0:0:0:
268,172,68221,1,0,0:0:0:0:
372,272,68263,1,0,0:0:0:0:
148,36,68306,6,0,P|44:60|56:136,1,175
288,148,68560,2,0,P|320:264|256:288,1,210
352,256,68978,2,0,L|20:260,1,315
36,264,69144,2,0,P|36:116|132:112,1,245
124,112,69401,2,0,B|84:172|100:180|100:180,1,105
60,176,69731,1,0,0:0:0:0:
216,224,69772,1,0,0:0:0:0:
28,152,69813,1,0,0:0:0:0:
244,224,69854,1,0,0:0:0:0:
16,104,69895,1,0,0:0:0:0:
280,208,69936,1,0,0:0:0:0:
48,88,69977,1,0,0:0:0:0:
280,168,70021,1,0,0:0:0:0:
40,40,70062,1,0,0:0:0:0:
324,160,70103,1,0,0:0:0:0:
96,32,70144,1,0,0:0:0:0:
356,216,70184,1,0,0:0:0:0:
136,64,70225,1,0,0:0:0:0:
404,304,70266,1,0,0:0:0:0:
96,260,70307,1,0,0:0:0:0:
368,120,70347,1,0,0:0:0:0:
216,312,70388,1,0,0:0:0:0:
220,96,70429,1,0,0:0:0:0:
432,188,70470,1,0,0:0:0:0:
272,112,70672,6,0,P|180:104|200:268,1,273.000001041412
24,20,70874,1,0,0:0:0:0:
24,20,70915,1,0,0:0:0:0:
504,376,70955,1,0,0:0:0:0:
504,376,70995,1,0,0:0:0:0:
8,80,71035,1,0,0:0:0:0:
8,80,71075,1,0,0:0:0:0:
496,312,71116,1,0,0:0:0:0:
496,312,71156,1,0,0:0:0:0:
8,144,71196,1,0,0:0:0:0:
8,144,71236,1,0,0:0:0:0:
272,196,71276,2,0,B|464:196|464:196|456:-56|456:-56|576:-52|576:-52|576:380|576:380|-184:360|-184:360|-176:-48|-176:-48|456:-40,1,2765
232,240,71436,2,0,B|412:168|420:172|416:168|80:184,1,455
84,184,71596,2,0,B|456:176|456:176|220:220,1,595
280,216,71755,2,0,P|240:212|360:308,1,560
172,152,72082,2,0,B|228:164|84:328|-40:320,1,280
360,84,72515,1,0,0:0:0:0:
360,84,72554,1,0,0:0:0:0:
360,84,72593,1,0,0:0:0:0:
360,84,72632,1,0,0:0:0:0:
288,104,72671,1,0,0:0:0:0:
416,200,72711,1,0,0:0:0:0:
208,212,72750,1,0,0:0:0:0:
360,252,72789,1,0,0:0:0:0:
132,72,72906,5,0,0:0:0:0:
272,76,72945,1,0,0:0:0:0:
120,96,72984,1,0,0:0:0:0:
240,108,73023,1,0,0:0:0:0:
256,248,73061,1,0,0:0:0:0:
424,248,73100,1,0,0:0:0:0:
280,272,73139,1,0,0:0:0:0:
440,280,73178,1,0,0:0:0:0:
116,316,73216,1,0,0:0:0:0:
12,312,73255,1,0,0:0:0:0:
96,336,73294,1,0,0:0:0:0:
4,344,73333,1,0,0:0:0:0:
356,88,73526,2,0,L|320:88,1,35
192,88,73603,2,0,L|236:88,1,35
336,140,73680,2,0,L|296:140,1,35
136,320,73757,2,0,L|208:320,1,70
312,276,73911,2,0,P|352:232|196:204,1,315
168,316,74369,2,0,B|104:272|444:184,1,315
425,188,74785,2,0,B|464:184|-64:212|-64:212|-56:212,1,490
200,44,75312,2,0,B|240:112|240:112|156:112,1,140
264,232,77862,1,0,0:0:0:0:
72,144,77899,1,0,0:0:0:0:
304,200,77937,1,0,0:0:0:0:
56,184,77974,1,0,0:0:0:0:
144,104,78012,5,0,0:0:0:0:
340,256,78049,1,0,0:0:0:0:
128,184,78087,1,0,0:0:0:0:
384,200,78124,1,0,0:0:0:0:
192,156,78162,5,0,0:0:0:0:
416,288,78199,1,0,0:0:0:0:
176,232,78237,1,0,0:0:0:0:
420,220,78274,1,0,0:0:0:0:
248,176,78312,5,0,0:0:0:0:
476,296,78349,1,0,0:0:0:0:
264,264,78387,1,0,0:0:0:0:
492,216,78424,1,0,0:0:0:0:
16,16,78612,2,0,L|56:48,1,35
492,356,78687,2,0,L|496:272,1,70
36,364,78837,2,0,B|32:224|32:224|64:164,1,175
264,52,79137,2,0,P|144:52|140:216,1,315
137,214,79549,2,0,L|500:212,1,350
487,212,79999,2,0,P|424:132|136:224,1,455
152,168,81072,1,0,0:0:0:0:
152,168,82032,1,0,0:0:0:0:
184,264,82092,2,0,P|324:300|348:288,1,175
400,284,82452,2,0,L|400:216,1,35
268,136,82632,2,0,L|268:196,1,35
180,332,82752,2,0,L|180:272,1,35
472,224,82872,2,0,L|420:224,1,35
304,232,82992,2,0,L|352:232,1,35
472,236,83172,2,0,L|436:236,1,35
272,240,83292,2,0,L|320:240,1,35
472,236,83412,2,0,L|428:232,1,35
264,240,83532,2,0,L|224:240,1,35
16,240,83652,2,0,L|56:240,1,35
476,248,83772,2,0,L|420:248,1,35
228,236,83892,2,0,L|288:236,1,35
68,132,84012,6,0,B|136:132|136:132|48:132|48:132|48:28,1,245
164,168,84852,2,0,L|116:164,5,35
48,192,85332,2,0,P|64:248|272:224,1,315
292,224,85932,2,0,P|296:144|320:96,1,105
104,72,86232,2,0,P|80:152|328:236,1,420
472,116,86412,1,0,0:0:0:0:
464,336,86472,1,0,0:0:0:0:
120,344,86532,1,0,0:0:0:0:
212,56,86592,1,0,0:0:0:0:
208,288,86712,2,0,L|256:284,4,35
256,100,87192,2,0,L|256:156,14,35
212,276,88152,1,0,0:0:0:0:
188,180,88212,1,0,0:0:0:0:
112,276,88272,1,0,0:0:0:0:
60,332,88332,1,0,0:0:0:0:
36,276,88392,1,0,0:0:0:0:
60,156,88452,1,0,0:0:0:0:
156,160,88512,1,0,0:0:0:0:
156,172,88572,1,0,0:0:0:0:
192,320,88632,1,0,0:0:0:0:
200,324,88692,1,0,0:0:0:0:
296,248,88752,1,0,0:0:0:0:
308,252,88812,1,0,0:0:0:0:
424,152,88872,1,0,0:0:0:0:
136,76,89712,6,0,P|116:264|144:268,1,280
212,272,91632,2,0,P|212:160|120:200,1,245
120,200,93552,2,0,P|180:160|200:276,1,210
204,280,94752,2,0,P|388:280|312:152,1,385
312,152,96432,2,0,L|120:156,2,175
116,156,98112,2,0,B|348:112|96:160,1,245
304,260,99072,2,0,P|200:148|120:240,1,280
116,292,100152,2,0,P|16:280|136:344,1,420
472,356,101832,2,0,P|564:376|460:328,1,385
460,328,103272,2,0,P|280:328|276:332,1,175
276,332,104112,2,0,P|136:236|352:56,1,525
364,120,106152,2,0,P|196:132|204:272,1,315
256,192,107352,12,0,108312,0:0:0:0:
104,44,108972,5,0,0:0:0:0:
184,152,109002,1,0,0:0:0:0:
272,304,109032,1,0,0:0:0:0:
104,312,109062,1,0,0:0:0:0:
472,304,109092,1,0,0:0:0:0:
76,168,109122,5,0,0:0:0:0:
444,164,109152,5,0,0:0:0:0:
76,168,109182,5,0,0:0:0:0:
444,164,109212,5,0,0:0:0:0:
76,168,109242,5,0,0:0:0:0:
444,164,109272,5,0,0:0:0:0:
76,168,109302,5,0,0:0:0:0:
444,164,109332,5,0,0:0:0:0:
40,52,109362,1,0,0:0:0:0:
428,276,109392,1,0,0:0:0:0:
56,120,109422,1,0,0:0:0:0:
436,216,109452,1,0,0:0:0:0:
172,144,109572,1,0,0:0:0:0:
172,144,109602,1,0,0:0:0:0:
304,280,109632,1,0,0:0:0:0:
104,288,109662,1,0,0:0:0:0:
368,220,109692,5,0,0:0:0:0:
100,220,109722,5,0,0:0:0:0:
384,192,109752,5,0,0:0:0:0:
60,184,109782,5,0,0:0:0:0:
396,160,109812,5,0,0:0:0:0:
36,144,109842,5,0,0:0:0:0:
400,124,109872,5,0,0:0:0:0:
40,96,109902,5,0,0:0:0:0:
396,84,109932,5,0,0:0:0:0:
72,56,109962,5,0,0:0:0:0:
376,44,109992,5,0,0:0:0:0:
120,28,110022,5,0,0:0:0:0:
364,8,110052,5,0,0:0:0:0:
176,8,110082,5,0,0:0:0:0:
416,8,110112,5,0,0:0:0:0:
12,376,110142,2,0,L|56:376,1,35
20,208,110202,1,0,0:0:0:0:
244,208,110232,1,0,0:0:0:0:
20,208,110262,1,0,0:0:0:0:
32,208,110292,5,0,0:0:0:0:
260,212,110322,1,0,0:0:0:0:
32,208,110352,1,0,0:0:0:0:
48,208,110382,5,0,0:0:0:0:
284,216,110412,1,0,0:0:0:0:
52,208,110442,1,0,0:0:0:0:
272,132,110472,2,0,L|216:132,1,35
216,132,110532,2,0,L|176:132,1,35
176,132,110592,2,0,L|232:128,1,35
237,132,110652,2,0,P|312:124|404:124,1,140
176,196,111072,2,0,L|64:176,1,105
384,112,111852,1,0,0:0:0:0:
376,216,111882,1,0,0:0:0:0:
112,108,111912,1,0,0:0:0:0:
124,232,111942,1,0,0:0:0:0:
416,208,111972,1,0,0:0:0:0:
96,224,112212,1,0,0:0:0:0:
372,232,112242,1,0,0:0:0:0:
52,204,112272,5,0,0:0:0:0:
412,208,112302,5,0,0:0:0:0:
40,172,112332,5,0,0:0:0:0:
448,172,112362,5,0,0:0:0:0:
36,144,112392,5,0,0:0:0:0:
488,128,112422,5,0,0:0:0:0:
64,100,112452,5,0,0:0:0:0:
456,84,112482,5,0,0:0:0:0:
108,64,112512,5,0,0:0:0:0:
432,48,112542,5,0,0:0:0:0:
148,40,112572,5,0,0:0:0:0:
416,32,112602,5,0,0:0:0:0:
216,16,112632,5,0,0:0:0:0:
392,16,112662,5,0,0:0:0:0:
264,4,112692,5,0,0:0:0:0:
352,4,112722,5,0,0:0:0:0:
288,0,112752,5,0,0:0:0:0:
276,0,112782,5,0,0:0:0:0:
352,4,112812,5,0,0:0:0:0:
256,8,112842,5,0,0:0:0:0:
392,16,112872,5,0,0:0:0:0:
232,24,112902,5,0,0:0:0:0:
416,44,112932,5,0,0:0:0:0:
216,60,112962,5,0,0:0:0:0:
416,80,112992,5,0,0:0:0:0:
244,100,113022,5,0,0:0:0:0:
400,104,113052,5,0,0:0:0:0:
292,112,113082,5,0,0:0:0:0:
360,120,113112,5,0,0:0:0:0:
76,236,113232,2,0,L|136:240,1,35
328,344,113292,2,0,L|276:344,1,35
228,0,113352,2,0,L|228:84,1,70
204,360,113532,2,0,P|308:336|332:304,1,140
260,124,113682,2,0,P|184:132|152:196,1,140
240,232,113862,2,0,L|380:232,1,140
464,232,114132,2,0,P|460:80|196:120,1,490
120,112,114762,1,0,0:0:0:0:
124,176,114792,1,0,0:0:0:0:
136,164,114822,1,0,0:0:0:0:
180,132,114852,1,0,0:0:0:0:
216,112,114882,1,0,0:0:0:0:
236,96,114912,1,0,0:0:0:0:
280,172,114942,1,0,0:0:0:0:
304,232,114972,1,0,0:0:0:0:
328,288,115002,1,0,0:0:0:0:
352,324,115032,1,0,0:0:0:0:
380,320,115062,1,0,0:0:0:0:
312,312,115092,1,0,0:0:0:0:
320,84,115152,5,0,0:0:0:0:
300,84,115182,1,0,0:0:0:0:
304,120,115212,1,0,0:0:0:0:
304,212,115242,1,0,0:0:0:0:
308,288,115272,1,0,0:0:0:0:
276,192,115302,1,0,0:0:0:0:
260,284,115332,1,0,0:0:0:0:
228,160,115362,1,0,0:0:0:0:
208,248,115392,1,0,0:0:0:0:
220,92,115422,1,0,0:0:0:0:
160,184,115452,1,0,0:0:0:0:
268,60,115482,1,0,0:0:0:0:
160,104,115512,1,0,0:0:0:0:
120,380,115542,2,0,B|120:80|424:96|424:96|-36:96|-36:100|-36:100|216:100,1,1190
292,176,116682,1,0,0:0:0:0:
308,200,116712,1,0,0:0:0:0:
332,184,116742,1,0,0:0:0:0:
356,168,116772,1,0,0:0:0:0:
328,160,116802,1,0,0:0:0:0:
316,152,116832,1,0,0:0:0:0:
296,140,116862,1,0,0:0:0:0:
212,128,116892,1,0,0:0:0:0:
104,148,116922,1,0,0:0:0:0:
20,148,116952,1,0,0:0:0:0:
20,360,116982,5,0,0:0:0:0:
252,364,117012,5,0,0:0:0:0:
496,356,117042,5,0,0:0:0:0:
500,312,117072,5,0,0:0:0:0:
16,320,117102,5,0,0:0:0:0:
256,316,117132,5,0,0:0:0:0:
500,268,117162,5,0,0:0:0:0:
24,268,117192,5,0,0:0:0:0:
264,260,117222,5,0,0:0:0:0:
264,224,117252,5,0,0:0:0:0:
32,228,117282,5,0,0:0:0:0:
504,220,117312,5,0,0:0:0:0:
48,168,117342,5,0,0:0:0:0:
264,172,117372,5,0,0:0:0:0:
504,176,117402,5,0,0:0:0:0:
500,112,117432,5,0,0:0:0:0:
244,112,117462,5,0,0:0:0:0:
56,104,117492,5,0,0:0:0:0:
0,12,117612,2,0,L|-48:12|-64:12,1,35
96,60,117732,2,0,L|144:64,1,35
344,188,117822,2,0,L|292:184,1,35
228,288,117972,2,0,L|264:288,1,35
48,108,118632,2,0,P|100:212|80:224,1,175
204,144,119862,1,0,0:0:0:0:
212,160,119892,1,0,0:0:0:0:
212,168,119922,1,0,0:0:0:0:
208,180,119952,1,0,0:0:0:0:
200,192,119982,1,0,0:0:0:0:
228,204,120012,1,0,0:0:0:0:
248,212,120042,1,0,0:0:0:0:
392,236,120072,1,0,0:0:0:0:
192,276,120102,1,0,0:0:0:0:
424,284,120132,1,0,0:0:0:0:
112,312,120162,1,0,0:0:0:0:
440,328,120192,1,0,0:0:0:0:
84,264,120222,1,0,0:0:0:0:
412,320,120252,1,0,0:0:0:0:
124,184,120282,1,0,0:0:0:0:
288,252,120312,1,0,0:0:0:0:
276,236,120342,1,0,0:0:0:0:
280,80,120372,1,0,0:0:0:0:
304,100,120432,6,0,L|220:124,1,70
116,160,120612,2,0,L|156:276,1,105
296,296,120822,2,0,L|388:168,1,140
377,182,121002,2,0,P|392:140|168:288,1,945
164,287,121932,2,0,L|696:260,1,525
184,128,122472,1,0,0:0:0:0:
196,220,122502,1,0,0:0:0:0:
248,92,122532,1,0,0:0:0:0:
292,244,122562,1,0,0:0:0:0:
0,376,122592,2,0,L|-184:376,1,175
500,12,122772,2,0,L|696:0,1,175
508,372,122982,2,0,L|696:400,1,175
116,204,123312,2,0,B|96:176|96:176|336:60,1,280
376,380,124271,2,0,B|408:392|408:392|356:284,1,140
188,184,132149,2,0,P|276:72|448:160,2,364
200,140,137565,1,0,0:0:0:0:
