osu file format v9

[General]
AudioFilename: Le Ciel - Feather.mp3
AudioLeadIn: 2000
PreviewTime: 61107
Countdown: 0
SampleSet: Normal
StackLeniency: 0.3
Mode: 0
LetterboxInBreaks: 0

[Editor]
DistanceSpacing: 1
BeatDivisor: 4
GridSize: 4

[Metadata]
Title:Feather
Artist:Le Ciel
Creator:l1106188
Version:Lunatic
Source:Touhou
Tags:Revengexsoyah yasaka kanako The Venerable Ancient Battlefield Suwa Foughten Field Mountain of Faith succubus frontier records

[Difficulty]
HPDrainRate:7
CircleSize:4
OverallDifficulty:7
ApproachRate:9
SliderMultiplier:2.1
SliderTickRate:1

[Events]
//Background and Video events
0,0,"399186.jpg"
//Break Periods
2,79308,88613
2,147519,151140
//Storyboard Layer 0 (Background)
//Storyboard Layer 1 (Fail)
//Storyboard Layer 2 (Pass)
//Storyboard Layer 3 (Foreground)
Sprite,Foreground,Centre,"lyric SB\1.png",320,240 F,0,21003,21319,0,1 M,0,21003,31108,546,159,545,170 F,0,21319,30793,1 F,0,30793,31108,1,0
Sprite,Foreground,Centre,"lyric SB\2.png",320,240 F,0,26056,26371,0,1 M,0,26056,31108,499,136,499,143 F,0,26371,30793,1 F,0,30793,31108,1,0
Sprite,Foreground,Centre,"lyric SB\3.png",320,240 S,0,29845,,1.52 F,0,29845,30161,0,1 M,0,29845,31108,456,116,456,120 F,0,30161,30793,1 F,0,30793,31108,1,0
Sprite,Foreground,Centre,"lyric SB\4.png",320,240 F,0,31108,31424,0,1 M,0,31108,40582,546,188,545,199 F,0,31424,40266,1 F,0,40266,40582,1,0
Sprite,Foreground,Centre,"lyric SB\5.png",320,240 F,0,36161,36477,0,1 M,0,36161,40582,506,123,506,132 F,0,36477,40266,1 F,0,40266,40582,1,0
Sprite,Foreground,Centre,"lyric SB\6.png",320,240 S,0,38687,,1.2 F,0,38687,39003,0,1 M,0,38687,40582,505,203,505,205 F,0,39003,40266,1 F,0,40266,40582,1,0
Sprite,Foreground,Centre,"lyric SB\7.png",320,240 S,0,39950,,1.216 F,0,39950,40266,0.05199997,1 M,0,39950,40582,507,247 F,0,40266,40582,1,0
Sprite,Foreground,Centre,"lyric SB\8.png",320,240 F,0,40898,41214,0,1 M,0,40898,45950,530,110,530,114 F,0,41214,45635,1 F,0,45635,45950,1,0 M,0,45950,,530,114
Sprite,Foreground,Centre,"lyric SB\9.png",320,240 F,0,41845,42161,0,1 M,0,41845,45635,528,180,528,184 F,0,42161,45635,1 F,0,45635,45950,1,0
Sprite,Foreground,Centre,"lyric SB\11.png",320,240 F,0,45950,46266,0,1 M,0,45950,51003,528,104,528,109 F,0,46266,50687,1 F,0,50687,51003,1,0
Sprite,Foreground,Centre,"lyric SB\12.png",320,240 F,0,46898,47214,0,1 M,0,46898,51003,527,156,527,158 F,0,47214,50687,1 F,0,50687,51003,1,0
Sprite,Foreground,Centre,"lyric SB\13.png",320,240 F,0,48161,48477,0,1 M,0,48161,51003,528,194,528,195 F,0,48477,50687,1 F,0,50687,51003,1,0
Sprite,Foreground,Centre,"lyric SB\14.png",320,240 F,0,51319,51635,0,1 M,0,51319,55740,540,107,539,112 F,0,51635,55424,1 F,0,55424,55740,1,0
Sprite,Foreground,Centre,"lyric SB\15.png",320,240 F,0,53214,53529,0,1 M,0,53214,55740,540,167,540,170 F,0,53529,55424,1 F,0,55424,55740,1,0
Sprite,Foreground,Centre,"lyric SB\16.png",320,240 F,0,54477,54793,0,1 M,0,54477,55740,543,217,543,219 F,0,54793,55424,1 F,0,55424,55740,1,0
Sprite,Foreground,Centre,"lyric SB\17.png",320,240 F,0,56056,56371,0,1 M,0,56056,60793,532,119,533,125 F,0,56371,60477,1 F,0,60477,60793,1,0
Sprite,Foreground,Centre,"lyric SB\18.png",320,240 F,0,58582,58898,0,1 M,0,58582,60793,533,172,533,175 F,0,58898,60477,1 F,0,60477,60793,1,0
Sprite,Foreground,Centre,"lyric SB\19.png",320,240 F,0,61108,61424,0,1 M,0,61108,67108,532,166,532,174 F,0,61424,66793,1 F,0,66793,67108,1,0
Sprite,Foreground,Centre,"lyric SB\21.png",320,240 F,0,63950,64266,0,1 M,0,63950,67108,489,165,489,170 F,0,64266,66793,1 F,0,66793,67108,1,0
Sprite,Foreground,Centre,"lyric SB\22.png",320,240 F,0,67266,67582,0,1 M,0,67266,71214,525,118,525,122 F,0,67582,70898,1 F,0,70898,71214,1,0.09600006
Sprite,Foreground,Centre,"lyric SB\23.png",320,240 F,0,68371,68687,0,1 M,0,68371,71214,490,165,490,171 F,0,68687,70898,1 F,0,70898,71214,1,0
Sprite,Foreground,Centre,"lyric SB\24.png",320,240 F,0,70266,70582,0,1 M,0,70266,71214,456,108,456,112 F,0,70582,70898,1 F,0,70898,71214,1,0
Sprite,Foreground,Centre,"lyric SB\25.png",320,240 F,0,71529,71845,0,1 M,0,71529,77214,531,156,532,171 F,0,71845,76898,1 F,0,76898,77214,1,0
Sprite,Foreground,Centre,"lyric SB\26.png",320,240 F,0,74056,74371,0,1 M,0,74056,77214,490,149,490,157 F,0,74371,76898,1 F,0,76898,77214,1,0
Sprite,Foreground,Centre,"lyric SB\27.png",320,240 F,0,77371,77687,0.05999992,1 M,0,77371,79424,523,151,523,157 F,0,77687,79108,1 F,0,79108,79424,1,0
Sprite,Foreground,Centre,"lyric SB\28.png",320,240 F,0,89214,89529,0,1 M,0,89214,99003,542,167,542,183 F,0,89529,98687,1 F,0,98687,99003,1,0
Sprite,Foreground,Centre,"lyric SB\29.png",320,240 F,0,94266,94582,0,1 M,0,94266,99003,504,119,503,128 F,0,94582,98687,1 F,0,98687,99003,1,0
Sprite,Foreground,Centre,"lyric SB\31.png",320,240 F,0,99319,99635,0,1 M,0,99319,108793,542,178,543,189 F,0,99635,108477,1 F,0,108477,108793,1,0
Sprite,Foreground,Centre,"lyric SB\32.png",320,240 F,0,104371,104687,0,1 M,0,104371,108793,505,133,505,139 F,0,104687,108477,1 F,0,108477,108793,1,0
Sprite,Foreground,Centre,"lyric SB\33.png",320,240 F,0,109108,109424,0,1 M,0,109108,119214,528,151,528,159 F,0,109424,118898,1 F,0,118898,119214,1,0
Sprite,Foreground,Centre,"lyric SB\34.png",320,240 F,0,114161,114477,0,1 M,0,114161,119214,490,150,490,156 F,0,114477,118898,1 F,0,118898,119214,1,0
Sprite,Foreground,Centre,"lyric SB\14.png",320,240 F,0,119529,119845,0,1 M,0,119529,123950,536,122,535,130 F,0,119845,123635,1 F,0,123635,123950,1,0
Sprite,Foreground,Centre,"lyric SB\35.png",320,240 F,0,121424,121740,0,1 M,0,121424,123950,535,177,535,180 F,0,121740,123635,1 F,0,123635,123950,1,0
Sprite,Foreground,Centre,"lyric SB\36.png",320,240 F,0,122687,123003,0,1 M,0,122687,123950,534,220,534,221 F,0,123003,123635,1 F,0,123635,123950,1,0
Sprite,Foreground,Centre,"lyric SB\37.png",320,240 F,0,124266,124582,0,1 M,0,124266,129003,525,116,525,121 F,0,124582,128687,1 F,0,128687,129003,1,0
Sprite,Foreground,Centre,"lyric SB\18.png",320,240 F,0,126793,127108,0,1 M,0,126793,129003,525,168,525,169 F,0,127108,128687,1 F,0,128687,129003,1,0
Sprite,Foreground,Centre,"lyric SB\38.png",320,240 F,0,129319,129635,0,1 M,0,129319,135319,536,192,536,196 F,0,129635,135003,1 F,0,135003,135319,1,0
Sprite,Foreground,Centre,"lyric SB\39.png",320,240 F,0,132161,132477,0,1 M,0,132161,135319,491,153,491,159 F,0,132477,135003,1 F,0,135003,135319,1,0
Sprite,Foreground,Centre,"lyric SB\22.png",320,240 F,0,135477,135793,0,1 M,0,135477,139424,533,115,533,121 F,0,135793,139108,1 F,0,139108,139424,1,0
Sprite,Foreground,Centre,"lyric SB\41.png",320,240 F,0,136582,136898,0,1 M,0,136582,139424,497,154,498,163 F,0,136898,139108,1 F,0,139108,139424,1,0
Sprite,Foreground,Centre,"lyric SB\42.png",320,240 F,0,138477,138793,0,1 M,0,138477,139424,465,111,465,112 F,0,138793,139108,1 F,0,139108,139424,1,0
Sprite,Foreground,Centre,"lyric SB\43.png",320,240 F,0,139740,140056,0,1 M,0,139740,145424,525,164,525,169 F,0,140056,145108,1 F,0,145108,145424,1,0 M,0,145424,145428,525,169,525,164
Sprite,Foreground,Centre,"lyric SB\44.png",320,240 F,0,142266,142582,0,1 M,0,142266,145424,484,154,484,160 F,0,142582,145108,1 F,0,145108,145424,1,0
Sprite,Foreground,Centre,"lyric SB\45.png",320,240 F,0,145582,145898,0,1 M,0,145582,147635,527,156,527,164 F,0,145898,147319,1 F,0,147319,147635,1,0
Sprite,Foreground,Centre,"lyric SB\14.png",320,240 F,0,177635,177950,0,1 M,0,177635,182056,526,116,526,120 F,0,177950,181740,1 F,0,181740,182056,1,0
Sprite,Foreground,Centre,"lyric SB\15.png",320,240 F,0,179529,179845,0,1 M,0,179529,182056,525,176,525,178 F,0,179845,181740,1 F,0,181740,182056,1,0
Sprite,Foreground,Centre,"lyric SB\16.png",320,240 F,0,180793,181108,0,1 M,0,180793,182056,527,226,527,227 F,0,181108,181740,1 F,0,181740,182056,1,0
Sprite,Foreground,Centre,"lyric SB\17.png",320,240 F,0,182371,182687,0,1 M,0,182371,187108,522,121,522,124 F,0,182687,186793,1 F,0,186793,187108,1,0
Sprite,Foreground,Centre,"lyric SB\18.png",320,240 F,0,184898,185214,0,1 M,0,184898,187108,522,170,522,172 F,0,185214,186793,1 F,0,186793,187108,1,0
Sprite,Foreground,Centre,"lyric SB\19.png",320,240 F,0,187424,187740,0,1 M,0,187424,193424,538,172,538,180 F,0,187740,193108,1 F,0,193108,193424,1,0
Sprite,Foreground,Centre,"lyric SB\21.png",320,240 F,0,190266,190582,0,1 M,0,190266,193424,493,171,493,176 F,0,190582,193108,1 F,0,193108,193424,1,0
Sprite,Foreground,Centre,"lyric SB\22.png",320,240 F,0,193582,193898,0,1 M,0,193582,197529,536,118,536,124 F,0,193898,197214,1 F,0,197214,197529,1,0
Sprite,Foreground,Centre,"lyric SB\23.png",320,240 F,0,194687,195003,0,1 M,0,194687,197529,500,153,500,161 F,0,195003,197214,1 F,0,197214,197529,1,0
Sprite,Foreground,Centre,"lyric SB\24.png",320,240 F,0,196582,196898,0,1 M,0,196582,197529,465,107,465,109 F,0,196898,197214,1 F,0,197214,197529,1,0
Sprite,Foreground,Centre,"lyric SB\25.png",320,240 F,0,197845,198161,0,1 M,0,197845,203529,526,162,526,168 F,0,198161,203214,1 F,0,203214,203529,1,0
Sprite,Foreground,Centre,"lyric SB\26.png",320,240 F,0,200371,200687,0,1 M,0,200371,203529,486,143,486,149 F,0,200687,203214,1 F,0,203214,203529,1,0
Sprite,Foreground,Centre,"lyric SB\27.png",320,240 F,0,203687,204003,0,1 M,0,203687,205740,523,149,523,156 F,0,204003,205424,1 F,0,205424,205740,1,0
//Storyboard Sound Samples
//Background Colour Transformations
3,100,163,162,255

[TimingPoints]
518,315.789473684211,4,1,1,50,1,0
833,-149.253731343284,4,1,1,50,0,0
2056,315.789473684211,4,1,1,50,1,0
2056,-149.253731343284,4,1,1,50,0,0
4266,-149.253731343284,4,1,1,35,0,0
4424,-149.253731343284,4,1,1,50,0,0
6003,-149.253731343284,4,1,1,35,0,0
6082,-149.253731343284,4,1,1,50,0,0
8529,-149.253731343284,4,1,1,35,0,0
8924,-149.253731343284,4,1,1,50,0,0
9477,-149.253731343284,4,1,1,35,0,0
9871,-149.253731343284,4,1,1,50,0,0
21003,-200,4,2,1,50,0,0
21477,-200,4,2,1,5,0,0
21556,-200,4,2,1,50,0,0
22740,-200,4,2,1,5,0,0
22819,-200,4,2,1,50,0,0
24003,-200,4,2,1,5,0,0
24082,-200,4,2,1,50,0,0
26529,-200,4,2,1,5,0,0
26608,-200,4,2,1,50,0,0
27793,-200,4,2,1,5,0,0
27871,-200,4,2,1,50,0,0
29056,-200,4,2,1,5,0,0
29135,-200,4,2,1,50,0,0
31108,-149.253731343284,4,1,2,50,0,0
34898,-149.253731343284,4,1,2,40,0,0
36161,-149.253731343284,4,1,2,50,0,0
38687,-100,4,1,1,50,0,0
51319,-149.253731343284,4,1,1,50,0,0
56687,-100,4,1,1,50,0,0
58898,-149.253731343284,4,1,1,50,0,0
61424,-100,4,1,1,50,0,1
71371,-100,4,1,1,50,0,0
71529,-100,4,1,1,50,0,1
79108,-100,4,1,1,50,0,0
89214,-100,4,1,1,38,0,0
109424,-100,4,1,1,50,0,0
119529,-149.253731343284,4,1,1,50,0,0
124582,-100,4,1,1,50,0,0
127108,-149.253731343284,4,1,1,50,0,0
129635,-100,4,1,1,50,0,1
139661,-100,4,1,1,50,0,0
139740,-100,4,1,1,50,0,1
147319,-100,4,1,1,50,0,0
174319,-100,4,1,1,38,0,0
175029,-100,4,1,1,50,0,0
177635,-149.253731343284,4,1,1,50,0,0
182687,-100,4,1,1,50,0,0
185213,-149.253731343284,4,1,1,50,0,0
187740,-100,4,1,1,50,0,1
197766,-100,4,1,1,50,0,0
197845,-100,4,1,1,50,0,1
205424,-100,4,1,1,50,0,0

[Colours]
Combo1 : 174,87,0
Combo2 : 187,0,0
Combo3 : 157,60,255
SliderBorder : 200,200,200 SpinnerApproachCircle :
222,155,0

[HitObjects]
128,52,833,2,4,B|56:84,1,70.3500025159122,4|0
160,200,1307,2,0,B|112:264,2,70.3500025159122,0|8|0
216,144,1781,1,0
236,220,1939,1,0
236,220,2056,5,0
216,144,2213,1,0
216,144,2371,1,8
292,164,2529,2,0,B|368:188,1,70.3500025159122
320,252,2845,1,0
396,252,3003,2,0,B|400:296|360:316,1,70.3500025159122,8|8
236,220,3319,5,4
128,331,3477,1,0
89,179,3634,1,0
66,265,3792,1,0
176,149,3950,1,12
213,304,4108,1,0
310,202,4266,2,0,B|384:184,1,70.3500025159122,12|4
344,48,4740,5,0
404,96,4898,1,12
332,120,5055,1,0
268,76,5213,2,0,B|248:112|260:148,2,70.3500025159122,8|8|12
392,168,5845,6,0,B|368:200|324:196,1,70.3500025159122,4|4
216,300,6319,2,0,B|228:336|268:344,2,70.3500025159122,0|12|0
288,268,6792,2,0,B|328:284|368:272,2,70.3500025159122,4|4|0
224,224,7266,1,0
224,224,7424,1,12
236,148,7582,2,0,B|192:144|164:176,1,70.3500025159122,0|4
148,244,7898,1,0
96,188,8055,2,0,B|84:152|104:120,1,70.3500025159122,12|0
236,72,8371,6,4,B|276:72|300:108,1,70.3500025159122,4|4
444,332,8845,2,4,B|404:332|384:300,1,70.3500025159122,0|12
200,308,9319,2,4,B|200:268|236:244,1,70.3500025159122,4|4
480,100,9792,2,4,B|480:140|448:160,1,70.3500025159122,0|12
340,204,10266,2,0,B|304:184,3,35.1750012579561,8|0|8|0
240,172,10582,2,0,B|196:180,3,35.1750012579561,8|0|0|8
136,192,10898,5,4
112,264,11056,2,0,B|152:276|184:252|184:252|208:276|248:280,1,140.700005031824
320,276,11529,1,8
324,348,11687,1,0
344,208,11845,1,0
456,292,12003,2,0,B|504:224|476:156,1,140.700005031824
424,104,12477,1,8
348,96,12634,1,0
120,64,13108,1,8
120,64,13424,5,0
132,140,13582,2,0,B|84:132|40:184|56:232,1,140.700005031824
132,216,14056,1,8
252,140,14213,1,0
244,280,14371,1,0
252,140,14529,2,0,B|248:92|300:52|348:64,1,140.700005031824
416,104,15003,1,8
412,28,15161,1,4
412,28,15634,1,8
440,200,15950,6,0,B|400:260,1,70.3500025159122,4|0
312,132,16424,2,0,B|304:200,1,70.3500025159122,0|8
304,280,16740,1,0
204,180,16898,1,0
172,316,17056,2,0,B|92:300|72:220,1,140.700005031824
100,156,17529,1,12
176,152,17687,2,0,B|168:80|104:60|40:80|28:136,1,211.050007547736,0|12
132,240,18477,6,0,B|156:272|196:272,1,70.3500025159122,0|0
380,240,18950,2,0,B|356:272|316:272,1,70.3500025159122,0|12
392,148,19266,1,0
256,188,19424,1,0
120,148,19582,2,0,B|68:148|20:208|20:280|88:328,1,211.050007547736,0|12
256,324,20371,5,8
256,312,20529,1,8
256,300,20687,1,8
312,212,21003,6,0,B|360:224|392:196|392:196|436:208|464:180,2,157.5,6|0|2
336,132,22108,1,0
336,132,22266,2,0,B|372:204|328:288,2,157.5,2|0|2
312,52,23529,2,0,B|256:72|232:132|268:192,2,157.5,2|0|2
336,132,24792,5,2
400,76,25108,1,0
424,156,25424,1,2
360,212,25740,1,0
288,256,26056,6,0,B|216:276|168:216|180:156,2,157.5,2|0|2
264,176,27161,1,0
264,176,27319,2,0,B|336:156|384:216|372:276,2,157.5,2|0|2
260,92,28582,2,0,B|212:80|176:104|176:104|140:96|108:108,2,157.5,2|0|2
228,172,29845,5,2
144,188,30161,1,0
200,252,30477,1,2
120,272,30792,1,2
76,140,31108,6,2,B|116:96|172:108|172:108|216:76|272:100,2,211.050007547736,6|0|2
160,28,32213,1,0
160,28,32371,2,2,B|220:4|308:12|364:76,2,211.050007547736,2|0|2
264,124,33634,2,2,B|320:184|408:176|460:112,2,211.050007547736,2|0|2
124,120,34898,5,2
80,184,35056,1,0
92,260,35213,1,2
152,308,35371,1,0
228,320,35529,1,2
300,292,35687,1,0
340,228,35845,1,2
324,152,36003,1,0
268,204,36161,6,2,B|232:160|240:108|288:56|360:84,2,211.050007547736,6|0|2
156,188,37266,1,0
156,188,37424,2,2,B|192:232|184:284|136:336|64:308,2,211.050007547736,2|0|2
320,244,38687,6,0,B|404:176,1,105,2|0
324,140,39003,2,0,B|356:32,1,105,8|8
448,124,39319,1,2
452,248,39477,1,0
320,244,39634,1,8
268,336,39792,1,0
268,336,39871,1,0
268,336,39950,6,0,B|164:328,1,105,2|0
192,248,40266,2,0,B|116:176,1,105,10|0
40,136,40582,1,10
64,104,40661,1,8
104,88,40740,1,0
144,92,40819,1,0
180,112,40898,1,10
292,224,41056,1,0
136,228,41213,1,4
136,228,41529,6,0,B|128:284|180:316,2,105,8|0|0
124,144,42003,2,0,B|184:140|216:192,1,105,0|8
244,268,42319,1,0
384,196,42477,1,0
304,48,42792,6,0,B|264:4|212:4,2,105,8|0|0
380,16,43266,2,0,B|396:72|356:112,1,105,0|8
272,132,43582,1,0
424,172,43740,1,0
272,132,44056,5,8
344,172,44213,1,0
332,256,44371,1,0
248,268,44529,1,0
212,192,44687,2,0,B|160:224|164:280,1,105
60,256,45003,5,0
52,152,45161,1,0
148,108,45319,1,8
212,192,45477,1,0
276,88,45634,5,0
396,120,45792,1,0
404,244,45950,1,8
284,296,46108,1,8
212,192,46266,1,4
212,192,46582,6,0,B|152:288,2,105,8|0|0
316,208,47056,1,0
376,264,47213,1,8
296,288,47371,1,0
308,132,47529,1,0
308,132,47845,6,0,B|264:88|204:100,2,105,8|0|0
240,180,48319,1,0
156,164,48477,1,0
96,224,48634,1,0
204,336,48792,1,0
364,240,49108,6,0,B|388:292|352:340,1,105,8|0
208,280,49424,2,0,B|150:274|127:219,1,105
264,136,49740,2,0,B|297:89|356:96,1,105,8|0
432,184,50056,6,0,B|472:228|448:280,1,105
256,356,50371,2,0,B|200:380|152:352,1,105,8|8
192,88,50687,2,0,B|228:40|288:52,1,105
276,220,51003,1,8
276,220,51319,1,4
164,112,51634,6,0,B|116:176,2,70.3500025159122,8|0|0
108,60,52108,1,0
184,38,52266,2,0,B|216:40|236:80,1,70.3500025159122
308,156,52582,1,0
308,156,52898,6,0,B|340:140|380:160,2,70.3500025159122,8|0|0
340,228,53371,1,0
416,228,53529,2,0,B|420:268|384:292,1,70.3500025159122,0|0
284,312,53845,1,0
284,312,54161,6,0,B|260:344|220:336,2,70.3500025159122,8|0|0
228,252,54634,1,0
228,252,54792,2,0,B|188:248|160:276,1,70.3500025159122,8|0
224,136,55108,1,0
224,136,55424,6,0,B|256:156|292:140,2,70.3500025159122,8|0|0
264,60,55898,1,0
348,44,56056,1,8
384,180,56213,1,8
488,84,56371,1,4
424,244,56687,6,0,B|368:272|320:232,1,105,8|0
384,180,57003,2,0,B|308:280|196:260,2,210,4|8|4
416,100,57792,1,4
416,100,57950,2,0,B|356:88|316:128,1,105,8|4
248,172,58266,2,0,B|220:116|256:72,1,105,0|0
176,40,58582,1,10
40,116,58740,1,2
112,88,58898,6,0,B|124:124|104:160,1,70.3500025159122,4|2
216,264,59371,1,10
216,264,59687,2,0,B|241:235|282:234,2,70.3500025159122,2|10|2
328,72,60319,1,10
328,72,60634,2,0,B|290:64|269:29,2,70.3500025159122,2|8|0
396,36,61108,2,0,B|416:72|396:108,1,70.3500025159122,0|0
252,172,61424,6,0,B|268:228|220:296|152:296|104:248,1,210,4|8
172,196,61898,2,0,B|124:164|72:188,2,105
328,228,62371,2,0,B|360:184|336:128,1,105,8|0
424,260,62687,6,0,B|404:312|352:344|280:332|252:292,1,210,0|8
184,240,63161,2,0,B|148:296|188:348,2,105
192,80,63634,1,8
52,156,63792,1,8
192,80,63950,6,0,B|284:12|392:64,1,210,0|8
300,192,64424,1,8
300,192,64582,2,0,B|332:144|392:152,2,105,0|0|8
372,236,65056,1,0
220,200,65213,6,0,B|236:264|192:324|120:328|80:288,1,210,0|8
140,228,65687,1,0
140,228,65845,2,0,B|128:168|172:128,2,105,0|0|8
252,116,66319,1,4
436,116,66634,6,0,B|476:220,1,105,0|8
356,96,67108,1,0
356,96,67266,6,0,B|296:184,2,105,0|8|0
212,164,67740,2,0,B|200:220|240:280|308:284|360:244,1,210,0|8
272,104,68371,5,0
180,56,68529,1,0
128,172,68687,1,8
100,28,68845,1,8
44,188,69003,2,0,B|56:244|116:260|116:260|176:276|196:328,1,210,4|10
112,344,69477,1,2
232,240,69634,1,0
232,240,69950,1,10
368,336,70266,5,4
400,308,70345,1,8
416,268,70424,1,8
420,228,70503,1,0
408,188,70582,1,10
328,212,70740,1,6
460,124,70898,1,4
460,124,71213,1,10
292,132,71529,6,0,B|248:176|184:176|136:124|144:64,1,210,4|8
228,76,72003,2,0,B|268:32|328:48,2,105
380,116,72477,1,8
228,76,72634,1,8
380,116,72792,6,0,B|436:228|344:312,1,210,0|8
308,232,73266,2,0,B|276:284|216:280,2,105
152,208,73740,1,8
208,356,73898,1,8
232,200,74056,6,0,B|224:132|164:108|104:120|76:176,1,210,0|8
80,256,74529,1,0
156,288,74687,2,0,B|128:344|72:336,2,105,0|0|8
240,280,75161,1,0
288,132,75319,6,0,B|304:80|364:52|432:72|452:140,1,210
368,160,75792,2,0,B|388:212|448:216,1,105
440,300,76108,1,8
284,296,76266,1,8
368,160,76424,1,4
220,240,76740,6,0,B|188:288|216:344,1,105,0|8
360,256,77213,1,0
360,256,77371,6,0,B|376:312|344:356,2,105,0|8|4
232,160,77845,1,0
232,160,78161,1,0
64,176,78477,6,0,B|72:232|132:260|132:260|88:300|104:352,1,210
184,328,78950,1,0
152,172,79108,1,4
368,136,89213,6,0,B|384:196|328:232,2,105,4|0|8
288,160,89687,1,0
412,64,89845,2,2,B|460:104|448:164,2,105,2|0|10
288,160,90319,1,0
148,84,90477,6,0,B|92:108|84:164,2,105,0|0|8
168,164,90950,1,10
32,244,91108,2,2,B|60:348,2,105,2|0|10
116,236,91582,1,0
256,304,91740,6,0,B|328:224,2,105,2|0|8
332,344,92213,1,2
408,208,92371,2,0,B|392:152|328:140,2,105,2|0|10
408,208,92845,1,0
326,225,93003,5,2
260,116,93161,1,0
136,132,93319,1,10
116,256,93477,1,8
228,312,93634,5,2
116,256,93792,1,0
136,132,93950,1,10
260,116,94108,1,0
244,220,94266,6,0,B|240:276|300:304,2,105,2|0|8
328,152,94740,1,2
160,240,94898,2,2,B|148:180|204:144,2,105,2|0|10
328,152,95371,1,8
160,68,95529,6,0,B|68:120,2,105,2|0|8
244,80,96003,1,2
380,156,96161,2,0,B|372:216|316:232,2,105,2|0|10
296,148,96634,1,0
160,228,96792,6,0,B|72:292,2,105,2|0|8
188,308,97266,1,2
344,304,97424,2,0,B|456:332,2,105,2|0|10
268,272,97898,1,0
352,140,98056,6,0,B|256:92|144:136,2,210,2|8|6
492,68,98845,1,8
476,224,99003,1,6
308,208,99319,5,4
380,252,99477,1,0
308,292,99634,1,8
308,208,99792,1,0
219,275,99950,2,2,B|208:328|256:368,2,105,2|0|10
408,328,100424,1,0
380,172,100582,5,0
308,128,100740,1,0
308,208,100898,1,8
380,172,101056,1,2
224,144,101213,2,2,B|208:88|264:48,2,105,2|0|10
224,144,101687,1,0
88,224,101845,5,2
128,300,102003,1,0
172,228,102161,1,0
88,224,102319,1,2
80,68,102477,2,0,B|64:124|8:136,2,105,2|0|2
236,36,102950,1,8
228,116,103108,5,2
316,28,103266,1,0
428,88,103424,1,10
412,212,103582,1,8
288,228,103740,5,2
412,212,103898,1,0
428,88,104056,1,10
316,28,104213,1,8
228,116,104371,6,0,B|120:92,2,105,2|0|8
208,200,104845,1,2
208,200,105003,2,2,B|100:212,2,105,2|0|2
96,312,105477,1,0
256,364,105634,6,0,B|264:248|384:216,1,210,2|8
256,124,106108,2,0,B|348:68|460:92,1,210,2|0
320,12,106582,1,10
172,72,106740,1,8
128,224,106898,6,0,B|40:284,1,105,6|0
211,298,107213,2,0,B|112:332,1,105,8|0
300,298,107529,2,0,B|400:332,1,105,10|0
384,224,107845,2,0,B|470:283,1,105,8|8
362,137,108161,6,0,B|312:156|300:216,1,105,2|0
336,56,108477,2,0,B|256:124,1,105,10|0
176,56,108792,2,0,B|256:124,1,105,10|0
149,137,109108,2,0,B|200:156|212:216,2,105,2|0|4
172,304,109740,6,0,B|232:320|276:284,2,105,8|0|0
88,296,110213,2,0,B|84:356|144:388,2,105,0|8|0
64,140,110687,1,0
232,132,111003,6,0,B|340:92,2,105,8|0|0
252,212,111477,2,0,B|360:216,2,105,0|8|0
96,208,111950,1,0
248,316,112266,5,8
324,348,112424,1,0
392,296,112582,1,0
392,296,112740,1,0
316,264,112898,2,0,B|272:224|216:240,1,105,8|0
164,304,113213,5,0
124,232,113371,1,0
124,232,113529,1,8
164,304,113687,1,0
248,316,113845,1,0
316,264,114003,5,0
280,112,114161,1,8
432,68,114319,1,8
472,220,114477,1,4
308,188,114792,6,0,B|252:208|212:160,2,105,8|0|0
360,124,115266,1,0
328,48,115424,2,0,B|280:20|224:48,1,105,8|0
360,124,115740,1,0
212,204,116056,6,0,B|196:264|132:280,2,105
128,192,116529,1,0
212,204,116687,2,0,B|204:264|260:296,1,105,8|0
260,136,117003,1,4
304,300,117319,6,0,B|324:244|380:232,1,105,8|0
325,96,117634,2,0,B|270:105|229:64,1,105
138,179,117950,2,0,B|173:222|158:278,1,105,8|0
304,300,118266,6,0,B|348:264|404:284,1,105
325,96,118582,2,0,B|272:76|261:17,1,105,8|8
138,179,118898,2,0,B|147:235|102:274,1,105,0|8
96,280,119134,1,0
88,288,119213,1,8
84,296,119292,1,8
80,304,119371,1,0
76,312,119450,1,8
76,320,119529,1,4
216,332,119845,6,0,B|244:360|284:356,2,70.3500025159122,8|0|0
272,276,120319,2,0,B|308:288|352:272,2,70.3500025159122,0|8|0
276,140,120792,1,0
276,140,121108,6,0,B|312:120|348:132,2,70.3500025159122,8|0|0
320,204,121582,2,0,B|364:212|388:196,2,70.3500025159122,0|8|4
212,208,122056,1,0
212,208,122371,6,0,B|180:176|184:140,2,70.3500025159122,12|0|0
136,244,122845,2,0,B|148:280|188:288,2,70.3500025159122,0|8|0
296,244,123319,1,4
296,244,123634,6,0,B|316:276|360:276,2,70.3500025159122,8|8|0
360,192,124108,1,0
304,44,124266,1,0
360,192,124424,1,0
204,160,124582,6,0,B|144:152|76:192|72:252|84:308,2,210,4|8|4
256,228,125371,1,0
180,260,125529,2,0,B|88:216|88:120|144:72,1,210,8|4
212,64,126003,1,4
274,134,126161,2,0,B|368:88,1,105,8|12
452,316,126792,1,8
452,316,126950,1,0
452,316,127108,6,0,B|356:312,1,70.3500025159122,4|2
252,228,127582,1,2
252,228,127898,2,0,B|332:208,2,70.3500025159122,2|2|2
132,324,128529,1,2
152,248,128687,1,8
108,184,128845,1,0
116,108,129003,2,0,B|124:64,3,35.1750012579561,8|0|8|0
156,92,129319,2,0,B|200:76,3,35.1750012579561,8|0|8|0
244,104,129634,5,4
408,136,129950,1,8
484,100,130108,2,0,B|504:160|464:200,2,105
350,195,130582,2,0,B|310:155|332:97,1,105,8|0
432,220,130898,6,0,B|408:296|320:312|256:256|264:200,1,210,0|8
200,192,131371,2,0,B|172:244|208:292,1,105
206,290,131687,1,0
136,152,131845,2,0,B|84:124|36:160,1,105,8|8
200,112,132161,6,0,B|292:44|404:76,1,210,0|8
364,152,132634,2,0,B|408:192|396:252,2,105
476,260,133108,2,0,B|468:312|404:332,1,105,8|0
304,208,133424,6,0,B|248:188|188:236|180:300|224:344,1,210,0|8
284,288,133898,1,0
284,288,134056,2,0,B|336:300|384:248,1,105
276,132,134371,2,0,B|216:129|172:172,1,105,8|4
80,300,134845,6,0,B|56:192,1,105,0|8
148,56,135319,1,0
148,56,135477,6,0,B|256:44,2,105,0|8|0
116,132,135950,2,0,B|172:120|228:144|228:144|280:168|332:156,1,210,0|8
472,84,136582,5,0
460,188,136740,1,0
372,96,136898,1,0
380,244,137056,1,0
276,112,137213,2,0,B|184:184|220:312,1,210,4|10
288,348,137687,1,10
308,192,137845,2,0,B|236:284|108:248,1,210,4|10
72,88,138477,6,0,B|144:-4|272:32,1,210,4|10
336,64,138950,1,2
188,116,139108,2,0,B|240:96|284:140|284:140|340:124|380:168,1,210,4|2
216,204,139740,6,0,B|152:296|32:288,1,210,4|8
56,208,140213,2,0,B|112:204|148:160,2,105
100,360,140687,2,0,B|152:356|212:312,1,105,8|0
352,284,141003,6,0,B|384:240|440:228|440:228|384:192|396:132,1,210,0|8
480,152,141477,2,0,B|484:96|432:64,2,105
444,304,141950,2,0,B|420:360|364:372,1,105,8|0
284,236,142266,6,0,B|200:152|256:44,1,210,0|8
328,88,142740,2,0,B|296:140|348:184,2,105
176,48,143213,2,0,B|168:104|116:128,1,105,8|0
104,284,143529,5,0
104,284,143845,1,8
104,284,144161,2,0,B|156:328,2,52.5,8|8|0
172,232,144477,2,0,B|160:172,2,52.5,8|0|4
336,264,144950,6,0,B|280:356,1,105,0|0
308,188,145424,1,0
308,188,145582,6,0,B|364:172|404:216,2,105,0|8|4
464,164,146055,1,0
464,164,146371,1,8
320,76,146687,5,0
320,76,146766,1,0
320,76,146845,1,8
320,76,146924,1,8
320,76,147003,1,8
216,52,147161,1,0
236,156,147319,1,4
160,200,151740,6,0,B|212:200|256:244|256:244|300:200|348:200,1,210,12|12
432,56,152371,6,0,B|340:124,1,105
164,118,152845,1,0
164,118,153003,1,12
164,118,153161,2,0,B|80:56,2,105
192,284,153792,5,0
256,336,153950,1,12
320,284,154108,1,0
320,284,154266,2,0,B|356:332|324:384,2,105,0|0|8
256,128,154898,6,0,B|256:16,1,105
184,176,155371,1,0
108,140,155529,1,4
44,192,155687,1,0
72,272,155845,6,0,B|108:320,3,52.5
148,316,156161,2,0,B|204:304,3,52.5
240,316,156477,2,0,B|276:276,3,52.5,12|0|0|0
316,264,156792,2,0,B|364:300,3,52.5,8|0|8|0
396,312,157108,2,0,B|440:268,3,52.5,8|0|8|0
476,268,157424,6,0,B|432:216|460:168|460:168|420:124|440:64,2,210,4|8|0
256,177,158371,1,8
36,268,158687,6,0,B|80:216|52:168|52:168|92:124|72:64,2,210,0|8|0
256,177,159634,1,0
96,328,159950,6,0,B|148:336|200:328,1,104.999996870756
256,328,160187,2,0,B|280:292|256:256|256:256|236:216|256:176,1,157.5
152,60,160740,1,0
152,60,160898,1,8
148,228,161213,6,0,B|148:172,2,52.4999984353781
228,208,161529,2,0,B|228:264,2,52.4999984353781,8|0|0
304,192,161845,1,0
360,104,162003,2,0,B|408:136|428:192|408:248|360:280,1,210
304,192,162477,6,0,B|352:240,2,52.4999984353781,4|0|0
232,272,162792,2,0,B|192:312,2,52.4999984353781,8|0|0
168,192,163108,2,0,B|128:152,2,52.4999984353781,0|0|0
248,120,163424,2,0,B|288:80,2,52.4999984353781,8|0|0
352,240,163740,6,0,B|400:288,2,52.4999984353781,4|0|0
192,312,164055,2,0,B|152:352,2,52.4999984353781,8|0|0
120,152,164371,2,0,B|80:112,2,52.4999984353781,0|0|0
288,80,164687,2,0,B|328:40,2,52.4999984353781,8|0|0
184,208,165003,5,4
40,144,165161,1,0
192,112,165319,1,8
88,232,165477,1,0
104,72,165634,5,4
88,232,165792,1,0
192,112,165950,1,8
40,144,166108,1,0
184,208,166266,6,2,B|200:208|200:208|208:200|208:200|216:216|216:216|224:200|224:200|232:216|232:216|240:200|240:200|248:216|248:216|256:200|256:200|264:216|264:216|272:200|272:200|280:208|280:208|312:208,1,209.999993741512,0|8
380,256,166740,2,0,B|412:201|377:151,1,104.999996870756,0|0
256,312,167213,1,12
256,312,167529,5,4
212,240,167687,2,0,B|164:272|164:336,2,105,0|8|0
204,156,168161,2,0,B|167:111|103:118,2,105,0|0|8
280,188,168634,1,0
424,132,168792,6,0,B|372:106|363:43,2,105,0|0|8
460,208,169266,2,0,B|440:264|388:284,2,105,0|0|0
368,192,169740,2,0,B|256:192,1,104.999996870756,8|0
88,192,170055,6,0,B|200:192,2,104.999996870756,0|0|8
120,288,170529,2,0,B|176:192|120:88,1,209.999993741512,8|0
204,88,171003,1,8
164,12,171161,1,4
204,88,171319,5,0
328,40,171477,2,0,B|408:28|460:144|384:192,2,210,0|0|0
340,124,172266,1,8
200,312,172582,6,0,B|252:324|304:312,1,104.999996870756,0|0
388,308,172898,2,0,B|372:236|308:228|308:228|252:220|224:184,2,210,8|0|8
304,312,173687,1,4
96,312,174003,2,0,B|96:208,1,104.999996870756,0|8
112,124,174319,5,2
192,60,174477,1,2
176,188,174634,1,2
280,84,174792,1,10
248,244,174950,1,2
364,112,175108,6,0,B|425:82,2,52.4999984353781,4|0|0
404,264,175424,2,0,B|428:314,2,52.4999984353781,8|0|8
220,320,175740,2,0,B|169:344,2,52.4999984353781,4|0|0
172,168,176055,2,0,B|147:117,2,52.4999984353781,8|0|0
420,88,176371,6,0,B|481:58,2,52.4999984353781,12|8|8
428,320,176687,2,8,B|452:370,2,52.4999984353781,8|0|8
164,352,177003,2,8,B|113:376,2,52.4999984353781,12|8|8
140,112,177319,2,0,B|115:61,2,52.4999984353781,8|0|8
292,224,177634,1,4
216,88,177950,6,0,B|228:128|200:160,2,70.3500025159122,8|0|0
140,112,178424,2,0,B|112:152|136:192,2,70.3500025159122,0|8|0
48,168,178898,1,0
144,292,179213,6,0,B|180:312|216:288,2,70.3500025159122,8|0|0
176,220,179687,1,0
252,224,179845,2,0,B|292:244|288:296,1,70.3500025159122,8|0
324,128,180161,1,0
324,128,180477,6,0,B|400:88,2,70.3500025159122,8|0|0
376,196,180950,2,0,B|456:204,2,70.3500025159122,0|8|0
236,120,181424,1,0
252,288,181740,6,0,B|224:320|184:316,2,70.3500025159122,8|0|0
188,232,182213,1,0
104,236,182371,2,0,B|100:196|132:172,1,70.3500025159122,8|0
300,220,182687,6,0,B|352:224|392:272|392:272|432:224|480:220,2,210,4|0|12
336,56,183634,1,0
336,56,183950,2,0,B|232:104,1,105,4|4
240,100,184424,1,4
80,56,184740,5,8
56,160,184898,1,8
156,132,185055,1,8
56,160,185213,6,0,B|60:244,1,70.3500025159122,4|2
144,304,185687,1,2
144,304,186003,2,0,B|220:272,2,70.3500025159122,2|2|2
168,192,186634,2,0,B|220:136,1,70.3500025159122,2|8
260,204,186950,2,0,B|336:188,2,70.3500025159122,0|8|0
292,304,187424,1,0
388,264,187582,1,0
388,264,187740,6,0,B|432:224|420:168,2,105,4|0|8
388,264,188213,1,0
356,112,188371,2,0,B|392:72|456:84,2,105,0|0|8
356,112,188845,1,0
204,156,189003,6,0,B|144:164|104:120,2,105,0|0|8
204,156,189477,1,0
92,44,189634,2,0,B|32:60|24:116,2,105,0|0|8
52,196,190108,1,8
164,304,190266,5,0
212,236,190424,2,0,B|256:272|244:336,2,105,0|8|0
368,220,190898,2,0,B|336:268|376:320,2,105,0|0|8
440,264,191371,1,0
288,216,191529,5,0
228,156,191687,2,0,B|272:120|328:140,2,105,0|8|0
364,76,192161,2,0,B|416:112|392:176,2,105,0|0|8
204,84,192634,1,4
112,224,192950,6,0,B|72:332,1,105
236,268,193424,1,0
236,268,193582,6,0,B|268:376,2,105,0|8|0
268,192,194055,2,0,B|312:240|364:252|364:252|412:264|444:312,1,210,0|8
356,160,194687,1,0
456,192,194845,1,0
388,88,195003,1,0
244,120,195161,1,0
236,288,195319,6,0,B|184:272|132:312|132:312|84:272|40:292,1,210,4|10
48,132,195792,1,10
128,160,195950,1,0
128,160,196266,1,10
288,216,196582,6,0,B|336:248,3,52.5,8|0|8|0
356,280,196898,2,0,B|400:240,3,52.5,10|0|10|0
436,232,197213,1,8
452,76,197371,1,8
308,136,197529,1,10
136,96,197845,6,0,B|32:60,1,105,4|0
152,172,198161,2,0,B|44:176,1,105,8|0
192,240,198477,2,0,B|80:292,1,105
256,280,198792,2,0,B|184:360,1,105,8|0
376,96,199108,6,0,B|480:60,1,105
360,172,199424,2,0,B|468:176,1,105,8|0
320,240,199740,2,0,B|432:292,1,105
256,280,200055,2,0,B|328:360,1,105,8|8
256,208,200371,5,0
208,48,200687,2,0,B|256:80|308:48,2,105,8|8|0
208,48,201161,1,0
80,112,201319,1,8
388,56,201634,5,0
80,112,201950,1,8
292,344,202266,1,8
212,312,202424,2,0,B|164:348|112:336,2,105,8|8|4
148,116,203055,6,0,B|60:32,1,105,0|8
116,208,203529,1,0
116,208,203687,6,0,B|12:188,2,105,0|8|4
200,188,204161,1,0
200,188,204477,1,0
332,84,204792,6,0,B|420:168|340:276,1,210,0|4
260,260,205266,1,0
252,104,205424,6,0,B|240:44|296:12,1,105,4|0
452,64,205898,2,0,B|488:168,2,105,0|8|0
388,120,206371,1,0
412,200,206529,1,0
256,184,206687,6,0,B|144:156,2,105,0|0|8
332,220,207161,1,0
264,268,207319,2,0,B|160:312,2,105,0|0|8
332,220,207792,1,0
336,64,207950,5,4
472,144,208108,1,0
332,220,208266,1,0
196,140,208424,1,0
336,64,208582,1,12
332,220,208740,1,0
196,140,208898,2,0,B|144:168|84:148,1,105,4|4
164,304,209371,5,0
164,304,209529,1,8
180,220,209687,2,0,B|232:236|248:296,1,105
312,152,210161,1,12
468,84,210477,6,0,B|508:124|500:188,1,105,4|0
300,64,210950,2,0,B|244:40|200:72,2,105,0|12|0
396,156,211424,2,0,B|384:220|328:232,1,105,0|4
188,160,211740,1,4
188,160,212055,1,8
108,140,212213,2,0,B|100:200|152:236,1,105,0|4
188,160,212529,1,0
236,228,212687,2,0,B|228:288|180:312,1,105,8|0
340,300,213003,6,0,B|444:336,1,105,4|0
148,276,213477,2,0,B|112:380,1,105,0|8
172,84,213950,2,0,B|68:48,1,105,4|0
364,108,214424,2,0,B|400:4,1,105,0|8
252,212,214898,1,0
252,212,215055,2,0,B|264:276,2,52.5
200,52,215529,6,0,B|140:76|132:140,1,105,4|0
300,148,216003,1,0
316,64,216161,2,0,B|372:80|384:140,2,105,8|0|0
348,220,216634,1,0
348,220,216950,2,0,B|296:252|248:216,2,105,0|8|0
100,260,217582,1,0
100,260,217740,1,8
244,344,218055,6,0,B|352:352,1,105,4|0
200,276,218529,1,0
172,196,218687,2,0,B|224:176|272:220,2,105
320,144,219161,1,0
320,144,219477,2,0,B|368:188|348:248,2,105,8|0|0
200,40,219950,1,8
172,196,220108,1,8
320,144,220266,1,8
392,296,220582,6,0,B|444:276|464:224,1,105,4|0
296,232,221055,1,0
264,308,221213,1,12
212,244,221371,1,0
212,244,221529,1,0
340,156,221687,1,0
340,156,222003,2,0,B|388:192|384:248,2,105,8|0|0
172,168,222477,2,0,B|120:200|124:260,2,105,8|0|8
376,56,223108,5,4
376,56,223266,1,0
172,168,223582,1,0
240,220,223740,1,4
240,220,223898,2,0,B|216:272|264:328,2,105,0|8|0
344,244,224371,5,8
312,144,224529,1,8
412,164,224687,1,8
344,244,224845,1,8
312,144,225003,1,0
384,68,225161,5,8
208,124,225319,1,8
344,244,225477,1,4
