osu file format v9

[General]
AudioFilename: Le Ciel - Feather.mp3
AudioLeadIn: 2000
PreviewTime: 61107
Countdown: 0
SampleSet: Normal
StackLeniency: 0.7
Mode: 0
LetterboxInBreaks: 0

[Editor]
DistanceSpacing: 1
BeatDivisor: 4
GridSize: 4

[Metadata]
Title:Feather
Artist:Le Ciel
Creator:l1106188
Version:Hard
Source:Touhou
Tags:Revengexsoyah yasaka kanako The Venerable Ancient Battlefield Suwa Foughten Field Mountain of Faith succubus frontier records

[Difficulty]
HPDrainRate:5
CircleSize:4
OverallDifficulty:6
ApproachRate:7
SliderMultiplier:1.8
SliderTickRate:1

[Events]
//Background and Video events
0,0,"399186.jpg"
//Break Periods
2,59098,60208
2,79308,88313
2,127307,128419
2,147519,150840
2,185413,186524
2,205624,209577
//Storyboard Layer 0 (Background)
//Storyboard Layer 1 (Fail)
//Storyboard Layer 2 (Pass)
//Storyboard Layer 3 (Foreground)
Sprite,Foreground,Centre,"lyric SB\1.png",320,240 F,0,21003,21319,0,1 M,0,21003,31108,546,159,545,170 F,0,21319,30793,1 F,0,30793,31108,1,0
Sprite,Foreground,Centre,"lyric SB\2.png",320,240 F,0,26056,26371,0,1 M,0,26056,31108,499,136,499,143 F,0,26371,30793,1 F,0,30793,31108,1,0
Sprite,Foreground,Centre,"lyric SB\3.png",320,240 S,0,29845,,1.52 F,0,29845,30161,0,1 M,0,29845,31108,456,116,456,120 F,0,30161,30793,1 F,0,30793,31108,1,0
Sprite,Foreground,Centre,"lyric SB\4.png",320,240 F,0,31108,31424,0,1 M,0,31108,40582,546,188,545,199 F,0,31424,40266,1 F,0,40266,40582,1,0
Sprite,Foreground,Centre,"lyric SB\5.png",320,240 F,0,36161,36477,0,1 M,0,36161,40582,506,123,506,132 F,0,36477,40266,1 F,0,40266,40582,1,0
Sprite,Foreground,Centre,"lyric SB\6.png",320,240 S,0,38687,,1.2 F,0,38687,39003,0,1 M,0,38687,40582,505,203,505,205 F,0,39003,40266,1 F,0,40266,40582,1,0
Sprite,Foreground,Centre,"lyric SB\7.png",320,240 S,0,39950,,1.216 F,0,39950,40266,0.05199997,1 M,0,39950,40582,507,247 F,0,40266,40582,1,0
Sprite,Foreground,Centre,"lyric SB\8.png",320,240 F,0,40898,41214,0,1 M,0,40898,45950,530,110,530,114 F,0,41214,45635,1 F,0,45635,45950,1,0 M,0,45950,,530,114
Sprite,Foreground,Centre,"lyric SB\9.png",320,240 F,0,41845,42161,0,1 M,0,41845,45635,528,180,528,184 F,0,42161,45635,1 F,0,45635,45950,1,0
Sprite,Foreground,Centre,"lyric SB\11.png",320,240 F,0,45950,46266,0,1 M,0,45950,51003,528,104,528,109 F,0,46266,50687,1 F,0,50687,51003,1,0
Sprite,Foreground,Centre,"lyric SB\12.png",320,240 F,0,46898,47214,0,1 M,0,46898,51003,527,156,527,158 F,0,47214,50687,1 F,0,50687,51003,1,0
Sprite,Foreground,Centre,"lyric SB\13.png",320,240 F,0,48161,48477,0,1 M,0,48161,51003,528,194,528,195 F,0,48477,50687,1 F,0,50687,51003,1,0
Sprite,Foreground,Centre,"lyric SB\14.png",320,240 F,0,51319,51635,0,1 M,0,51319,55740,540,107,539,112 F,0,51635,55424,1 F,0,55424,55740,1,0
Sprite,Foreground,Centre,"lyric SB\15.png",320,240 F,0,53214,53529,0,1 M,0,53214,55740,540,167,540,170 F,0,53529,55424,1 F,0,55424,55740,1,0
Sprite,Foreground,Centre,"lyric SB\16.png",320,240 F,0,54477,54793,0,1 M,0,54477,55740,543,217,543,219 F,0,54793,55424,1 F,0,55424,55740,1,0
Sprite,Foreground,Centre,"lyric SB\17.png",320,240 F,0,56056,56371,0,1 M,0,56056,60793,532,119,533,125 F,0,56371,60477,1 F,0,60477,60793,1,0
Sprite,Foreground,Centre,"lyric SB\18.png",320,240 F,0,58582,58898,0,1 M,0,58582,60793,533,172,533,175 F,0,58898,60477,1 F,0,60477,60793,1,0
Sprite,Foreground,Centre,"lyric SB\19.png",320,240 F,0,61108,61424,0,1 M,0,61108,67108,532,166,532,174 F,0,61424,66793,1 F,0,66793,67108,1,0
Sprite,Foreground,Centre,"lyric SB\21.png",320,240 F,0,63950,64266,0,1 M,0,63950,67108,489,165,489,170 F,0,64266,66793,1 F,0,66793,67108,1,0
Sprite,Foreground,Centre,"lyric SB\22.png",320,240 F,0,67266,67582,0,1 M,0,67266,71214,525,118,525,122 F,0,67582,70898,1 F,0,70898,71214,1,0.09600006
Sprite,Foreground,Centre,"lyric SB\23.png",320,240 F,0,68371,68687,0,1 M,0,68371,71214,490,165,490,171 F,0,68687,70898,1 F,0,70898,71214,1,0
Sprite,Foreground,Centre,"lyric SB\24.png",320,240 F,0,70266,70582,0,1 M,0,70266,71214,456,108,456,112 F,0,70582,70898,1 F,0,70898,71214,1,0
Sprite,Foreground,Centre,"lyric SB\25.png",320,240 F,0,71529,71845,0,1 M,0,71529,77214,531,156,532,171 F,0,71845,76898,1 F,0,76898,77214,1,0
Sprite,Foreground,Centre,"lyric SB\26.png",320,240 F,0,74056,74371,0,1 M,0,74056,77214,490,149,490,157 F,0,74371,76898,1 F,0,76898,77214,1,0
Sprite,Foreground,Centre,"lyric SB\27.png",320,240 F,0,77371,77687,0.05999992,1 M,0,77371,79424,523,151,523,157 F,0,77687,79108,1 F,0,79108,79424,1,0
Sprite,Foreground,Centre,"lyric SB\28.png",320,240 F,0,89214,89529,0,1 M,0,89214,99003,542,167,542,183 F,0,89529,98687,1 F,0,98687,99003,1,0
Sprite,Foreground,Centre,"lyric SB\29.png",320,240 F,0,94266,94582,0,1 M,0,94266,99003,504,119,503,128 F,0,94582,98687,1 F,0,98687,99003,1,0
Sprite,Foreground,Centre,"lyric SB\31.png",320,240 F,0,99319,99635,0,1 M,0,99319,108793,542,178,543,189 F,0,99635,108477,1 F,0,108477,108793,1,0
Sprite,Foreground,Centre,"lyric SB\32.png",320,240 F,0,104371,104687,0,1 M,0,104371,108793,505,133,505,139 F,0,104687,108477,1 F,0,108477,108793,1,0
Sprite,Foreground,Centre,"lyric SB\33.png",320,240 F,0,109108,109424,0,1 M,0,109108,119214,528,151,528,159 F,0,109424,118898,1 F,0,118898,119214,1,0
Sprite,Foreground,Centre,"lyric SB\34.png",320,240 F,0,114161,114477,0,1 M,0,114161,119214,490,150,490,156 F,0,114477,118898,1 F,0,118898,119214,1,0
Sprite,Foreground,Centre,"lyric SB\14.png",320,240 F,0,119529,119845,0,1 M,0,119529,123950,536,122,535,130 F,0,119845,123635,1 F,0,123635,123950,1,0
Sprite,Foreground,Centre,"lyric SB\35.png",320,240 F,0,121424,121740,0,1 M,0,121424,123950,535,177,535,180 F,0,121740,123635,1 F,0,123635,123950,1,0
Sprite,Foreground,Centre,"lyric SB\36.png",320,240 F,0,122687,123003,0,1 M,0,122687,123950,534,220,534,221 F,0,123003,123635,1 F,0,123635,123950,1,0
Sprite,Foreground,Centre,"lyric SB\37.png",320,240 F,0,124266,124582,0,1 M,0,124266,129003,525,116,525,121 F,0,124582,128687,1 F,0,128687,129003,1,0
Sprite,Foreground,Centre,"lyric SB\18.png",320,240 F,0,126793,127108,0,1 M,0,126793,129003,525,168,525,169 F,0,127108,128687,1 F,0,128687,129003,1,0
Sprite,Foreground,Centre,"lyric SB\38.png",320,240 F,0,129319,129635,0,1 M,0,129319,135319,536,192,536,196 F,0,129635,135003,1 F,0,135003,135319,1,0
Sprite,Foreground,Centre,"lyric SB\39.png",320,240 F,0,132161,132477,0,1 M,0,132161,135319,491,153,491,159 F,0,132477,135003,1 F,0,135003,135319,1,0
Sprite,Foreground,Centre,"lyric SB\22.png",320,240 F,0,135477,135793,0,1 M,0,135477,139424,533,115,533,121 F,0,135793,139108,1 F,0,139108,139424,1,0
Sprite,Foreground,Centre,"lyric SB\41.png",320,240 F,0,136582,136898,0,1 M,0,136582,139424,497,154,498,163 F,0,136898,139108,1 F,0,139108,139424,1,0
Sprite,Foreground,Centre,"lyric SB\42.png",320,240 F,0,138477,138793,0,1 M,0,138477,139424,465,111,465,112 F,0,138793,139108,1 F,0,139108,139424,1,0
Sprite,Foreground,Centre,"lyric SB\43.png",320,240 F,0,139740,140056,0,1 M,0,139740,145424,525,164,525,169 F,0,140056,145108,1 F,0,145108,145424,1,0 M,0,145424,145428,525,169,525,164
Sprite,Foreground,Centre,"lyric SB\44.png",320,240 F,0,142266,142582,0,1 M,0,142266,145424,484,154,484,160 F,0,142582,145108,1 F,0,145108,145424,1,0
Sprite,Foreground,Centre,"lyric SB\45.png",320,240 F,0,145582,145898,0,1 M,0,145582,147635,527,156,527,164 F,0,145898,147319,1 F,0,147319,147635,1,0
Sprite,Foreground,Centre,"lyric SB\14.png",320,240 F,0,177635,177950,0,1 M,0,177635,182056,526,116,526,120 F,0,177950,181740,1 F,0,181740,182056,1,0
Sprite,Foreground,Centre,"lyric SB\15.png",320,240 F,0,179529,179845,0,1 M,0,179529,182056,525,176,525,178 F,0,179845,181740,1 F,0,181740,182056,1,0
Sprite,Foreground,Centre,"lyric SB\16.png",320,240 F,0,180793,181108,0,1 M,0,180793,182056,527,226,527,227 F,0,181108,181740,1 F,0,181740,182056,1,0
Sprite,Foreground,Centre,"lyric SB\17.png",320,240 F,0,182371,182687,0,1 M,0,182371,187108,522,121,522,124 F,0,182687,186793,1 F,0,186793,187108,1,0
Sprite,Foreground,Centre,"lyric SB\18.png",320,240 F,0,184898,185214,0,1 M,0,184898,187108,522,170,522,172 F,0,185214,186793,1 F,0,186793,187108,1,0
Sprite,Foreground,Centre,"lyric SB\19.png",320,240 F,0,187424,187740,0,1 M,0,187424,193424,538,172,538,180 F,0,187740,193108,1 F,0,193108,193424,1,0
Sprite,Foreground,Centre,"lyric SB\21.png",320,240 F,0,190266,190582,0,1 M,0,190266,193424,493,171,493,176 F,0,190582,193108,1 F,0,193108,193424,1,0
Sprite,Foreground,Centre,"lyric SB\22.png",320,240 F,0,193582,193898,0,1 M,0,193582,197529,536,118,536,124 F,0,193898,197214,1 F,0,197214,197529,1,0
Sprite,Foreground,Centre,"lyric SB\23.png",320,240 F,0,194687,195003,0,1 M,0,194687,197529,500,153,500,161 F,0,195003,197214,1 F,0,197214,197529,1,0
Sprite,Foreground,Centre,"lyric SB\24.png",320,240 F,0,196582,196898,0,1 M,0,196582,197529,465,107,465,109 F,0,196898,197214,1 F,0,197214,197529,1,0
Sprite,Foreground,Centre,"lyric SB\25.png",320,240 F,0,197845,198161,0,1 M,0,197845,203529,526,162,526,168 F,0,198161,203214,1 F,0,203214,203529,1,0
Sprite,Foreground,Centre,"lyric SB\26.png",320,240 F,0,200371,200687,0,1 M,0,200371,203529,486,143,486,149 F,0,200687,203214,1 F,0,203214,203529,1,0
Sprite,Foreground,Centre,"lyric SB\27.png",320,240 F,0,203687,204003,0,1 M,0,203687,205740,523,149,523,156 F,0,204003,205424,1 F,0,205424,205740,1,0
//Storyboard Sound Samples
//Background Colour Transformations
3,100,163,162,255

[TimingPoints]
518,315.789473684211,4,1,1,50,1,0
833,-149.253731343284,4,1,1,50,0,0
2056,315.789473684211,4,1,1,50,1,0
2056,-149.253731343284,4,1,1,50,0,0
21003,-200,4,2,1,50,0,0
31108,-149.253731343284,4,1,2,50,0,0
38687,-100,4,1,1,50,0,0
51319,-149.253731343284,4,1,1,50,0,0
56371,-100,4,1,1,50,0,0
61424,-100,4,1,1,50,0,1
71371,-100,4,1,1,50,0,0
71529,-100,4,1,1,50,0,1
79108,-100,4,1,1,50,0,0
89214,-100,4,1,1,38,0,0
98371,-100,4,2,2,50,0,0
98529,-100,4,1,1,38,0,0
109740,-100,4,1,1,50,0,0
119845,-149.253731343284,4,1,1,50,0,0
124898,-100,4,1,1,50,0,0
129635,-100,4,1,1,50,0,1
139661,-100,4,1,1,50,0,0
139740,-100,4,1,1,50,0,1
147319,-100,4,1,1,50,0,0
174319,-100,4,1,1,38,0,0
175029,-100,4,1,1,50,0,0
180161,-100,4,1,1,50,0,0
187740,-100,4,1,1,50,0,1
197766,-100,4,1,1,50,0,0
197845,-100,4,1,1,50,0,1
205424,-149.253731343284,4,1,1,50,0,0

[Colours]
Combo1 : 174,87,0
Combo2 : 187,0,0
Combo3 : 157,60,255
SliderBorder : 200,200,200 SpinnerApproachCircle :
222,155,0

[HitObjects]
164,192,833,2,0,B|224:192,1,60.3000021564961
352,192,1307,2,0,B|288:192,1,60.3000021564961,0|8
256,80,1781,1,0
256,24,1939,1,0
256,24,2056,1,0
352,136,2371,1,8
352,192,2529,6,0,B|376:248,1,60
165,192,3003,2,0,B|141:248,1,60
144,296,3319,6,0,B|256:352|380:296,1,241.200008625985,4|8
312,232,4108,1,0
256,160,4266,1,4
200,232,4424,2,0,B|152:184|176:120,1,120.600004312992,4|0
256,160,4898,1,8
334,121,5055,2,0,B|360:184|310:233,1,120.600004312992,0|0
256,304,5529,1,12
256,160,5845,6,4,B|256:96,1,60
256,224,6319,2,0,B|256:296,1,60,0|12
136,256,6792,1,4
128,312,6950,1,4
168,360,7108,1,0
256,288,7424,2,0,B|272:328|328:336|360:300,2,120.600004312992,12|0|12
256,104,8371,5,4
336,64,8529,2,0,B|372:136|304:208|244:188,1,180.900006469488,4|12
264,24,9319,1,4
256,104,9477,2,0,B|176:32|96:104,1,180,4|12
176,152,10108,1,0
176,240,10266,6,8,B|205:232,3,30,8|0|0|8
248,224,10582,2,8,B|280:240,3,30,8|8|0|8
304,240,10898,6,0,B|336:208|336:208|368:232|408:216,2,120.600004312992,4|0|8
256,320,11687,2,0,B|192:328,1,60.3000021564961,8|0
104,328,12003,2,0,B|112:264|176:240,1,120.600004312992
256,192,12477,1,8
328,240,12634,2,0,B|408:312|488:240,1,180,0|8
440,64,13424,6,0,B|456:92|440:120,1,60,0|0
264,72,13898,2,0,B|237:135|169:131,1,120,0|8
168,40,14371,1,8
75,72,14529,2,0,B|101:135|169:131,1,120,0|0
168,40,15003,1,8
168,40,15161,2,0,B|168:228,1,180.900006469488,4|8
432,192,15950,5,4
344,176,16108,2,0,B|336:240|400:272,1,120
432,192,16582,1,8
408,104,16740,1,0
320,88,16898,1,0
256,32,17056,2,0,B|216:88|256:144,1,120
256,232,17529,1,12
330,282,17687,2,0,B|290:338|218:338|176:280,1,180.900006469488,0|8
344,208,18477,5,4
344,208,18634,2,0,B|408:224|424:288,1,120
336,296,19108,1,12
256,336,19266,1,0
176,296,19424,1,0
168,208,19582,1,0
256,40,20056,6,0,B|256:160,1,120,12|8
256,248,20529,1,8
256,336,20687,1,8
256,336,21003,6,0,B|160:336,3,90,4|0|2|0
96,288,22266,2,0,B|24:216,3,90,0|0|2|0
72,152,23529,2,0,B|72:48,3,90,0|0|2|0
160,64,24792,2,0,B|248:96,1,90,2|2
208,176,25424,2,0,B|264:248,1,90,0|2
256,336,26056,6,0,B|352:336,3,90,0|0|2|0
416,288,27319,2,0,B|488:216,3,90,0|0|2|0
440,152,28582,2,0,B|440:48,3,90,0|0|2|0
352,64,29845,2,0,B|264:96,1,90,2|0
304,176,30477,2,0,B|248:248,1,90,2|2
128,336,31108,6,2,B|208:368|296:336|296:336|392:296|488:340,1,361.800012938977,6|2
416,232,32371,2,0,B|352:224|288:232,1,120.600004312992,2|0
240,240,32845,2,0,B|176:248|116:240,1,120.600004312992,0|0
64,224,33319,1,2
128,144,33634,2,2,B|216:112|304:144|304:144|392:176|488:140,1,361.800012938977,2|2
416,48,34898,6,0,B|352:48,3,60,2|0|2|0
296,48,35529,2,0,B|236:48,3,60.3000021564961,2|0|2|0
176,48,36161,6,2,B|124:118|33:152|33:152|78:238|72:332,1,361.800012938977,6|2
160,256,37424,2,2,B|246:268|319:332|319:332|373:252|460:216,1,361.800012938977
312,112,38687,6,0,B|360:112|384:64,1,89.9999973177911,2|0
300,28,39003,2,8,B|212:28,1,89.9999973177911
128,64,39319,2,0,B|151:110|199:110,1,89.9999973177911,2|0
256,176,39634,1,8
128,318,39950,6,0,B|152:272|200:272,1,89.9999973177911,2|0
211,356,40266,2,0,B|299:356,1,89.9999973177911,10|0
384,320,40582,2,8,B|360:273|312:273,1,89.9999973177911,10|8
256,208,40898,2,0,B|256:24,1,179.999994635582,10|4
416,104,41529,6,0,B|456:128|464:176,2,89.9999973177911,8|0|0
368,184,42003,2,0,B|376:232|416:256,1,89.9999973177911,0|8
352,328,42319,1,0
256,320,42477,1,0
96,104,42792,6,0,B|56:128|48:176,2,89.9999973177911,8|0|0
144,184,43266,2,0,B|135:232|95:256,1,89.9999973177911,0|8
160,328,43582,1,0
256,320,43740,1,0
300,96,44056,6,0,B|256:72|212:96,2,90,8|0|0
256,176,44529,1,0
300,254,44687,2,0,B|256:278|212:254,2,90,8|0|0
256,176,45161,1,0
344,176,45319,2,0,B|384:200|392:248,2,90,8|0|0
256,176,45792,1,0
168,176,45950,2,0,B|128:152|120:104,2,90,8|8|0
376,48,46582,6,0,B|400:72|400:72|428:60|456:72,2,89.9999973177911,8|0|0
288,48,47056,1,0
288,48,47213,1,8
304,144,47371,1,0
256,224,47529,1,0
136,48,47845,6,0,B|112:72|112:72|84:60|56:72,2,89.9999973177911,8|0|0
224,48,48319,1,0
224,48,48477,1,8
208,144,48634,1,0
256,224,48792,1,0
432,208,49108,6,0,B|432:296,1,89.9999973177911,0|8
360,176,49424,2,0,B|360:88,1,89.9999973177911
288,208,49740,2,0,B|288:304,1,89.9999973177911,8|0
216,176,50056,2,0,B|216:80,1,89.9999973177911
144,208,50371,2,8,B|144:296,1,89.9999973177911
72,176,50687,2,0,B|72:88,1,89.9999973177911
144,40,51003,5,8
264,120,51319,1,4
400,96,51634,6,0,B|472:96,2,60,8|0|0
328,40,52108,1,0
240,40,52266,1,8
160,80,52424,1,0
112,160,52582,1,0
112,160,52898,6,0,B|40:160,2,60,8|0|0
192,120,53371,1,0
280,104,53529,1,8
360,144,53687,1,0
400,224,53845,1,0
400,224,54161,6,0,B|464:224,2,60.3000021564961,8|0|0
320,176,54634,1,0
232,200,54792,1,8
144,200,54950,1,0
112,288,55108,1,0
112,288,55424,6,0,B|40:288,2,60.3000021564961,8|0|0
192,336,55898,1,0
280,352,56056,1,8
368,344,56213,1,0
456,352,56371,6,0,B|464:304|424:264|424:264|392:232|408:184,1,179.999994635582,4|8
320,176,56845,1,0
384,112,57003,2,0,B|360:72|384:32|384:32|288:32,1,179.999994635582,4|8
216,88,57477,1,0
144,32,57634,2,0,B|112:96|144:160|208:176,1,179.999994635582,4|8
252,252,58108,2,0,B|208:276|160:256,2,90,4|0|0
296,168,58582,6,0,B|384:168,1,89.9999973177911,6|2
386,169,58898,1,4
256,192,61108,5,0
256,192,61266,1,0
256,192,61424,5,4
360,48,61740,1,8
472,192,62056,1,0
360,328,62371,1,8
256,192,62687,1,0
152,48,63003,1,8
40,192,63319,1,0
152,328,63634,1,8
256,192,63950,5,0
464,192,64266,2,8,B|368:192,1,89.9999973177911,0|8
304,120,64582,1,0
112,168,64898,1,8
152,328,65213,2,0,B|240:360|328:328,1,179.999994635582,0|8
464,192,65845,1,0
288,152,66161,2,0,B|288:64,1,89.9999973177911,0|4
464,192,66634,2,0,B|464:280,1,89.9999973177911,0|8
128,192,67108,5,0
128,192,67266,1,0
192,256,67424,1,8
256,192,67582,1,0
192,128,67740,2,0,B|280:104|280:104|344:40,1,179.999994635582,0|8
336,152,68371,5,0
400,88,68529,1,0
464,152,68687,1,8
400,216,68845,1,0
480,256,69003,6,0,B|400:296|400:296|320:256,1,179.999994635582,4|10
256,320,69477,1,2
192,256,69634,2,0,B|112:296|112:296|32:256,1,179.999994635582,0|10
32,128,70266,6,0,B|112:88|112:88|192:128,1,179.999994635582,4|10
256,64,70740,1,6
320,128,70898,2,0,B|400:88|400:88|480:128,1,179.999994635582,0|10
344,248,71529,6,0,B|256:296|168:248,1,179.999994635582,4|8
168,136,72161,2,0,B|256:88|344:136,1,179.999994635582,0|8
344,336,72792,2,0,B|256:352|256:352|168:336,1,179.999994635582,0|8
166,48,73424,2,0,B|256:32|256:32|344:48,1,179.999994635582,0|8
384,128,73898,1,8
296,128,74056,5,0
120,144,74371,2,0,B|112:192|80:224|80:224|112:256|120:304,1,179.999994635582,8|0
392,304,75003,2,0,B|400:256|432:224|432:224|400:192|392:144,1,179.999994635582,8|0
256,24,75634,2,0,B|256:204,1,179.999994635582,8|0
208,280,76108,1,8
256,360,76266,1,8
304,280,76424,1,4
120,328,76740,6,0,B|120:240,1,89.9999973177911,0|8
392,328,77213,1,0
392,328,77371,2,0,B|392:238,1,89.9999973177911,0|8
472,192,77687,1,4
392,144,77845,1,0
256,280,78161,1,8
256,96,78477,6,0,B|168:64|80:96,1,179.999994635582,0|8
80,96,78950,1,0
80,96,79108,1,4
256,128,89213,6,0,B|268:79|316:63,2,89.9999973177911,0|0|8
192,192,89687,1,0
256,256,89845,2,0,B|243:304|195:320,2,89.9999973177911,2|0|10
256,256,90319,1,0
256,256,90477,6,0,B|269:304|317:320,2,89.9999973177911,0|0|8
176,296,90950,1,2
178,208,91108,2,0,B|112:208|72:272|96:336,1,179.999994635582,2|2
176,296,91582,1,0
256,256,91740,6,0,B|269:208|317:192,2,89.9999973177911,2|0|8
344,280,92213,1,2
368,368,92371,2,0,B|416:355|432:307,2,89.9999973177911,2|0|10
256,256,92845,1,0
256,128,93003,6,0,B|232:84|256:40,2,89.9999973177911,2|0|10
336,88,93477,1,0
416,44,93634,2,0,B|440:88|416:132,2,89.9999973177911,2|0|10
336,88,94108,1,0
336,176,94266,6,0,B|392:272|296:328,1,179.999994635582,2|8
264,240,94740,1,2
208,312,94898,2,2,B|168:280|176:232,2,89.9999973177911,2|0|10
104,288,95371,1,0
56,200,95529,6,0,B|56:104|56:104|120:40,1,179.999994635582,2|8
144,128,96003,1,2
192,56,96161,2,0,B|224:88|224:88|224:144,2,89.9999973177911,0|0|10
288,40,96634,1,0
376,72,96792,6,0,B|416:152|376:248,1,179.999994635582,2|8
288,248,97266,1,2
336,328,97424,2,0,B|248:328,2,89.9999973177911,2|0|10
424,288,97898,1,0
416,192,98056,6,0,B|368:120|256:88|152:120|104:192,1,359.999989271164,2|2
148,268,98845,2,0,B|104:292|60:268,1,89.9999973177911,0|14
256,264,99319,6,0,B|256:352,2,89.9999973177911,4|0|8
344,232,99792,1,0
424,192,99950,2,2,B|424:96,2,89.9999973177911,2|0|10
344,232,100424,1,0
256,264,100582,2,0,B|256:176|256:176|192:96,1,179.999994635582,2|8
112,96,101056,1,2
48,160,101213,2,0,B|48:248|48:248|112:328,1,179.999994635582,2|10
200,336,101687,1,0
288,336,101845,6,0,B|376:336,2,89.9999973177911,2|0|0
200,336,102319,1,2
168,256,102477,2,0,B|144:168,2,89.9999973177911,2|0|10
168,256,102950,1,0
320,160,103108,6,0,B|276:144|232:160,2,89.9999973177911,2|0|10
400,200,103582,1,0
320,240,103740,2,0,B|276:256|232:240,2,89.9999973177911,2|0|10
400,200,104213,1,0
404,112,104371,6,0,B|336:48|232:72,1,179.999994635582,2|0
152,96,104845,1,2
80,152,105003,2,2,B|56:196|80:240,2,89.9999973177911,2|0|10
168,176,105477,1,0
256,136,105634,6,0,B|216:223|255:310,1,179.999994635582,2|8
345,310,106108,2,0,B|384:223|344:135,1,179.999994635582,2|0
299,56,106582,1,10
208,56,106740,1,8
120,88,106898,6,0,B|120:136|80:168|80:168|120:200|120:248,2,179.999994635582,2|8|10
192,125,107687,1,0
192,126,107845,2,0,B|192:216,1,89.9999973177911,0|8
264,243,108161,2,0,B|264:200|304:168|304:168|264:136|264:88,2,179.999994635582,2|10|10
192,216,108950,1,0
192,216,109108,2,0,B|192:306,2,89.9999973177911,10|0|4
464,192,109740,5,8
464,192,109898,1,0
376,200,110056,2,0,B|376:248|424:272,2,89.9999973177911,0|0|8
320,128,110529,1,0
256,64,110687,1,0
48,192,111003,5,8
48,192,111161,1,0
136,200,111319,2,0,B|136:248|88:272,2,89.9999973177911,0|0|8
192,128,111792,1,0
256,64,111950,1,0
256,280,112266,6,0,B|304:288|336:320,2,89.9999973177911,8|0|0
256,192,112740,1,0
256,104,112898,2,0,B|208:96|176:64,2,89.9999973177911,8|0|0
256,192,113371,1,0
168,192,113529,6,8,B|164:240|207:271,2,90,8|0|0
256,192,114003,1,0
343,191,114161,2,0,B|348:140|304:112,2,90,8|8|4
256,312,114792,5,8
164,344,114950,1,0
72,312,115108,2,0,B|64:256|104:232,2,89.9999973177911,0|0|8
164,344,115582,1,0
256,312,115740,1,0
256,312,116056,5,8
348,344,116213,1,0
440,312,116371,2,0,B|448:256|408:232,2,89.9999973177911,0|0|8
256,312,116845,1,0
256,312,117003,1,4
144,120,117319,6,0,B|240:120,1,89.9999973177911,8|0
368,120,117634,2,0,B|272:120,1,89.9999973177911
112,192,117950,2,0,B|208:192,1,89.9999973177911,8|0
400,192,118266,2,0,B|304:192,1,89.9999973177911
144,264,118582,2,0,B|240:264,1,89.9999973177911,8|0
368,264,118898,2,0,B|272:264,1,89.9999973177911
256,312,119134,2,0,B|238:352,5,45,8|8|8|8|8|4
312,40,119845,5,8
400,48,120003,2,0,B|428:61|441:88,2,60
312,40,120477,1,8
256,112,120634,1,0
256,192,120792,1,0
80,216,121108,5,8
48,136,121266,2,0,B|20:149|7:176,2,60
112,72,121740,1,8
192,120,121898,1,4
168,208,122056,1,0
352,208,122371,5,12
320,288,122529,2,0,B|288:280|272:248,2,60.3000021564961,8|0|0
352,208,123003,1,8
352,208,123161,1,0
272,160,123319,1,0
448,200,123634,5,8
440,112,123792,2,0,B|408:112|384:136,2,60.3000021564961,8|0|0
448,200,124266,1,8
408,280,124424,1,0
352,208,124582,1,4
80,172,124898,6,0,B|56:216|80:260,1,89.9999973177911,8|0
160,304,125213,2,0,B|160:120,1,179.999994635582,4|8
240,176,125687,2,0,B|264:220|240:264,2,89.9999973177911,0|4|4
240,88,126161,2,8,B|288:96|312:136,1,89.9999973177911,8|12
328,224,126477,6,0,B|360:272|416:256|416:256|432:336,1,179.999994635582,0|12
344,336,126950,2,0,B|264:384,1,89.9999973177911,0|4
72,160,129319,6,0,B|32:120|32:72,1,90,8|0
120,72,129634,6,0,B|144:136|184:88|184:88|224:136|248:72,1,179.999994635582,4|8
336,80,130108,2,0,B|328:128|296:160,2,89.9999973177911
248,72,130582,1,8
40,224,130898,6,0,B|48:288|48:288|112:264|160:304,1,179.999994635582,0|8
248,304,131371,2,0,B|344:304,2,89.9999973177911
294,226,131845,1,8
203,226,132003,1,8
294,226,132161,6,0,B|368:160|344:64,1,179.999994635582,0|8
256,40,132634,1,0
256,128,132792,2,0,B|432:168,1,179.999994635582,0|8
218,226,133424,6,0,B|144:160|168:64,1,179.999994635582,0|8
256,40,133898,1,0
256,128,134056,2,0,B|80:168,1,179.999994635582,0|8
56,256,134529,1,4
212,345,134845,2,0,B|308:345,1,89.9999973177911,0|8
176,216,135319,5,0
256,264,135477,2,0,B|272:220|256:176,2,89.9999973177911,0|8|0
176,216,135950,2,0,B|360:216,1,179.999994635582,4|8
384,40,136582,5,0
300,72,136740,1,0
212,72,136898,1,8
128,40,137056,1,0
256,152,137213,6,0,B|256:336,1,179.999994635582,4|10
344,336,137687,1,10
344,248,137845,2,0,B|344:160|344:160|424:112,1,179.999994635582,4|10
256,152,138477,6,0,B|256:336,1,179.999994635582,4|10
168,336,138950,1,10
168,248,139108,2,0,B|168:160|168:160|88:112,1,179.999994635582,4|10
256,336,139740,6,0,B|328:336|368:272|352:208,1,179.999994635582,4|8
256,240,140213,1,0
256,240,140371,2,0,B|416:336,1,179.999994635582,0|8
256,336,141003,6,0,B|184:336|144:272|160:208,1,179.999994635582,0|8
256,240,141477,1,0
256,240,141634,2,0,B|96:336,1,179.999994635582,0|8
256,240,142266,6,0,B|256:56,1,179.999994635582,0|8
344,80,142740,1,0
344,80,142898,2,0,B|372:120|344:164,2,89.9999973177911,0|0|8
456,232,143529,6,0,B|368:248|368:248|360:296|312:320,1,179.999994635582,0|8
272,240,144003,2,8,B|232:256,2,44.9999986588955
320,160,144319,2,8,B|368:168,2,44.9999986588955
224,160,144634,2,0,B|168:184|112:152|112:152|64:200,1,179.999994635582,4|0
32,104,145108,1,8
80,312,145424,5,0
184,320,145582,1,0
256,256,145740,1,0
256,256,145898,1,0
256,256,146055,2,0,B|256:64,1,179.999994635582,4|8
344,232,146687,5,0
256,256,146845,2,8,B|256:304,2,44.9999986588955
168,232,147161,1,0
168,232,147319,1,4
256,96,151740,6,8,B|256:288,1,179.999994635582
176,112,152371,5,0
176,200,152529,2,0,B|256:272|336:200,1,179.999994635582
336,112,153003,1,12
312,24,153161,1,0
256,96,153319,5,0
200,24,153477,2,0,B|120:16|80:72|88:128,1,179.999994635582
88,216,153950,1,12
88,216,154108,1,0
176,200,154266,2,0,B|192:248|160:288,2,89.9999973177911,0|0|12
296,336,154898,5,0
360,272,155055,2,0,B|320:248|272:256|272:256|296:216|280:168,1,179.999994635582
368,184,155529,1,4
368,184,155687,1,0
400,104,155845,6,0,B|368:64|320:72,3,89.9999973177911
256,136,156477,2,8,B|264:184|232:224,3,89.9999973177911
160,168,157108,1,8
152,80,157266,1,8
64,104,157424,6,0,B|40:192|40:192|80:232|64:272,2,179.999994635582,4|8|0
256,192,158371,1,8
448,104,158687,6,0,B|472:192|472:192|432:232|448:272,2,179.999994635582,0|8|0
256,192,159634,1,8
120,312,159950,6,0,B|152:224,2,89.9999973177911,0|0|8
88,136,160582,1,0
256,192,160898,1,8
392,312,161213,6,0,B|360:224,2,89.9999973177911,0|0|8
424,136,161845,1,0
256,192,162161,1,8
256,288,162477,6,0,B|256:336,2,44.9999986588955
352,192,162792,2,0,B|408:192,2,44.9999986588955,8|0|0
256,96,163108,2,0,B|256:40,2,44.9999986588955,0|0|0
160,192,163424,2,0,B|104:192,2,44.9999986588955,8|0|0
160,288,163740,6,0,B|126:321,2,44.9999986588955
160,96,164055,2,0,B|128:64,2,44.9999986588955,8|0|0
352,96,164371,2,0,B|391:56,2,44.9999986588955,0|0|0
352,288,164687,2,0,B|383:319,2,44.9999986588955,8|0|0
256,192,165003,5,0
304,272,165161,1,0
352,192,165319,1,8
304,112,165477,1,0
256,192,165634,5,0
208,272,165792,1,0
160,192,165950,1,8
208,112,166108,1,0
256,32,166266,6,2,B|168:0|80:32,1,179.999994635582,0|8
120,112,166740,1,0
256,193,166898,2,0,B|159:217|76:193,1,179.999994635582,0|4
344,184,167529,6,0,B|392:200|392:256,2,89.9999973177911,4|0|8
256,192,168003,1,0
168,184,168161,2,0,B|120:200|120:256,2,89.9999973177911,0|0|8
256,192,168634,1,0
216,112,168792,6,0,B|168:88|168:40,2,89.9999973177911,0|0|8
256,192,169266,1,0
296,112,169424,2,0,B|344:88|344:40,2,89.9999973177911,0|0|8
256,192,169898,1,0
256,192,170055,6,0,B|256:280,2,89.9999973177911,0|0|8
256,104,170529,2,0,B|184:104|144:176|176:232,1,179.999994635582,8|0
256,192,171003,2,0,B|104:88,1,179.999994635582,8|0
64,168,171477,6,0,B|40:212|64:256,1,89.9999973177911,0|8
256,312,171950,1,0
449,254,172266,2,0,B|472:212|448:168,1,89.9999973177911,0|0
404,90,172582,6,0,B|256:192,1,179.999994635582,0|8
337,229,173055,2,0,B|368:176|328:104|256:104,1,179.999994635582,0|0
256,192,173529,2,0,B|256:280,1,89.9999973177911,8|4
88,192,174003,5,0
48,272,174161,1,8
136,272,174319,1,2
176,352,174477,1,2
216,272,174634,1,2
304,272,174792,1,10
256,192,174950,1,2
200,120,175108,6,0,B|168:88,2,44.9999986588955
256,48,175424,2,0,B|256:104,2,44.9999986588955,8|0|8
312,120,175740,2,0,B|344:88,2,44.9999986588955
256,192,176055,1,8
256,192,176213,1,0
200,264,176371,6,8,B|168:296,2,44.9999986588955
256,336,176687,2,0,B|256:280,2,44.9999986588955,8|0|8
312,264,177003,2,8,B|344:296,2,44.9999986588955
256,192,177319,1,8
256,16,177634,5,4
432,64,177950,2,0,B|480:160,1,90,8|0
352,280,178424,2,0,B|368:368,1,90,0|8
256,272,178898,5,0
80,320,179213,2,0,B|32:224,1,90,8|0
144,96,179687,2,0,B|128:8,1,90,0|8
256,96,180161,5,0
120,216,180477,2,0,B|184:280,1,89.9999973177911,8|0
304,152,180950,2,0,B|240:216,1,89.9999973177911,0|8
376,336,181424,5,0
480,184,181740,2,0,B|408:112,1,89.9999973177911
248,48,182213,2,0,B|184:112,1,89.9999973177911,0|8
320,80,182687,6,0,B|296:120|256:144|256:144|296:168|320:208,1,179.999994635582,4|0
232,232,183161,1,0
296,296,183319,2,0,B|256:320|232:360|232:360|208:320|168:296,1,179.999994635582,4|0
232,232,183792,1,8
144,208,183950,1,12
144,208,184108,2,0,B|100:224|56:208,1,89.9999973177911,4|0
56,120,184424,2,0,B|100:103|144:119,1,89.9999973177911,4|0
232,144,184740,5,8
352,80,184898,1,8
456,168,185055,1,8
336,232,185213,1,4
256,120,187424,5,0
256,120,187582,1,0
256,120,187740,6,0,B|256:24,2,89.9999973177911,4|0|8
144,192,188213,1,0
256,264,188371,1,0
368,192,188529,2,0,B|456:192,2,89.9999973177911,0|8|0
376,56,189003,5,0
256,120,189161,2,0,B|256:216,2,89.9999973177911,0|8|0
136,56,189634,1,0
256,120,189792,1,0
256,120,189950,1,8
376,56,190108,1,8
464,160,190266,6,0,B|480:248|480:248|472:248|472:248|488:336,1,179.999994635582,0|0
368,256,190740,1,0
272,160,190898,2,0,B|256:248|256:248|264:248|264:248|248:336,1,179.999994635582,0|0
368,256,191371,1,0
368,120,191529,6,0,B|304:72|304:72|296:56|280:64|280:64|208:56,1,179.999994635582,0|8
112,152,192003,1,0
112,288,192161,2,0,B|176:336|176:336|184:352|200:344|200:344|272:352,1,179.999994635582,0|8
368,256,192634,1,4
112,152,192950,2,0,B|192:192,1,89.9999973177911,0|8
256,344,193424,1,0
256,344,193582,6,0,B|256:256,2,89.9999973177911,0|8|0
168,352,194055,2,0,B|128:288|128:288|120:288|120:288|64:200,1,179.999994635582,4|8
208,96,194687,5,0
160,160,194845,1,8
304,96,195003,1,0
352,160,195161,1,8
256,192,195319,6,0,B|256:264|256:264|248:272|256:280|256:280|264:288|256:296|256:296|256:368,1,179.999994635582,4|10
336,320,195792,1,10
384,240,195950,2,0,B|440:216|456:152|424:96|392:88,1,179.999994635582,0|10
256,192,196582,6,0,B|256:264|256:264|264:272|256:280|256:280|248:288|256:296|256:296|256:368,1,179.999994635582,4|10
176,320,197055,1,10
128,240,197213,2,0,B|72:216|56:152|88:96|120:88,1,179.999994635582,8|10
256,192,197845,6,0,B|256:96,2,89.9999973177911,4|0|8
368,112,198319,1,0
384,248,198477,2,0,B|448:184,2,89.9999973177911,0|0|8
216,192,199108,6,0,B|216:288,2,89.9999973177911,0|0|8
104,272,199582,1,0
88,136,199740,2,0,B|24:200,2,89.9999973177911,0|0|8
320,192,200371,6,0,B|400:232|400:232|416:280|464:288,1,179.999994635582,0|8
480,208,200845,1,8
416,144,201003,2,0,B|392:224|392:224|392:232|392:232|368:320,1,179.999994635582,0|8
192,192,201634,6,0,B|112:232|112:232|96:280|48:288,1,179.999994635582,0|8
32,208,202108,1,8
96,144,202266,2,0,B|120:224|120:224|120:232|120:232|144:320,1,179.999994635582,0|8
143,317,202740,1,4
256,176,203055,2,0,B|256:80,1,89.9999973177911,0|8
392,208,203529,5,0
312,248,203687,2,0,B|296:336,2,89.9999973177911,0|8|4
256,176,204161,1,0
72,176,204477,1,8
164,332,204792,6,0,B|164:148,1,179.999994635582
120,72,205266,1,0
208,72,205424,1,4
440,192,210477,6,0,B|440:128,1,60,4|0
336,80,210950,2,0,B|336:144,2,60,0|12|0
256,120,211424,1,4
256,208,211582,1,4
336,256,211740,2,0,B|336:192,2,60,0|0|12
176,132,212371,2,0,B|176:192,2,60,0|0|8
128,248,213003,6,0,B|128:320|192:336,1,120,4|0
256,272,213477,1,0
320,336,213634,2,0,B|384:319|384:247,1,120,4|4
376,152,214108,1,4
200,192,214424,2,0,B|148:160,1,60,0|12
256,312,214898,6,8,B|256:352,2,30
256,224,215213,1,8
256,48,215529,5,4
312,112,215687,2,0,B|256:152|200:112,1,120
120,152,216161,2,0,B|88:216|136:264,1,120,8|0
56,216,216634,2,0,B|176:200,1,120,8|0
256,232,217108,1,0
408,120,217424,5,0
344,48,217582,1,0
256,48,217740,1,8
256,48,218055,5,4
200,112,218213,2,0,B|256:152|312:112,1,120
392,152,218687,2,0,B|424:216|376:264,1,120,8|0
456,216,219161,2,0,B|336:200,1,120,0|8
256,232,219634,1,0
104,120,219950,5,8
168,48,220108,1,8
256,48,220266,1,0
256,352,220582,6,0,B|256:288,1,60,4|0
336,120,221055,1,0
336,120,221213,1,12
248,152,221371,1,0
248,152,221529,1,0
320,216,221687,6,0,B|272:264|208:240,1,120,0|8
160,168,222161,1,0
120,248,222319,1,0
176,320,222477,2,8,B|224:352|296:336,1,120
400,192,223108,6,0,B|384:128,1,60,4|0
256,248,223582,1,0
304,172,223740,1,12
208,172,223898,1,0
128,128,224055,6,0,B|104:192,2,60,8|0|8
208,80,224529,1,8
304,80,224687,1,0
256,192,224845,1,0
152,256,225003,5,8
256,320,225161,1,8
360,256,225319,1,8
256,192,225477,1,4
