osu file format v9

[General]
AudioFilename: Le Ciel - Feather.mp3
AudioLeadIn: 2000
PreviewTime: 61107
Countdown: 0
SampleSet: Normal
StackLeniency: 0.7
Mode: 0
LetterboxInBreaks: 0

[Editor]
DistanceSpacing: 1
BeatDivisor: 4
GridSize: 4

[Metadata]
Title:Feather
Artist:Le Ciel
Creator:l1106188
Version:Easy
Source:Touhou
Tags:Revengexsoyah yasaka kanako The Venerable Ancient Battlefield Suwa Foughten Field Mountain of Faith succubus frontier records

[Difficulty]
HPDrainRate:3
CircleSize:3
OverallDifficulty:2
ApproachRate:4
SliderMultiplier:0.8
SliderTickRate:1

[Events]
//Background and Video events
0,0,"399186.jpg"
//Break Periods
2,11097,19683
2,59097,60104
2,79308,87893
2,127307,128314
2,147518,156104
2,185413,186420
2,205623,214209
//Storyboard Layer 0 (Background)
//Storyboard Layer 1 (Fail)
//Storyboard Layer 2 (Pass)
//Storyboard Layer 3 (Foreground)
Sprite,Foreground,Centre,"lyric SB\1.png",320,240 F,0,21003,21319,0,1 M,0,21003,31108,546,159,545,170 F,0,21319,30793,1 F,0,30793,31108,1,0
Sprite,Foreground,Centre,"lyric SB\2.png",320,240 F,0,26056,26371,0,1 M,0,26056,31108,499,136,499,143 F,0,26371,30793,1 F,0,30793,31108,1,0
Sprite,Foreground,Centre,"lyric SB\3.png",320,240 S,0,29845,,1.52 F,0,29845,30161,0,1 M,0,29845,31108,456,116,456,120 F,0,30161,30793,1 F,0,30793,31108,1,0
Sprite,Foreground,Centre,"lyric SB\4.png",320,240 F,0,31108,31424,0,1 M,0,31108,40582,546,188,545,199 F,0,31424,40266,1 F,0,40266,40582,1,0
Sprite,Foreground,Centre,"lyric SB\5.png",320,240 F,0,36161,36477,0,1 M,0,36161,40582,506,123,506,132 F,0,36477,40266,1 F,0,40266,40582,1,0
Sprite,Foreground,Centre,"lyric SB\6.png",320,240 S,0,38687,,1.2 F,0,38687,39003,0,1 M,0,38687,40582,505,203,505,205 F,0,39003,40266,1 F,0,40266,40582,1,0
Sprite,Foreground,Centre,"lyric SB\7.png",320,240 S,0,39950,,1.216 F,0,39950,40266,0.05199997,1 M,0,39950,40582,507,247 F,0,40266,40582,1,0
Sprite,Foreground,Centre,"lyric SB\8.png",320,240 F,0,40898,41214,0,1 M,0,40898,45950,530,110,530,114 F,0,41214,45635,1 F,0,45635,45950,1,0 M,0,45950,,530,114
Sprite,Foreground,Centre,"lyric SB\9.png",320,240 F,0,41845,42161,0,1 M,0,41845,45635,528,180,528,184 F,0,42161,45635,1 F,0,45635,45950,1,0
Sprite,Foreground,Centre,"lyric SB\11.png",320,240 F,0,45950,46266,0,1 M,0,45950,51003,528,104,528,109 F,0,46266,50687,1 F,0,50687,51003,1,0
Sprite,Foreground,Centre,"lyric SB\12.png",320,240 F,0,46898,47214,0,1 M,0,46898,51003,527,156,527,158 F,0,47214,50687,1 F,0,50687,51003,1,0
Sprite,Foreground,Centre,"lyric SB\13.png",320,240 F,0,48161,48477,0,1 M,0,48161,51003,528,194,528,195 F,0,48477,50687,1 F,0,50687,51003,1,0
Sprite,Foreground,Centre,"lyric SB\14.png",320,240 F,0,51319,51635,0,1 M,0,51319,55740,540,107,539,112 F,0,51635,55424,1 F,0,55424,55740,1,0
Sprite,Foreground,Centre,"lyric SB\15.png",320,240 F,0,53214,53529,0,1 M,0,53214,55740,540,167,540,170 F,0,53529,55424,1 F,0,55424,55740,1,0
Sprite,Foreground,Centre,"lyric SB\16.png",320,240 F,0,54477,54793,0,1 M,0,54477,55740,543,217,543,219 F,0,54793,55424,1 F,0,55424,55740,1,0
Sprite,Foreground,Centre,"lyric SB\17.png",320,240 F,0,56056,56371,0,1 M,0,56056,60793,532,119,533,125 F,0,56371,60477,1 F,0,60477,60793,1,0
Sprite,Foreground,Centre,"lyric SB\18.png",320,240 F,0,58582,58898,0,1 M,0,58582,60793,533,172,533,175 F,0,58898,60477,1 F,0,60477,60793,1,0
Sprite,Foreground,Centre,"lyric SB\19.png",320,240 F,0,61108,61424,0,1 M,0,61108,67108,532,166,532,174 F,0,61424,66793,1 F,0,66793,67108,1,0
Sprite,Foreground,Centre,"lyric SB\21.png",320,240 F,0,63950,64266,0,1 M,0,63950,67108,489,165,489,170 F,0,64266,66793,1 F,0,66793,67108,1,0
Sprite,Foreground,Centre,"lyric SB\22.png",320,240 F,0,67266,67582,0,1 M,0,67266,71214,525,118,525,122 F,0,67582,70898,1 F,0,70898,71214,1,0.09600006
Sprite,Foreground,Centre,"lyric SB\23.png",320,240 F,0,68371,68687,0,1 M,0,68371,71214,490,165,490,171 F,0,68687,70898,1 F,0,70898,71214,1,0
Sprite,Foreground,Centre,"lyric SB\24.png",320,240 F,0,70266,70582,0,1 M,0,70266,71214,456,108,456,112 F,0,70582,70898,1 F,0,70898,71214,1,0
Sprite,Foreground,Centre,"lyric SB\25.png",320,240 F,0,71529,71845,0,1 M,0,71529,77214,531,156,532,171 F,0,71845,76898,1 F,0,76898,77214,1,0
Sprite,Foreground,Centre,"lyric SB\26.png",320,240 F,0,74056,74371,0,1 M,0,74056,77214,490,149,490,157 F,0,74371,76898,1 F,0,76898,77214,1,0
Sprite,Foreground,Centre,"lyric SB\27.png",320,240 F,0,77371,77687,0.05999992,1 M,0,77371,79424,523,151,523,157 F,0,77687,79108,1 F,0,79108,79424,1,0
Sprite,Foreground,Centre,"lyric SB\28.png",320,240 F,0,89214,89529,0,1 M,0,89214,99003,542,167,542,183 F,0,89529,98687,1 F,0,98687,99003,1,0
Sprite,Foreground,Centre,"lyric SB\29.png",320,240 F,0,94266,94582,0,1 M,0,94266,99003,504,119,503,128 F,0,94582,98687,1 F,0,98687,99003,1,0
Sprite,Foreground,Centre,"lyric SB\31.png",320,240 F,0,99319,99635,0,1 M,0,99319,108793,542,178,543,189 F,0,99635,108477,1 F,0,108477,108793,1,0
Sprite,Foreground,Centre,"lyric SB\32.png",320,240 F,0,104371,104687,0,1 M,0,104371,108793,505,133,505,139 F,0,104687,108477,1 F,0,108477,108793,1,0
Sprite,Foreground,Centre,"lyric SB\33.png",320,240 F,0,109108,109424,0,1 M,0,109108,119214,528,151,528,159 F,0,109424,118898,1 F,0,118898,119214,1,0
Sprite,Foreground,Centre,"lyric SB\34.png",320,240 F,0,114161,114477,0,1 M,0,114161,119214,490,150,490,156 F,0,114477,118898,1 F,0,118898,119214,1,0
Sprite,Foreground,Centre,"lyric SB\14.png",320,240 F,0,119529,119845,0,1 M,0,119529,123950,536,122,535,130 F,0,119845,123635,1 F,0,123635,123950,1,0
Sprite,Foreground,Centre,"lyric SB\35.png",320,240 F,0,121424,121740,0,1 M,0,121424,123950,535,177,535,180 F,0,121740,123635,1 F,0,123635,123950,1,0
Sprite,Foreground,Centre,"lyric SB\36.png",320,240 F,0,122687,123003,0,1 M,0,122687,123950,534,220,534,221 F,0,123003,123635,1 F,0,123635,123950,1,0
Sprite,Foreground,Centre,"lyric SB\37.png",320,240 F,0,124266,124582,0,1 M,0,124266,129003,525,116,525,121 F,0,124582,128687,1 F,0,128687,129003,1,0
Sprite,Foreground,Centre,"lyric SB\18.png",320,240 F,0,126793,127108,0,1 M,0,126793,129003,525,168,525,169 F,0,127108,128687,1 F,0,128687,129003,1,0
Sprite,Foreground,Centre,"lyric SB\38.png",320,240 F,0,129319,129635,0,1 M,0,129319,135319,536,192,536,196 F,0,129635,135003,1 F,0,135003,135319,1,0
Sprite,Foreground,Centre,"lyric SB\39.png",320,240 F,0,132161,132477,0,1 M,0,132161,135319,491,153,491,159 F,0,132477,135003,1 F,0,135003,135319,1,0
Sprite,Foreground,Centre,"lyric SB\22.png",320,240 F,0,135477,135793,0,1 M,0,135477,139424,533,115,533,121 F,0,135793,139108,1 F,0,139108,139424,1,0
Sprite,Foreground,Centre,"lyric SB\41.png",320,240 F,0,136582,136898,0,1 M,0,136582,139424,497,154,498,163 F,0,136898,139108,1 F,0,139108,139424,1,0
Sprite,Foreground,Centre,"lyric SB\42.png",320,240 F,0,138477,138793,0,1 M,0,138477,139424,465,111,465,112 F,0,138793,139108,1 F,0,139108,139424,1,0
Sprite,Foreground,Centre,"lyric SB\43.png",320,240 F,0,139740,140056,0,1 M,0,139740,145424,525,164,525,169 F,0,140056,145108,1 F,0,145108,145424,1,0 M,0,145424,145428,525,169,525,164
Sprite,Foreground,Centre,"lyric SB\44.png",320,240 F,0,142266,142582,0,1 M,0,142266,145424,484,154,484,160 F,0,142582,145108,1 F,0,145108,145424,1,0
Sprite,Foreground,Centre,"lyric SB\45.png",320,240 F,0,145582,145898,0,1 M,0,145582,147635,527,156,527,164 F,0,145898,147319,1 F,0,147319,147635,1,0
Sprite,Foreground,Centre,"lyric SB\14.png",320,240 F,0,177635,177950,0,1 M,0,177635,182056,526,116,526,120 F,0,177950,181740,1 F,0,181740,182056,1,0
Sprite,Foreground,Centre,"lyric SB\15.png",320,240 F,0,179529,179845,0,1 M,0,179529,182056,525,176,525,178 F,0,179845,181740,1 F,0,181740,182056,1,0
Sprite,Foreground,Centre,"lyric SB\16.png",320,240 F,0,180793,181108,0,1 M,0,180793,182056,527,226,527,227 F,0,181108,181740,1 F,0,181740,182056,1,0
Sprite,Foreground,Centre,"lyric SB\17.png",320,240 F,0,182371,182687,0,1 M,0,182371,187108,522,121,522,124 F,0,182687,186793,1 F,0,186793,187108,1,0
Sprite,Foreground,Centre,"lyric SB\18.png",320,240 F,0,184898,185214,0,1 M,0,184898,187108,522,170,522,172 F,0,185214,186793,1 F,0,186793,187108,1,0
Sprite,Foreground,Centre,"lyric SB\19.png",320,240 F,0,187424,187740,0,1 M,0,187424,193424,538,172,538,180 F,0,187740,193108,1 F,0,193108,193424,1,0
Sprite,Foreground,Centre,"lyric SB\21.png",320,240 F,0,190266,190582,0,1 M,0,190266,193424,493,171,493,176 F,0,190582,193108,1 F,0,193108,193424,1,0
Sprite,Foreground,Centre,"lyric SB\22.png",320,240 F,0,193582,193898,0,1 M,0,193582,197529,536,118,536,124 F,0,193898,197214,1 F,0,197214,197529,1,0
Sprite,Foreground,Centre,"lyric SB\23.png",320,240 F,0,194687,195003,0,1 M,0,194687,197529,500,153,500,161 F,0,195003,197214,1 F,0,197214,197529,1,0
Sprite,Foreground,Centre,"lyric SB\24.png",320,240 F,0,196582,196898,0,1 M,0,196582,197529,465,107,465,109 F,0,196898,197214,1 F,0,197214,197529,1,0
Sprite,Foreground,Centre,"lyric SB\25.png",320,240 F,0,197845,198161,0,1 M,0,197845,203529,526,162,526,168 F,0,198161,203214,1 F,0,203214,203529,1,0
Sprite,Foreground,Centre,"lyric SB\26.png",320,240 F,0,200371,200687,0,1 M,0,200371,203529,486,143,486,149 F,0,200687,203214,1 F,0,203214,203529,1,0
Sprite,Foreground,Centre,"lyric SB\27.png",320,240 F,0,203687,204003,0,1 M,0,203687,205740,523,149,523,156 F,0,204003,205424,1 F,0,205424,205740,1,0
//Storyboard Sound Samples
//Background Colour Transformations
3,100,163,162,255

[TimingPoints]
518,315.789473684211,4,1,1,50,1,0
2056,315.789473684211,4,1,1,50,1,0
21003,-100,4,2,1,50,0,0
31108,-100,4,1,2,50,0,0
38687,-100,4,1,1,50,0,0
40266,-100,4,2,2,40,0,0
40424,-100,4,1,1,50,0,0
40582,-100,4,2,2,40,0,0
40898,-100,4,1,1,50,0,0
51635,-100,4,2,2,40,0,0
51793,-100,4,1,1,50,0,0
52266,-100,4,2,2,40,0,0
52424,-100,4,1,1,50,0,0
54161,-100,4,2,2,40,0,0
54319,-100,4,1,1,50,0,0
54793,-100,4,2,2,40,0,0
54950,-100,4,1,1,50,0,0
56687,-100,4,2,2,40,0,0
56845,-100,4,1,1,50,0,0
57950,-100,4,2,2,40,0,0
58108,-100,4,1,1,50,0,0
61424,-100,4,1,1,50,0,1
64266,-100,4,2,2,40,0,1
64424,-100,4,1,1,50,0,1
66161,-100,4,2,2,40,0,1
66319,-100,4,1,1,50,0,1
69319,-100,4,2,2,40,0,1
69477,-100,4,1,1,50,0,1
70582,-100,4,2,2,40,0,1
70740,-100,4,1,1,50,0,1
71371,-100,4,1,1,50,0,0
71529,-100,4,1,1,50,0,1
74371,-100,4,2,2,40,0,1
74529,-100,4,1,1,50,0,1
76266,-100,4,2,2,40,0,1
76424,-100,4,1,1,50,0,1
79108,-100,4,1,1,50,0,0
89214,-100,4,1,1,38,0,0
89529,-100,4,2,2,28,0,0
89687,-100,4,1,1,38,0,0
90161,-100,4,2,2,28,0,0
90319,-100,4,1,1,38,0,0
92056,-100,4,2,2,28,0,0
92214,-100,4,1,1,38,0,0
92687,-100,4,2,2,28,0,0
92845,-100,4,1,1,38,0,0
94582,-100,4,2,2,28,0,0
94740,-100,4,1,1,38,0,0
95214,-100,4,2,2,28,0,0
95371,-100,4,1,1,38,0,0
97108,-100,4,2,2,40,0,0
97266,-100,4,1,1,38,0,0
97740,-100,4,2,2,28,0,0
97898,-100,4,1,1,38,0,0
99635,-100,4,2,2,28,0,0
99793,-100,4,1,1,38,0,0
100898,-100,4,2,2,28,0,0
101056,-100,4,1,1,38,0,0
102161,-100,4,2,2,28,0,0
102319,-100,4,1,1,38,0,0
104687,-100,4,2,2,28,0,0
104845,-100,4,1,1,38,0,0
105950,-100,4,2,2,28,0,0
106108,-100,4,1,1,38,0,0
109740,-100,4,1,1,50,0,0
119845,-100,4,2,2,40,0,0
120003,-100,4,1,1,50,0,0
120477,-100,4,2,2,40,0,0
120635,-100,4,1,1,50,0,0
122371,-100,4,2,2,40,0,0
122529,-100,4,1,1,50,0,0
123003,-100,4,2,2,40,0,0
123161,-100,4,1,1,50,0,0
124898,-100,4,2,2,40,0,0
125056,-100,4,1,1,50,0,0
126161,-100,4,2,2,40,0,0
126319,-100,4,1,1,50,0,0
129635,-100,4,1,1,50,0,1
132477,-100,4,2,2,40,0,1
132635,-100,4,1,1,50,0,1
134371,-100,4,2,2,40,0,1
134529,-100,4,1,1,50,0,1
137529,-100,4,2,2,40,0,1
137687,-100,4,1,1,50,0,1
138793,-100,4,2,2,40,0,1
138950,-100,4,1,1,50,0,1
139661,-100,4,1,1,50,0,0
139740,-100,4,1,1,50,0,1
142582,-100,4,2,2,40,0,1
142740,-100,4,1,1,50,0,1
144477,-100,4,2,2,40,0,1
144635,-100,4,1,1,50,0,1
147319,-100,4,1,1,50,0,0
157740,-100,4,2,2,40,0,0
157898,-100,4,1,1,50,0,0
158371,-100,4,2,2,40,0,0
158529,-100,4,1,1,50,0,0
160266,-100,4,2,2,40,0,0
160424,-100,4,1,1,50,0,0
160898,-100,4,2,2,40,0,0
161056,-100,4,1,1,50,0,0
167845,-100,4,2,2,40,0,0
168003,-100,4,1,1,50,0,0
169108,-100,4,2,2,40,0,0
169266,-100,4,1,1,50,0,0
170371,-100,4,2,2,40,0,0
170529,-100,4,1,1,50,0,0
171635,-100,4,2,2,40,0,0
171793,-100,4,1,1,50,0,0
177950,-100,4,2,2,40,0,0
178108,-100,4,1,1,50,0,0
178582,-100,4,2,2,40,0,0
178740,-100,4,1,1,50,0,0
180477,-100,4,2,2,40,0,0
180635,-100,4,1,1,50,0,0
181108,-100,4,2,2,40,0,0
181266,-100,4,1,1,50,0,0
187740,-100,4,1,1,50,0,1
190582,-100,4,2,2,40,0,1
190740,-100,4,1,1,50,0,1
192477,-100,4,2,2,40,0,1
192635,-100,4,1,1,50,0,1
195635,-100,4,2,2,40,0,1
195793,-100,4,1,1,50,0,1
196898,-100,4,2,2,40,0,1
197056,-100,4,1,1,50,0,1
197214,-100,4,2,2,40,0,1
197371,-100,4,1,1,50,0,1
197766,-100,4,1,1,50,0,0
197845,-100,4,1,1,50,0,1
200687,-100,4,2,2,40,0,1
200845,-100,4,1,1,50,0,1
202582,-100,4,2,2,40,0,1
202740,-100,4,1,1,50,0,1
205424,-100,4,1,1,50,0,0

[Colours]
Combo1 : 174,87,0
Combo2 : 187,0,0
Combo3 : 157,60,255
SliderBorder : 200,200,200 SpinnerApproachCircle :
222,155,0

[HitObjects]
344,120,833,2,0,B|380:128|412:156|416:212|388:248,1,160,4|0
264,332,2056,1,0
264,332,2371,1,8
164,212,3003,1,8
124,144,3319,6,0,B|76:172|72:224|92:268|124:280,2,160,4|8|0
208,140,4898,1,8
200,300,5529,1,8
276,324,5845,6,0,B|360:348|432:312,2,160,4|12|0
260,244,7424,1,12
388,148,8055,1,8
316,116,8371,6,0,B|236:88|156:128,2,160,4|12|0
324,196,9950,1,12
164,208,10582,2,0,B|112:208|88:168,1,80,8|4
264,80,21003,6,0,B|336:32|416:56,2,160,4|0|2
256,240,22898,1,0
396,168,23529,6,0,B|452:236|408:328,2,160,2|0|2
236,156,25424,1,0
164,300,26056,6,0,B|240:336|324:304,2,160,2|0|2
80,164,27950,1,0
208,68,28582,6,0,B|240:144|208:224,2,160,2|0|2
80,164,30477,1,0
236,124,31108,6,2,B|172:124|120:92,2,120,6|0|2
236,204,32371,2,2,B|180:236|120:232,2,120,2|0|2
284,268,33634,6,2,B|252:323|198:352,2,120,2|0|2
320,196,34898,1,2
316,36,35529,1,2
396,172,36161,6,2,B|388:240|428:288,2,120,6|0|2
320,196,37424,2,2,B|279:250|289:312,2,120,2|0|2
284,124,38687,6,0,B|216:132|168:88,2,120,2|8|10
324,56,39950,2,0,B|380:32|444:52,2,120,2|8|10
284,124,41213,5,4
364,124,41529,2,0,B|391:165|383:205|361:236|317:252,1,160,8|8
236,252,42477,1,0
156,256,42792,2,0,B|112:240|90:208|82:168|112:124,1,160,8|8
236,228,44056,6,0,B|248:280|216:316,2,80,8|0|8
340,108,45319,2,0,B|352:64|396:44,2,80,8|0|8
376,180,46266,5,0
404,256,46582,2,0,B|348:332|260:320,1,160,8|8
244,244,47529,1,0
232,164,47845,2,0,B|144:164|88:236,1,160,8|8
112,72,49108,6,0,B|84:104|44:116,2,80,8|0|8
272,48,50371,2,0,B|300:84|336:92,2,80,8|0|8
216,108,51319,6,0,B|132:152|128:240,2,160,4|0|0
296,244,53213,1,0
368,100,53845,6,0,B|452:144|456:232,2,160
296,244,55740,1,0
140,272,56371,6,0,B|124:232|148:196|148:196|132:156|152:116,1,160
224,156,57319,1,8
220,76,57634,2,0,B|260:70|292:108|292:108|332:96|368:120,1,160
316,184,58582,2,0,B|352:212|392:196,1,80,8|4
356,80,61424,6,0,B|392:56|440:60,2,80,4|8|0
280,104,62371,1,8
336,160,62687,2,0,B|380:164|412:200,2,80,0|8|0
256,180,63634,1,0
312,240,63950,6,0,B|336:272|324:336|272:356,2,120,0|8|8
240,280,65213,2,0,B|156:260,1,80,0|8
104,204,65845,2,0,B|72:232|68:288|104:320,2,120,0|4|8
72,128,67108,6,0,B|112:116|152:136,2,80,0|8|0
224,80,68371,2,0,B|252:116|232:160,1,80,0|8
232,236,69003,6,0,B|268:292|340:276,2,120,6|0|10
304,200,70266,2,0,B|372:184|412:244,2,120,6|4|10
228,172,71529,6,0,B|192:148|188:100,2,80,4|8|0
272,104,72477,1,8
336,56,72792,2,0,B|380:48|416:88,2,80
348,136,73740,1,8
424,160,74056,6,0,B|452:188|456:244|416:280,2,120,0|0|8
364,216,75319,2,0,B|344:260|300:272,1,80,0|8
284,192,75950,2,0,B|216:220|228:292,2,120,0|4|8
160,92,77529,6,0,B|120:108|76:92,2,80,8|0|8
220,40,78477,2,0,B|252:76|236:120,2,80,0|8|4
316,100,89213,6,0,B|400:84|468:144,2,160,4|0|2
360,252,91108,1,0
208,196,91740,6,0,B|200:240|168:268|168:268|136:296|144:344,2,160,2|0|2
172,40,93634,1,0
56,148,94266,6,0,B|96:224|52:304,2,160,2|0|2
208,196,96161,1,0
336,292,96792,6,0,B|384:368|476:340,2,160,2|0|2
400,144,98687,2,0,B|336:88,1,80,0|12
268,52,99319,6,0,B|144:24,2,120,6|0|10
240,128,100582,2,0,B|116:140,2,120,2|0|10
256,208,101845,6,0,B|148:276,2,120,2|0|10
316,152,103108,1,2
436,260,103740,1,2
384,108,104371,6,0,B|344:56|276:80,2,120,2|0|10
316,152,105634,2,0,B|248:176|208:124,2,120,2|0|10
384,192,106898,6,0,B|416:224|460:220,1,80,2|8
448,300,107529,2,0,B|384:288|328:320,1,120
404,220,108477,1,0
404,220,108792,2,0,B|360:216|324:236,1,80,10|10
272,176,109424,5,4
236,248,109740,2,0,B|172:304|88:292,1,160,8|8
96,212,110687,1,0
128,136,111003,2,0,B|188:76|280:88,1,160,8|8
396,188,112266,6,0,B|428:220|412:268,2,80,8|0|8
256,268,113529,2,0,B|280:308|324:320,2,80,8|0|8
180,236,114477,5,0
120,184,114792,2,0,B|184:128|268:136,1,160,8|8
348,128,115740,1,0
412,72,116056,2,0,B|344:16|260:48,1,160,8|8
108,96,117319,6,0,B|84:136|44:136,2,80,8|0|8
204,224,118582,2,0,B|248:220|276:252,2,80,8|0|8
212,304,119529,6,0,B|240:336|284:344|336:328|352:280,2,160,4|0|0
148,156,121424,1,0
288,80,122056,6,0,B|372:120|364:212,2,160,0|0|0
208,220,123950,1,0
308,96,124582,6,0,B|380:52|464:76,1,160,4|0
500,144,125529,1,8
476,220,125845,2,0,B|400:260|312:236,1,160
264,184,126792,2,0,B|232:216|244:264,1,80,8|4
204,104,129634,6,0,B|160:84|120:104,1,80,4|12
76,164,130266,2,0,B|56:208|76:248,1,80,0|8
124,304,130898,2,0,B|168:324|208:304,1,80,0|8
252,244,131529,2,0,B|272:200|252:160,1,80,0|8
220,92,132161,6,0,B|272:64|336:76,2,120,0|0|8
256,164,133424,2,0,B|292:144|336:160,1,80,0|8
300,232,134056,2,0,B|232:264|188:212,2,120,0|4|8
400,356,135634,6,0,B|432:334|432:286,2,80,0|8|0
324,328,136582,2,0,B|288:352|248:340,1,80,0|8
172,320,137213,2,0,B|108:292|116:224,2,120,2|8|10
196,244,138477,2,0,B|180:176|252:144,2,120,10|4|10
272,224,139740,6,0,B|352:224,1,80,4|8
328,148,140371,2,0,B|408:132,1,80,0|8
360,64,141003,2,0,B|276:52,1,80,0|8
252,128,141634,2,0,B|164:128,1,80,0|8
112,184,142266,6,0,B|152:236|108:296,2,120,0|0|8
68,116,143529,2,0,B|40:76|60:36,1,80,0|8
132,68,144161,2,0,B|188:92|252:64,2,120,8|4|8
232,192,145740,6,0,B|312:180,2,80,8|0|8
172,244,146687,2,0,B|88:256,2,80,8|8|4
400,80,157424,6,0,B|448:152|416:236,2,160,4|0|0
244,120,159319,1,0
188,64,159634,1,8
112,80,159950,6,0,B|64:152|96:236,2,160
176,228,161845,1,0
252,256,162161,1,8
324,224,162477,6,0,B|364:204|404:216,2,80,4|8|0
248,84,163740,2,0,B|200:80|176:120,2,80,0|8|0
220,240,165003,6,0,B|232:320,1,80,0|8
152,312,165634,2,0,B|140:228,1,80,0|8
188,168,166266,2,0,B|268:148,2,80,0|8|0
348,180,167529,6,0,B|404:152|464:172,2,120,4|0|8
288,128,168792,2,0,B|260:72|280:12,2,120,0|0|8
232,184,170056,6,0,B|176:212|116:192,2,120,0|0|8
292,236,171319,2,0,B|320:292|300:352,2,120,0|0|8
184,120,172898,6,0,B|120:64,2,80,8|0|8
184,280,174161,2,0,B|128:344,2,80,8|0|8
344,264,175424,6,0,B|408:320,2,80,8|0|8
344,104,176687,2,0,B|400:40,2,80,8|0|8
264,96,177634,6,0,B|280:188|188:236,2,160,4|0|0
104,108,179529,1,0
92,268,180161,6,0,B|128:348|224:352,2,160
236,200,182056,1,0
384,136,182687,6,0,B|416:216|368:296,2,160,4|8|8
152,196,184898,2,0,B|100:132,1,80,8|4
352,72,187740,5,4
380,148,188056,2,0,B|412:184|408:232,2,80,8|0|8
300,136,189003,1,0
324,212,189319,2,0,B|324:256|284:284,2,80,8|0|8
244,200,190266,6,0,B|196:144|236:80,2,120,0|0|8
208,272,191529,2,0,B|140:316,1,80,0|8
100,248,192161,2,0,B|144:200|136:132,2,120,0|4|8
56,316,193424,6,0,B|16:288|20:236,2,80,0|8|0
212,356,194687,2,0,B|292:332,1,80,0|8
320,260,195319,6,0,B|276:212|292:148,2,120,0|8|8
364,328,196582,2,0,B|424:308|484:332,2,120,0|8|8
348,248,197845,5,4
372,172,198161,2,0,B|396:136|384:92,2,80,8|0|8
308,124,199108,1,0
324,44,199424,2,0,B|276:40|252:68,2,80,8|0|8
308,124,200371,6,0,B|256:168|188:124,2,120,0|8|0
380,160,201634,2,0,B|372:240,1,80,0|8
292,248,202266,2,0,B|240:208|172:228,2,120,8|4|8
196,120,203845,6,0,B|188:76|140:60,2,80,8|0|8
116,140,204792,2,0,B|76:164|32:156,2,80,0|8|4
352,88,215529,6,0,B|372:132|408:144|408:144|396:184|436:216,2,160,4|8|0
272,100,217108,1,8
200,244,217740,1,0
244,176,218056,6,0,B|288:208|296:268|264:304|236:316,2,160,4|8|0
84,152,219950,2,0,B|76:104,2,40,8|8|8
164,148,220582,6,0,B|232:96|316:108,2,160,4|12|0
280,260,222477,2,0,B|272:308|304:340,1,80,8|8
360,280,223108,6,0,B|440:248|456:156,2,160,4|12|8
284,300,224687,1,8
204,288,225003,1,8
136,244,225319,2,0,B|112:232|112:200,1,40,8|4
