osu file format v13

[General]
AudioFilename: lecastle.mp3
AudioLeadIn: 0
PreviewTime: 103146
Countdown: 0
SampleSet: None
StackLeniency: 0.7
Mode: 3
LetterboxInBreaks: 0
SpecialStyle: 0
WidescreenStoryboard: 1

[Editor]
Bookmarks: 15021,29904,90021
DistanceSpacing: 1.5
BeatDivisor: 4
GridSize: 8
TimelineZoom: 1.4

[Metadata]
Title:Disintegration (Dirtyphonics Remix) (Cut Version)
TitleUnicode:Disintegration (Dirtyphonics Remix) (Cut Version)
Artist:Le Castle Vania
ArtistUnicode:Le Castle Vania
Creator:avelcaine
Version:Easy
Source:
Tags:mau5trap
BeatmapID:420741
BeatmapSetID:174202

[Difficulty]
HPDrainRate:7
CircleSize:4
OverallDifficulty:7
ApproachRate:5
SliderMultiplier:1.4
SliderTickRate:1

[Events]
//Background and Video events
0,0,"disintegration.jpg",0,0
//Break Periods
//Storyboard Layer 0 (Background)
//Storyboard Layer 1 (Fail)
//Storyboard Layer 2 (Pass)
//Storyboard Layer 3 (Foreground)
//Storyboard Sound Samples
//Background Colour Transformations
3,100,163,162,255

[TimingPoints]
489.977836326843,468.75,4,3,0,50,1,0
29083,-125,4,3,0,50,0,0
88614,-100,4,3,0,50,0,0
105021,-100,4,3,0,50,0,1
135021,-100,4,3,0,50,0,0

[HitObjects]
64,192,15021,5,0,0:0:0:0:
192,192,15021,1,0,0:0:0:0:
64,192,15489,1,0,0:0:0:0:
320,192,15489,1,0,0:0:0:0:
64,192,15958,1,0,0:0:0:0:
192,192,15958,1,0,0:0:0:0:
64,192,16427,1,0,0:0:0:0:
448,192,16427,1,0,0:0:0:0:
64,192,16896,1,0,0:0:0:0:
192,192,16896,1,0,0:0:0:0:
64,192,17364,1,0,0:0:0:0:
320,192,17364,1,0,0:0:0:0:
64,192,17833,1,0,0:0:0:0:
192,192,17833,1,0,0:0:0:0:
64,192,18302,1,0,0:0:0:0:
448,192,18302,1,0,0:0:0:0:
320,192,18771,1,0,0:0:0:0:
448,192,18771,1,0,0:0:0:0:
192,192,19239,1,0,0:0:0:0:
448,192,19239,1,0,0:0:0:0:
320,192,19708,1,0,0:0:0:0:
448,192,19708,1,0,0:0:0:0:
64,192,20177,1,0,0:0:0:0:
448,192,20177,1,0,0:0:0:0:
320,192,20646,1,0,0:0:0:0:
448,192,20646,1,0,0:0:0:0:
192,192,21114,1,0,0:0:0:0:
448,192,21114,1,0,0:0:0:0:
320,192,21583,1,0,0:0:0:0:
448,192,21583,1,0,0:0:0:0:
64,192,22052,1,0,0:0:0:0:
448,192,22052,1,0,0:0:0:0:
64,192,22521,128,0,22989:0:0:0:0:
192,192,22989,1,0,0:0:0:0:
448,192,23458,128,0,23927:0:0:0:0:
320,192,23927,1,0,0:0:0:0:
192,192,24396,128,0,24864:0:0:0:0:
64,192,24864,1,0,0:0:0:0:
320,192,25333,128,0,25802:0:0:0:0:
448,192,25802,1,0,0:0:0:0:
192,192,26271,1,0,0:0:0:0:
320,192,26271,1,0,0:0:0:0:
448,192,26739,1,0,0:0:0:0:
192,192,26739,1,0,0:0:0:0:
192,192,27208,1,0,0:0:0:0:
320,192,27208,1,0,0:0:0:0:
64,192,27677,1,0,0:0:0:0:
320,192,27677,1,0,0:0:0:0:
448,192,28146,128,0,30021:0:0:0:0:
192,192,30021,128,0,31896:0:0:0:0:
320,192,31896,128,0,33536:0:0:0:0:
192,192,33536,128,0,35646:0:0:0:0:
448,192,35646,128,0,37521:0:0:0:0:
64,192,37521,128,0,41271:0:0:0:0:
192,192,39396,128,0,41271:0:0:0:0:
320,192,41271,128,0,43146:0:0:0:0:
448,192,43146,128,0,45021:0:0:0:0:
320,192,45021,128,0,46896:0:0:0:0:
448,192,46896,128,0,48536:0:0:0:0:
320,192,48536,128,0,50646:0:0:0:0:
64,192,50646,128,0,52052:0:0:0:0:
320,192,52052,128,0,54396:0:0:0:0:
192,192,54396,128,0,55333:0:0:0:0:
320,192,55333,1,0,0:0:0:0:
448,192,55802,1,0,0:0:0:0:
192,192,56271,1,0,0:0:0:0:
64,192,56271,128,0,58146:0:0:0:0:
192,192,58146,128,0,58849:0:0:0:0:
320,192,58146,128,0,58849:0:0:0:0:
64,192,60021,128,0,61896:0:0:0:0:
448,192,61427,1,0,0:0:0:0:
320,192,61896,128,0,62833:0:0:0:0:
192,192,62833,128,0,63771:0:0:0:0:
64,192,63771,1,0,0:0:0:0:
320,192,64708,1,0,0:0:0:0:
448,192,64708,1,0,0:0:0:0:
64,192,65646,1,0,0:0:0:0:
192,192,65646,1,0,0:0:0:0:
192,192,66583,5,0,0:0:0:0:
320,192,66583,1,0,0:0:0:0:
448,192,67521,128,0,68458:0:0:0:0:
320,192,67521,1,0,0:0:0:0:
320,192,68458,1,0,0:0:0:0:
448,192,69396,128,0,70333:0:0:0:0:
64,192,69396,128,0,71271:0:0:0:0:
448,192,71271,1,0,0:0:0:0:
64,192,72208,1,0,0:0:0:0:
192,192,72208,1,0,0:0:0:0:
320,192,73146,128,0,74083:0:0:0:0:
64,192,75021,5,0,0:0:0:0:
448,192,75021,1,0,0:0:0:0:
448,192,75958,1,0,0:0:0:0:
64,192,75958,1,0,0:0:0:0:
64,192,76896,1,0,0:0:0:0:
448,192,76896,1,0,0:0:0:0:
448,192,77833,1,0,0:0:0:0:
64,192,77833,1,0,0:0:0:0:
448,192,78771,1,0,0:0:0:0:
64,192,78771,1,0,0:0:0:0:
448,192,79708,1,0,0:0:0:0:
64,192,79708,1,0,0:0:0:0:
64,192,80646,1,0,0:0:0:0:
448,192,80646,1,0,0:0:0:0:
448,192,81583,1,0,0:0:0:0:
64,192,81583,1,0,0:0:0:0:
320,192,82521,5,0,0:0:0:0:
448,192,82521,1,0,0:0:0:0:
320,192,82989,1,0,0:0:0:0:
448,192,82989,1,0,0:0:0:0:
192,192,83458,1,0,0:0:0:0:
64,192,83458,1,0,0:0:0:0:
192,192,83927,1,0,0:0:0:0:
64,192,83927,1,0,0:0:0:0:
320,192,84396,1,0,0:0:0:0:
448,192,84396,1,0,0:0:0:0:
320,192,84864,1,0,0:0:0:0:
448,192,84864,1,0,0:0:0:0:
64,192,85333,1,0,0:0:0:0:
192,192,85333,1,0,0:0:0:0:
64,192,85802,1,0,0:0:0:0:
192,192,85802,1,0,0:0:0:0:
320,192,86271,1,0,0:0:0:0:
448,192,86271,1,0,0:0:0:0:
320,192,86739,1,0,0:0:0:0:
448,192,86739,1,0,0:0:0:0:
64,192,87208,1,0,0:0:0:0:
192,192,87208,1,0,0:0:0:0:
320,192,87677,1,0,0:0:0:0:
448,192,87677,1,0,0:0:0:0:
320,192,88146,128,0,90021:0:0:0:0:
192,192,88146,128,0,90021:0:0:0:0:
448,192,90021,1,0,0:0:0:0:
64,192,90021,1,0,0:0:0:0:
320,192,90255,1,0,0:0:0:0:
64,192,90489,1,0,0:0:0:0:
192,192,90724,1,0,0:0:0:0:
448,192,90958,1,0,0:0:0:0:
320,192,91193,1,0,0:0:0:0:
64,192,91427,1,0,0:0:0:0:
192,192,91661,1,0,0:0:0:0:
448,192,91896,1,0,0:0:0:0:
320,192,92130,1,0,0:0:0:0:
64,192,92364,1,0,0:0:0:0:
192,192,92599,1,0,0:0:0:0:
448,192,92833,1,0,0:0:0:0:
320,192,93068,1,0,0:0:0:0:
64,192,93302,1,0,0:0:0:0:
192,192,93536,1,0,0:0:0:0:
448,192,93771,1,0,0:0:0:0:
320,192,94005,1,0,0:0:0:0:
64,192,94239,1,0,0:0:0:0:
192,192,94474,1,0,0:0:0:0:
448,192,94708,1,0,0:0:0:0:
320,192,94943,1,0,0:0:0:0:
64,192,95177,1,0,0:0:0:0:
192,192,95411,1,0,0:0:0:0:
448,192,95646,1,0,0:0:0:0:
320,192,95880,1,0,0:0:0:0:
64,192,96114,1,0,0:0:0:0:
192,192,96349,1,0,0:0:0:0:
448,192,96583,1,0,0:0:0:0:
320,192,96818,1,0,0:0:0:0:
64,192,97052,1,0,0:0:0:0:
192,192,97286,1,0,0:0:0:0:
64,192,97521,128,0,101271:0:0:0:0:
320,192,97521,128,0,97755:0:0:0:0:
448,192,97989,128,0,98224:0:0:0:0:
320,192,98458,128,0,98693:0:0:0:0:
192,192,98927,128,0,99161:0:0:0:0:
320,192,99396,128,0,99630:0:0:0:0:
448,192,99864,128,0,100099:0:0:0:0:
320,192,100333,128,0,100568:0:0:0:0:
192,192,100802,128,0,101036:0:0:0:0:
448,192,101271,128,0,105021:0:0:0:0:
320,192,101271,128,0,101505:0:0:0:0:
192,192,101739,128,0,101974:0:0:0:0:
64,192,102208,128,0,102443:0:0:0:0:
192,192,102677,128,0,102911:0:0:0:0:
320,192,103146,1,0,0:0:0:0:
192,192,103380,1,0,0:0:0:0:
64,192,103614,1,0,0:0:0:0:
192,192,103849,1,0,0:0:0:0:
320,192,104083,1,0,0:0:0:0:
192,192,104318,1,0,0:0:0:0:
192,192,104552,128,0,105021:0:0:0:0:
320,192,105021,1,0,0:0:0:0:
192,192,105489,1,0,0:0:0:0:
64,192,105489,1,0,0:0:0:0:
192,192,105958,1,0,0:0:0:0:
64,192,105958,1,0,0:0:0:0:
64,192,106427,128,0,106661:0:0:0:0:
192,192,106661,128,0,106896:0:0:0:0:
64,192,106896,1,0,0:0:0:0:
320,192,107364,1,0,0:0:0:0:
448,192,107364,1,0,0:0:0:0:
320,192,107833,1,0,0:0:0:0:
448,192,107833,1,0,0:0:0:0:
448,192,108068,128,0,108302:0:0:0:0:
320,192,108302,128,0,108536:0:0:0:0:
448,192,108536,128,0,108771:0:0:0:0:
320,192,108771,1,0,0:0:0:0:
64,192,109239,1,0,0:0:0:0:
192,192,109239,1,0,0:0:0:0:
64,192,109708,1,0,0:0:0:0:
192,192,109708,1,0,0:0:0:0:
192,192,110177,128,0,110411:0:0:0:0:
64,192,110411,128,0,110646:0:0:0:0:
192,192,110646,1,0,0:0:0:0:
320,192,111114,1,0,0:0:0:0:
448,192,111114,1,0,0:0:0:0:
320,192,111583,1,0,0:0:0:0:
448,192,111583,1,0,0:0:0:0:
448,192,111818,128,0,112052:0:0:0:0:
320,192,112052,128,0,112286:0:0:0:0:
448,192,112286,128,0,112521:0:0:0:0:
320,192,112521,1,0,0:0:0:0:
64,192,112989,1,0,0:0:0:0:
320,192,112989,1,0,0:0:0:0:
64,192,113458,1,0,0:0:0:0:
192,192,113458,1,0,0:0:0:0:
64,192,113927,128,0,114161:0:0:0:0:
192,192,114161,128,0,114396:0:0:0:0:
320,192,114396,1,0,0:0:0:0:
448,192,114396,1,0,0:0:0:0:
320,192,114864,1,0,0:0:0:0:
448,192,114864,1,0,0:0:0:0:
448,192,115333,128,0,115568:0:0:0:0:
320,192,115568,128,0,115802:0:0:0:0:
192,192,115802,128,0,116036:0:0:0:0:
448,192,116036,128,0,116271:0:0:0:0:
320,192,116271,1,0,0:0:0:0:
64,192,116739,1,0,0:0:0:0:
192,192,116739,1,0,0:0:0:0:
320,192,117208,1,0,0:0:0:0:
448,192,117208,1,0,0:0:0:0:
192,192,117677,1,0,0:0:0:0:
320,192,117677,1,0,0:0:0:0:
64,192,118146,128,0,119552:0:0:0:0:
448,192,118146,128,0,119552:0:0:0:0:
192,192,119552,1,0,0:0:0:0:
320,192,119552,1,0,0:0:0:0:
192,192,120021,1,0,0:0:0:0:
448,192,120021,1,0,0:0:0:0:
448,192,120255,1,0,0:0:0:0:
320,192,120255,1,0,0:0:0:0:
64,192,120489,1,0,0:0:0:0:
448,192,120489,1,0,0:0:0:0:
64,192,120958,1,0,0:0:0:0:
320,192,120958,1,0,0:0:0:0:
64,192,121193,1,0,0:0:0:0:
192,192,121193,1,0,0:0:0:0:
64,192,121427,1,0,0:0:0:0:
448,192,121427,1,0,0:0:0:0:
192,192,121896,1,0,0:0:0:0:
448,192,121896,1,0,0:0:0:0:
320,192,122130,1,0,0:0:0:0:
448,192,122130,1,0,0:0:0:0:
64,192,122364,1,0,0:0:0:0:
448,192,122364,1,0,0:0:0:0:
64,192,122833,1,0,0:0:0:0:
192,192,122833,1,0,0:0:0:0:
448,192,123068,1,0,0:0:0:0:
192,192,123068,1,0,0:0:0:0:
320,192,123302,1,0,0:0:0:0:
448,192,123302,1,0,0:0:0:0:
448,192,123536,1,0,0:0:0:0:
192,192,123536,1,0,0:0:0:0:
64,192,123771,1,0,0:0:0:0:
192,192,123771,1,0,0:0:0:0:
64,192,124239,1,0,0:0:0:0:
320,192,124239,1,0,0:0:0:0:
64,192,124708,1,0,0:0:0:0:
192,192,124708,1,0,0:0:0:0:
192,192,124943,1,0,0:0:0:0:
64,192,124943,1,0,0:0:0:0:
320,192,125177,1,0,0:0:0:0:
448,192,125177,1,0,0:0:0:0:
320,192,125646,1,0,0:0:0:0:
448,192,125646,1,0,0:0:0:0:
320,192,125880,1,0,0:0:0:0:
448,192,125880,1,0,0:0:0:0:
192,192,126114,1,0,0:0:0:0:
64,192,126114,1,0,0:0:0:0:
320,192,126583,1,0,0:0:0:0:
448,192,126583,1,0,0:0:0:0:
320,192,126818,1,0,0:0:0:0:
64,192,126818,1,0,0:0:0:0:
64,192,127052,1,0,0:0:0:0:
192,192,127052,1,0,0:0:0:0:
320,192,127286,1,0,0:0:0:0:
64,192,127286,1,0,0:0:0:0:
448,192,127521,128,0,131271:0:0:0:0:
320,192,127521,1,0,0:0:0:0:
64,192,127989,1,0,0:0:0:0:
320,192,128458,1,0,0:0:0:0:
192,192,128927,1,0,0:0:0:0:
320,192,129161,1,0,0:0:0:0:
64,192,129396,1,0,0:0:0:0:
320,192,129864,1,0,0:0:0:0:
64,192,130333,1,0,0:0:0:0:
192,192,130568,1,0,0:0:0:0:
192,192,130802,1,0,0:0:0:0:
64,192,131036,1,0,0:0:0:0:
64,192,131271,128,0,135021:0:0:0:0:
320,192,131271,1,0,0:0:0:0:
192,192,131739,1,0,0:0:0:0:
320,192,131739,1,0,0:0:0:0:
320,192,132208,1,0,0:0:0:0:
448,192,132208,1,0,0:0:0:0:
320,192,132677,1,0,0:0:0:0:
448,192,132677,1,0,0:0:0:0:
192,192,133146,1,0,0:0:0:0:
320,192,133146,1,0,0:0:0:0:
320,192,133614,1,0,0:0:0:0:
192,192,134083,128,0,134552:0:0:0:0:
320,192,134552,128,0,135021:0:0:0:0:
448,192,135021,1,0,0:0:0:0:
448,192,135489,1,0,0:0:0:0:
192,192,135489,1,0,0:0:0:0:
64,192,135724,1,0,0:0:0:0:
192,192,135841,1,0,0:0:0:0:
448,192,136075,1,0,0:0:0:0:
448,192,136310,1,0,0:0:0:0:
320,192,136896,1,0,0:0:0:0:
448,192,136896,1,0,0:0:0:0:
192,192,137364,1,0,0:0:0:0:
448,192,137364,1,0,0:0:0:0:
192,192,137599,1,0,0:0:0:0:
64,192,137716,1,0,0:0:0:0:
320,192,137950,1,0,0:0:0:0:
320,192,138185,1,0,0:0:0:0:
192,192,138536,1,0,0:0:0:0:
192,192,138771,1,0,0:0:0:0:
64,192,139239,1,0,0:0:0:0:
320,192,139239,1,0,0:0:0:0:
192,192,139474,1,0,0:0:0:0:
64,192,139591,1,0,0:0:0:0:
320,192,139825,1,0,0:0:0:0:
192,192,140060,1,0,0:0:0:0:
320,192,140646,1,0,0:0:0:0:
448,192,140646,1,0,0:0:0:0:
192,192,141114,1,0,0:0:0:0:
448,192,141114,1,0,0:0:0:0:
64,192,141583,1,0,0:0:0:0:
192,192,141583,1,0,0:0:0:0:
64,192,142052,1,0,0:0:0:0:
320,192,142052,1,0,0:0:0:0:
448,192,142521,128,0,142989:0:0:0:0:
320,192,142989,1,0,0:0:0:0:
64,192,143224,1,0,0:0:0:0:
192,192,143341,1,0,0:0:0:0:
448,192,143575,128,0,143693:0:0:0:0:
320,192,143810,128,0,143927:0:0:0:0:
64,192,144396,128,0,144864:0:0:0:0:
320,192,145099,1,0,0:0:0:0:
448,192,145216,1,0,0:0:0:0:
320,192,145450,128,0,145568:0:0:0:0:
192,192,145685,128,0,145802:0:0:0:0:
448,192,146036,1,0,0:0:0:0:
320,192,146036,1,0,0:0:0:0:
64,192,146271,128,0,148146:0:0:0:0:
192,192,146271,1,0,0:0:0:0:
320,192,146739,1,0,0:0:0:0:
448,192,147208,1,0,0:0:0:0:
320,192,147677,1,0,0:0:0:0:
448,192,148146,128,0,150021:0:0:0:0:
192,192,148146,128,0,149552:0:0:0:0:
64,192,149552,1,0,0:0:0:0:
192,192,150021,128,0,151896:0:0:0:0:
64,192,150021,128,0,151896:0:0:0:0:
