osu file format v5

[General]
AudioFilename: You Are A Pirate.mp3
AudioLeadIn: 0
PreviewTime: 88126
Countdown: 0
SampleSet: Soft
StackLeniency: 0.4
Mode: 0
LetterboxInBreaks: 1
EditorBookmarks: 45792,75792
EditorDistanceSpacing: 1

[Metadata]
Title:You Are A Pirate
Artist:Lazy Town
Creator:Agent Spin Here
Version:Larto is a Pirate
Source:
Tags:

[Difficulty]
HPDrainRate:7
CircleSize:5
OverallDifficulty:6
SliderMultiplier:2.6
SliderTickRate:1

[Events]
//Background and Video events
1,-1025,"video.wmv"
0,0,"piratebg.jpg"
//Break Periods
2,11659,12576
2,81576,87242
2,97659,101076
//Storyboard Layer 0 (Background)
//Storyboard Layer 1 (Failing)
//Storyboard Layer 2 (Passing)
//Storyboard Layer 3 (Foreground)
//Storyboard Sound Samples
//Background Colour Transformations
3,100,163,162,255

[TimingPoints]
4126.18567177931,500,4,1,0,69,1,0
13188,-100,4,1,0,29,0,0
13625,-100,4,1,0,28,0,1
14001,-100,4,1,0,69,0,0
57313,-100,4,1,0,30,0,0
57626,-100,4,1,0,30,0,1
57946,-100,4,1,0,69,0,0
90126,-100,4,1,0,100,0,1
106626,-100,4,2,0,100,0,0

[Colours]
Combo1 : 0,187,187
Combo2 : 255,255,255
Combo3 : 72,72,255

[HitObjects]
200,184,4126,2,4,B|257:-43|328:208,1,260
192,288,5126,1,0
256,344,5292,1,0
320,288,5459,1,0
256,232,5626,2,8,B|368:104|472:312,1,260,8|4
384,344,6292,5,0
320,288,6459,1,0
256,344,6626,1,0
192,288,6792,1,0
256,232,6959,1,0
256,232,7126,2,8,B|144:104|40:312,1,260
256,112,8126,5,4
328,161,8292,1,0
256,113,8459,1,0
184,161,8626,2,0,B|184:265|272:201,1,86.6666666666667,8|0
256,305,8959,1,0
288,224,9126,2,0,B|328:233|328:161,1,86.6666666666667,8|0
256,112,9459,1,0
256,112,9625,1,4
256,192,10126,12,0,11459
256,216,13501,6,0,B|256:160,3,32.5
96,192,14126,5,8
256,40,14626,2,0,B|256:112|176:136,1,86.6666666666667
256,40,14959,2,0,B|256:112|336:136,1,86.6666666666667,0|8
416,192,15459,5,4
416,192,15626,1,4
312,336,15938,6,0,B|216:360|192:336,1,86.6666666666667,0|8
152,304,16271,1,0
96,240,16438,2,0,B|72:144|96:120,1,86.6666666666667,0|8
128,80,16771,1,0
200,48,16917,2,0,B|296:24|320:48,1,86.6666666666667,0|8
360,80,17250,1,0
416,144,17417,2,0,B|440:240|416:264,1,86.6666666666667,0|8
256,192,17959,5,0
256,192,18126,2,2,B|200:168|152:216|72:192,1,173.333333333333
256,192,18626,2,4,B|312:216|360:168|440:192,1,173.333333333333
256,192,19126,1,8
256,40,19459,5,0
256,40,19626,1,2
88,80,19959,5,0
88,80,20126,2,8,B|56:176|168:160|96:272|32:288,1,173.333333333333,8|0
91,244,20626,2,8,B|104:320|200:296|312:224,1,173.333333333333,8|0
235,266,21126,2,4,B|312:208|296:136|264:136|216:144|176:176|192:216|232:232|240:216|248:200|264:176,1,260
256,192,22126,5,4
152,96,22626,1,8
208,32,22792,1,0
304,32,22959,1,0
360,96,23126,1,8
296,256,23459,6,4,B|256:296|208:248,1,86.6666666666667
216,128,23959,2,0,B|256:88|304:136,1,86.6666666666667,0|8
192,232,24459,2,0,B|152:192|200:144,1,86.6666666666667,0|8
320,152,24959,2,0,B|360:192|312:240,1,86.6666666666667,0|8
256,192,25292,1,0
256,192,25459,1,0
256,192,25626,1,8
256,192,25792,1,0
360,328,26126,5,4
152,328,26626,1,0
168,240,26792,1,0
240,288,26959,1,0
256,192,27126,1,0
256,192,27959,12,4,29626
384,320,30126,5,8
120,320,30626,1,8
256,192,31001,2,2,B|176:152|352:56|232:8,1,195
256,24,31626,1,8
256,280,32126,5,0
192,256,32251,1,0
144,208,32376,1,0
144,80,32626,1,8
256,280,32876,5,0
320,256,33001,1,0
368,208,33126,1,0
368,80,33376,1,8
256,152,33626,1,8
248,16,34126,5,8
248,16,34376,1,0
248,16,34626,1,8
248,16,34876,1,0
248,16,35001,2,8,B|160:64|192:192,1,195
216,240,35501,1,0
256,288,35626,1,8
296,240,35751,1,0
256,191,35876,1,0
256,192,36126,5,0
256,192,36626,1,0
200,72,37126,2,4,B|264:8|336:88,1,130
191,240,38126,6,4,B|159:216|127:232|151:264|191:272|191:272|199:304|231:288|231:256|215:224|215:224|303:168|327:176|327:176|359:184|375:144|359:128|335:136|335:136|335:104|311:104|295:112,1,455
223,111,39126,2,4,B|213:106|189:106|189:138|189:138|165:130|149:146|165:186|197:178|197:178|221:170|309:226|309:226|293:258|293:290|325:306|333:274|333:274|373:266|397:234|365:218|333:242,1,455
333,241,40126,5,8
179,241,40626,1,8
256,24,41126,1,4
256,112,41292,1,0
256,200,41459,1,0
256,288,41626,2,0,B|256:368|88:360,1,173.333333333333,8|0
256,288,42126,6,0,B|256:368|424:360,1,173.333333333333,4|0
256,288,42626,1,8
256,200,42792,1,0
256,112,42959,1,0
256,24,43126,1,8
184,72,43292,1,0
256,112,43459,1,0
336,72,43626,2,0,B|424:72|424:224,1,173.333333333333,8|0
424,288,44126,5,4
88,288,44626,1,8
424,96,45126,1,0
88,96,45626,1,8
256,192,46126,12,0,47626
216,320,48126,6,4,B|216:64,1,173.333333333333,4|0
296,320,48626,2,0,B|296:120,1,173.333333333333
256,72,49126,1,8
256,72,49292,1,0
256,72,49459,1,0
256,72,49626,1,8
104,288,50126,6,0,B|104:192|104:192|200:192,1,173.333333333333,4|0
328,192,50626,2,0,B|406:192|406:192|406:288,1,173.333333333333,4|0
256,336,51126,1,8
256,248,51292,1,0
256,160,51459,1,0
256,72,51626,1,8
136,328,52126,5,8
136,240,52292,1,0
184,168,52459,1,0
256,120,52626,1,8
328,168,52792,1,0
376,240,52959,1,0
376,328,53126,1,4
304,280,53292,1,4
256,352,53459,1,4
208,280,53626,1,4
256,192,54126,12,0,56126
256,320,57626,6,0,B|256:272,3,32.5
320,136,58126,6,0,B|256:24|192:136,1,173.333333333333,8|0
192,216,58626,2,0,B|256:104|320:216,1,173.333333333333,8|0
256,232,59126,1,4
296,352,59459,5,4
216,352,59626,1,4
96,232,59959,1,0
96,152,60126,1,8
216,32,60459,1,0
296,32,60626,1,8
416,152,60959,1,0
416,232,61126,1,8
296,352,61459,1,0
216,352,61626,1,8
256,192,61959,5,0
256,192,62126,1,4
216,40,62626,6,8,B|344:40,1,86.6666666666667
304,128,62959,2,4,B|192:128,1,86.6666666666667
256,280,63459,6,0,B|256:184,1,86.6666666666667
96,208,63959,6,0,B|88:144|176:136,1,86.6666666666667,0|2
416,208,64459,2,0,B|424:144|336:136,1,86.6666666666667,0|2
256,192,64959,1,0
256,192,65126,1,4
296,352,65626,6,4,B|224:320|264:368|200:344,1,86.6666666666667
256,192,66126,5,0
67,194,66626,1,8
129,147,66792,1,0
193,102,66959,1,0
256,56,67126,1,8
256,192,67459,5,4
256,192,67626,1,4
256,192,67959,5,0
256,192,68126,1,8
256,192,68292,1,0
256,192,68459,1,0
445,194,68792,1,0
383,147,68958,1,0
319,102,69125,1,8
256,56,69292,1,0
193,102,69459,1,0
126,145,69626,1,8
64,192,69792,1,0
64,192,70126,5,4
256,360,70626,2,0,B|216:288|232:248,1,86.6666666666667
256,360,70959,2,0,B|296:288|280:248,1,86.6666666666667
256,104,71459,5,4
256,104,71626,1,4
80,112,71959,5,0
96,200,72126,1,8
168,248,72292,1,0
256,272,72459,1,0
344,248,72626,1,8
416,200,72792,1,0
432,112,72959,1,0
432,24,73126,2,4,B|264:272|72:8,1,433.333333333333
87,28,74126,5,8
432,24,74626,1,8
256,32,75001,2,2,B|168:48|168:152|256:152,1,195
256,96,75501,1,0
256,96,75626,2,0,B|352:128|272:224,1,130,8|0
256,304,76126,5,8
128,304,76376,1,0
256,304,76626,1,8
384,304,76876,1,0
256,304,77126,1,8
128,304,77376,1,4
256,304,77626,1,4
216,48,78126,6,0,B|216:192,1,130,8|0
296,48,78626,2,0,B|296:184,1,130,8|0
376,208,79001,2,2,B|360:312|253:284|128:320|128:176,1,325
64,48,80126,5,12
448,48,80626,5,12
256,344,81126,5,8
256,344,81376,1,8
256,192,88292,12,0,89626
256,192,90126,6,8,B|120:144|312:40,1,173.333333333333,8|0
256,192,90626,2,8,B|392:240|200:344,1,173.333333333333
256,192,91126,1,0
256,192,91292,1,0
256,192,91459,1,0
256,192,91626,2,4,B|176:144|144:248|72:176,1,173.333333333333
256,192,92126,6,8,B|392:144|200:40,1,173.333333333333
256,192,92626,2,8,B|120:240|312:344,1,173.333333333333
256,192,93126,1,0
256,192,93292,1,0
256,192,93459,1,0
256,192,93626,2,4,B|336:144|368:248|440:176,1,173.333333333333
432,104,94126,5,8
344,104,94292,1,0
256,104,94459,1,0
344,104,94626,1,8
256,104,94792,1,0
168,104,94959,1,0
256,104,95126,1,8
168,104,95292,1,0
80,104,95459,1,0
168,104,95626,6,4,B|168:192|256:192|344:184|344:104,1,260
256,352,96626,1,12
168,104,97126,1,12
344,104,97459,1,12
256,192,102126,12,0,105501
168,128,108126,5,0
344,128,108626,1,2
256,288,109126,1,2
256,192,109459,1,0
