osu file format v5

[General]
AudioFilename: You Are A Pirate.mp3
AudioLeadIn: 0
PreviewTime: 88126
Countdown: 0
SampleSet: Normal
StackLeniency: 0.7
Mode: 0
LetterboxInBreaks: 1
EditorDistanceSpacing: 1

[Metadata]
Title:You Are A Pirate
Artist:Lazy Town
Creator:Agent Spin Here
Version:Hard
Source:
Tags:

[Difficulty]
HPDrainRate:6
CircleSize:5
OverallDifficulty:6
SliderMultiplier:2.4
SliderTickRate:1

[Events]
//Background and Video events
1,-1025,"video.wmv"
0,0,"piratebg.jpg"
//Break Periods
2,27325,29076
2,71825,73076
2,82325,87076
2,98826,101076
//Storyboard Layer 0 (Background)
//Storyboard Layer 1 (Failing)
//Storyboard Layer 2 (Passing)
//Storyboard Layer 3 (Foreground)
//Storyboard Sound Samples
//Background Colour Transformations
3,100,163,162,255

[TimingPoints]
4126.18567177931,500,4,1,0,70,1,0
90126,-100,4,1,0,70,0,1
105876,-200,4,2,0,100,0,0

[Colours]
Combo1 : 0,187,187
Combo2 : 16,71,112
Combo3 : 72,72,255

[HitObjects]
136,184,4126,1,4
376,184,4626,1,4
184,32,5126,2,0,B|240:96,1,80,8|0
240,168,5459,1,0
240,248,5626,1,4
472,248,6126,6,0,B|424:320,1,80,8|0
352,312,6459,1,0
272,312,6626,2,0,B|200:240,1,80,8|0
216,176,6959,1,0
216,96,7126,2,0,B|312:32,1,80,8|0
360,48,7459,1,0
440,48,7626,1,4
440,296,8126,5,8
440,216,8292,1,0
440,136,8459,1,0
360,136,8626,1,8
280,136,8792,1,0
200,136,8959,1,0
120,136,9126,2,0,B|176:216,1,80,8|0
168,280,9459,1,0
248,280,9626,1,4
488,280,10126,6,0,B|288:304|360:104,1,240,0|4
184,152,10959,1,8
104,152,11126,2,0,B|112:264|0:272,1,160
256,192,13626,5,6
48,72,14126,5,4
288,72,14626,2,0,B|376:72,1,80,8|0
368,152,14959,1,0
368,232,15126,1,8
208,232,15459,6,2,B|96:232,1,80,2|2
264,312,15959,5,0
344,312,16126,1,4
344,152,16459,1,0
264,152,16626,1,4
104,152,16959,1,0
184,152,17126,1,4
232,304,17459,1,0
232,224,17626,1,4
456,304,18126,6,0,B|456:48,1,240,0|8
376,64,18792,1,0
296,64,18959,1,0
216,64,19126,1,8
216,224,19459,6,2,B|216:128,1,80
216,304,19959,5,0
296,304,20126,2,0,B|384:304,1,80
376,144,20626,1,0
216,144,20959,2,0,B|128:144,1,80,0|4
368,280,22126,5,4
128,280,22626,2,0,B|248:280,1,80,8|0
208,200,22959,2,0,B|112:200,1,80,0|8
288,200,23459,6,2,B|288:104,1,80
416,320,24126,5,4
256,320,24459,1,0
176,320,24626,2,0,B|56:320,1,80,8|0
96,160,25126,2,0,B|96:256,1,80,8|0
256,240,25626,2,0,B|136:240,1,80,8|0
336,240,26126,5,2
160,80,26626,2,8,B|160:192,1,80,8|0
240,160,26959,2,0,B|336:160,1,80
256,192,30126,5,4
256,192,30626,1,4
56,192,31001,2,2,B|56:96|56:96|160:96,1,180
240,96,31626,1,4
240,336,32126,5,0
0,336,32626,1,8
0,96,33126,1,0
240,96,33626,1,8
104,192,34126,5,8
224,192,34376,1,0
344,192,34626,1,8
464,192,34876,1,0
464,192,35001,2,0,B|312:32,1,180
216,64,35626,1,4
144,280,36126,5,2
384,280,36626,1,2
384,96,37001,1,0
320,96,37126,2,0,B|224:96|224:96|224:184|224:184|224:256,2,240
256,192,38376,12,4,40126
256,192,40626,5,4
16,192,41126,1,8
96,192,41292,1,0
176,192,41459,1,0
256,192,41626,1,12
496,192,42126,5,8
416,192,42292,1,0
336,192,42459,1,0
256,192,42626,1,8
256,112,42792,1,0
176,112,42959,1,0
176,32,43126,1,8
96,32,43292,1,0
96,112,43459,1,0
96,192,43626,1,4
336,192,44126,5,8
256,192,44292,1,0
176,192,44459,1,0
176,272,44626,1,8
96,272,44792,1,0
96,352,44959,1,0
176,352,45126,1,8
256,352,45292,1,0
256,272,45459,1,0
336,272,45626,1,4
336,32,46126,5,4
88,32,46626,2,0,B|88:208,1,160
168,192,47126,2,0,B|352:192,1,160
40,328,48126,5,4
280,328,48626,1,4
280,168,48959,1,0
200,168,49126,1,8
200,88,49292,1,0
280,88,49459,1,0
360,88,49626,1,4
120,168,50126,6,0,B|120:256,1,80,8|0
200,248,50459,1,0
280,248,50626,2,0,B|280:160,1,80,8|0
360,168,50959,1,0
440,168,51126,2,0,B|440:272,1,80,8|0
360,248,51459,1,0
360,328,51626,1,4
120,248,52126,6,4,B|16:216|-16:104|232:112|-40:48|296:16|144:160|168:176|248:264|320:24,1,480
296,320,53626,1,4
256,192,54126,12,4,56126
304,304,58126,6,0,B|392:312|400:184|192:192|320:96,1,240
208,128,58792,1,0
128,128,58959,1,0
48,128,59126,1,0
48,288,59459,6,2,B|168:288,1,80
288,288,59959,5,0
368,288,60126,1,4
368,128,60459,1,0
288,128,60626,1,4
128,128,60959,1,0
208,128,61126,1,4
256,280,61459,1,0
256,200,61626,1,4
208,48,61959,6,0,B|312:48,1,80
448,48,62459,1,0
448,128,62626,1,8
448,208,62792,1,0
368,208,62959,1,0
288,208,63126,1,4
112,208,63459,6,6,B|224:208,1,80,2|6
112,336,63959,5,0
192,336,64126,2,0,B|304:368|296:184,1,160
216,248,64626,2,0,B|80:256|88:120,1,160
168,168,65126,1,4
408,168,65626,5,6
248,344,66126,6,0,B|160:344|296:232|8:248,1,240
56,168,66792,2,0,B|56:80,1,80
136,88,67126,1,8
296,96,67459,6,2,B|296:184,1,80
392,304,67959,6,0,B|296:304,2,80
392,224,68459,1,4
232,224,68792,1,0
152,224,68959,1,0
152,64,69292,1,0
152,144,69459,1,8
152,224,69626,1,0
336,64,70126,5,4
336,304,70626,1,8
256,304,70792,1,0
176,304,70959,1,0
96,304,71126,1,0
96,144,71459,6,6,B|248:144,1,80
256,192,74126,5,4
256,192,74626,1,4
56,192,75001,2,2,B|56:288|56:288|160:288,1,180
240,288,75626,1,4
240,48,76126,5,0
0,48,76626,1,8
0,288,77126,1,0
240,288,77626,1,8
104,192,78126,5,8
224,192,78376,1,0
344,192,78626,1,8
464,192,78876,1,0
464,192,79001,2,0,B|312:352,1,180
216,320,79626,1,4
144,104,80126,5,2
384,104,80626,1,2
384,288,81001,1,0
320,288,81126,2,0,B|224:288|224:288|224:200|224:200|224:120,2,240,0|0|4
256,192,88126,12,4,90126
256,192,90626,5,4
496,192,91126,1,8
416,192,91292,2,0,B|328:192,1,80
256,192,91626,1,4
64,48,92126,5,8
64,128,92292,1,0
64,208,92459,1,0
64,288,92626,1,8
64,368,92792,1,0
144,368,92959,1,0
144,288,93126,1,8
144,208,93292,1,0
144,128,93459,1,0
144,48,93626,1,4
376,48,94126,6,2,B|288:48,1,80,10|2
216,48,94459,2,0,B|216:144,1,80,0|8
296,128,94792,2,0,B|392:128,1,80
376,208,95126,2,2,B|376:296,1,80,10|10
296,288,95459,2,0,B|296:200,1,80,0|4
256,192,96126,12,4,98126
256,192,98626,5,4
120,64,102126,5,0
192,96,102292,1,0
264,128,102459,1,0
336,168,102626,1,0
408,200,102792,1,0
344,248,102959,1,0
272,288,103126,1,0
208,240,103292,1,0
144,184,103459,1,0
88,240,103626,1,0
88,24,104126,5,4
432,24,104626,5,4
432,328,105126,5,4
88,328,105626,5,4
224,128,106126,6,4,B|192:192|192:192|264:256|264:256|320:184|320:184|288:120|288:120|248:120,1,360,0|0
256,192,108126,12,6,109459
