osu file format v3

[General]
AudioFilename: ifpf-cooking_book_hi.mp3
AudioLeadIn: 0
AudioHash: 824a255a9e4a770be1cac9af98e3bd05
PreviewTime: -1
SampleSet: Normal

[Metadata]
Title:Cooking by the Book
Artist:Lazy Town
Creator:Hitoshirenu Shourai
Version:Hard

[Difficulty]
HPDrainRate:4
CircleSize:5
OverallDifficulty:6
SliderMultiplier: 1.4
SliderTickRate: 2

[Events]
0,0,"cake.PNG"
3,0,255,128,192

[TimingPoints]
4400,545.454545454545

[HitObjects]
256,192,4400,1,0,
192,192,4672,1,0,
256,128,4945,1,0,
320,192,5218,1,0,
288,256,5490,2,2,B|288:256|208:256,1,70
96,192,6309,5,0,
160,160,6581,1,0,
160,224,6854,1,0,
224,160,7127,1,0,
224,224,7399,1,0,
288,192,7672,1,2,
256,352,8763,5,0,
256,288,9035,1,0,
304,240,9308,1,0,
256,192,9581,1,0,
208,144,9854,5,2,
256,96,10127,1,2,
304,144,10399,1,0,
256,192,10672,1,0,
208,240,10945,5,0,
256,288,11218,1,0,
208,336,11490,1,2,
160,288,11763,1,2,
112,240,12036,1,2,
32,32,12854,5,0,
96,32,13127,1,0,
96,96,13399,1,0,
160,96,13672,1,0,
160,160,13945,5,0,
224,160,14218,1,2,
224,224,14490,2,2,B|224:224|256:224,1,35
256,288,15036,5,0,
256,352,15309,1,0,
320,352,15581,1,0,
384,352,15854,1,2,
384,288,16127,1,2,
320,224,16399,1,2,
256,32,17218,5,0,
320,32,17490,1,0,
320,96,17763,1,0,
256,96,18036,1,0,
192,96,18309,5,0,
192,160,18581,1,2,
256,160,18854,2,2,B|256:160|288:160,1,35
256,224,19399,5,0,
288,288,19672,1,0,
224,288,19945,1,0,
192,352,20218,1,2,
256,352,20490,1,0,
320,352,20763,1,2,
288,192,21581,5,0,
256,192,21718,1,0,
224,192,21854,1,4,
192,192,21990,1,0,
208,160,22127,5,0,
240,160,22263,1,0,
272,160,22399,1,4,
256,128,22536,5,0,
224,128,22672,1,0,
240,96,22809,5,0,
240,32,22945,5,4,
160,320,24036,5,4,
224,320,24309,1,0,
288,320,24581,1,0,
352,320,24854,1,0,
320,256,25127,2,6,B|320:256|176:256,1,140
80,144,26081,5,0,
80,176,26218,1,4,
80,208,26354,1,0,
80,240,26490,1,0,
112,224,26627,5,0,
112,192,26763,1,4,
112,160,26899,1,0,
144,176,27036,5,0,
144,208,27172,1,0,
176,192,27309,5,4,
256,128,28127,5,0,
256,192,28399,1,4,
192,192,28672,1,0,
256,256,28945,1,4,
320,192,29218,1,0,
308,145,29490,2,6,B|308:145|180:257,1,140
256,352,30581,5,0,
240,320,30718,5,0,
272,320,30854,1,4,
288,288,30990,5,0,
256,288,31127,1,0,
224,288,31263,1,0,
208,256,31399,5,4,
256,256,31536,1,0,
304,256,31672,1,4,
480,192,32490,5,0,
416,160,32763,1,4,
416,224,33036,1,0,
352,192,33309,1,4,
288,192,33581,1,0,
256,128,33854,2,6,B|256:128|188:186|256:272,1,140
192,224,34945,5,0,
240,208,35081,1,0,
272,192,35218,1,4,
304,176,35354,1,0,
336,160,35490,1,0,
336,112,35627,5,0,
272,112,35763,1,4,
208,112,35899,1,0,
176,160,36036,1,4,
256,192,37127,5,6,
256,256,37672,5,6,
192,192,38217,5,6,
256,128,38763,5,6,
320,192,39308,5,6,
256,352,40127,5,0,
256,288,40399,1,4,
256,224,40672,1,0,
256,160,40945,1,4,
256,96,41218,1,0,
256,32,41490,1,6,
96,192,42309,5,0,
160,192,42582,1,6,
224,192,42854,1,0,
288,192,43127,1,6,
352,192,43400,1,0,
416,192,43673,1,6,
288,128,44763,5,6,
224,128,45036,1,0,
224,192,45309,1,0,
288,192,45581,1,0,
256,256,45854,5,6,
192,192,46399,5,6,
256,128,46945,5,6,
320,192,47490,5,6,
256,192,48036,5,6,
400,272,49945,5,0,
368,272,50081,1,0,
336,272,50218,1,4,
384,208,50490,5,0,
320,208,50763,1,4,
352,144,51036,1,0,
288,144,51309,2,6,B|288:144|240:144|256:224,1,70
256,272,52127,5,0,
192,272,52399,1,4,
144,224,52672,1,0,
144,160,52945,1,4,
192,112,53218,1,0,
256,112,53490,1,6,
32,320,54309,5,0,
96,320,54581,1,4,
96,256,54854,1,0,
160,256,55127,5,4,
160,192,55399,1,0,
224,192,55672,1,4,
288,192,55945,1,0,
352,192,56218,5,4,
352,128,56490,1,0,
416,128,56763,1,4,
416,64,57036,1,0,
352,16,57309,5,4,
288,64,57581,1,2,
224,64,57854,1,6,
144,48,58672,5,0,
144,96,58809,1,0,
144,144,58945,1,4,
144,192,59081,1,0,
192,208,59218,5,0,
240,192,59354,1,0,
288,176,59490,1,4,
336,160,59627,1,0,
288,112,59763,5,6,
240,96,59899,1,0,
208,128,60036,1,6,
256,352,61127,5,4,
256,272,61399,1,0,
256,192,61672,1,4,
256,112,61945,1,0,
176,48,62218,2,6,B|176:48|80:80|80:176,1,140
112,240,63172,5,0,
112,304,63309,1,4,
144,304,63445,1,0,
176,272,63581,5,0,
176,240,63718,1,0,
160,192,63854,1,4,
112,176,63990,1,0,
64,192,64127,5,6,
48,240,64263,1,0,
64,288,64399,1,6,
256,240,65218,5,0,
288,176,65490,1,4,
224,176,65763,1,0,
224,112,66035,1,4,
288,112,66308,1,0,
352,144,66581,2,6,B|352:144|372:220|304:288,1,140
256,320,67672,5,4,
256,288,67809,1,0,
256,256,67945,1,0,
256,224,68081,1,0,
224,192,68218,5,4,
256,192,68354,1,0,
288,192,68490,1,2,
272,160,68627,1,0,
240,160,68763,1,6,
256,32,69581,5,0,
256,96,69854,1,4,
192,128,70127,1,0,
256,160,70399,1,4,
320,128,70672,1,0,
320,192,70945,2,6,B|320:192|252:264|176:176,1,140
112,160,72036,5,4,
96,192,72172,1,0,
104,232,72309,1,4,
128,256,72445,1,0,
160,264,72581,5,4,
192,256,72718,1,0,
208,224,72854,1,6,
208,192,72990,1,0,
192,160,73127,1,6,
352,152,74218,6,6,B|352:152|192:224,1,140
184,104,75309,6,6,B|184:104|352:104,1,140
184,160,76399,1,6,
256,256,77218,5,0,
320,256,77490,1,4,
384,224,77763,1,0,
384,160,78036,1,4,
320,128,78309,1,0,
256,128,78581,1,6,
192,128,79399,5,0,
128,160,79672,1,4,
64,192,79945,1,0,
128,224,80218,1,4,
192,256,80490,1,0,
192,192,80763,1,6,
256,96,81854,5,4,
256,160,82127,1,0,
256,224,82399,1,4,
256,288,82672,1,0,
320,224,82945,5,6,
192,224,83490,5,6,
288,160,84036,5,6,
224,160,84581,5,6,
256,96,85127,5,6,
144,32,85945,6,4,B|144:32|80:112,1,70
64,144,86490,2,6,B|64:144|64:240,1,70
64,288,87036,2,4,B|64:288|128:336,1,70
392,330,88127,6,4,B|392:330|448:288,1,70
448,214,88673,2,6,B|448:214|448:144,1,70
411,86,89218,2,4,B|411:86|368:32,1,70
256,112,90581,5,4,
256,192,90854,1,0,
256,272,91127,1,4,
176,192,91399,1,0,
256,128,91672,5,6,
320,192,92218,5,6,
256,256,92763,5,6,
192,192,93309,5,6,
192,112,93718,5,0,
192,144,93854,1,4,
192,176,93991,1,0,
192,208,94127,1,0,
240,192,94263,1,4,
240,160,94400,1,0,
240,128,94536,1,0,
272,144,94673,1,6,
272,176,94809,1,0,
304,160,94945,1,6,
144,80,95490,5,6,
