osu file format v5

[General]
AudioFilename: 112-lazard_-_i_am_alive-zzzz.mp3
AudioLeadIn: 0
PreviewTime: -1
Countdown: 1
SampleSet: Normal
StackLeniency: 0.7
Mode: 0
LetterboxInBreaks: 1
EditorBookmarks: 29861,42431,55635,70318,83311,96199,110987,130213,143734,158206,171727,184614

[Metadata]
Title:I Am Alive
Artist:Lazard
Creator:Tri-Edge
Version:Kingcobra's Insane
Source:
Tags:Trance

[Difficulty]
HPDrainRate:6
CircleSize:6
OverallDifficulty:9
SliderMultiplier:2.6
SliderTickRate:1

[Events]
//Background and Video events
0,0,"ghjghjw.jpg"
//Break Periods
2,83722,95994
//Storyboard Layer 0 (Background)
//Storyboard Layer 1 (Failing)
//Storyboard Layer 2 (Passing)
//Storyboard Layer 3 (Foreground)
//Storyboard Sound Samples
//Background Colour Transformations
3,100,163,162,255

[TimingPoints]
29861,422.535211267606,4,1,0,100,1

[HitObjects]
304,72,29861,2,8,B|384:72|416:160,2,130
216,72,30494,2,8,B|136:72|104:160,1,130
80,224,30917,1,0
96,264,31022,1,0
136,280,31128,1,8
216,320,31339,1,8
264,240,31551,1,0
208,168,31762,1,0
296,184,31973,2,0,B|368:136|344:64,1,130
440,72,32396,1,8
480,152,32607,1,8
392,152,32818,2,0,B|432:216|384:280,1,130
312,320,33241,5,0
264,328,33346,1,0
224,296,33452,1,8
288,232,33663,1,8
256,144,33875,2,0,B|200:24,1,130
112,32,34297,2,0,B|24:152,1,130
104,192,34720,1,8
40,256,34931,1,8
72,280,35037,1,0
32,296,35142,1,0
120,328,35353,1,0
208,312,35565,1,0
296,328,35776,6,0,B|376:328|384:248,1,130,0|8
295,231,36199,2,0,B|303:155|383:155,1,130,0|8
384,64,36621,1,0
296,64,36832,1,0
200,64,37044,1,0
112,64,37255,2,0,B|16:168,1,130,0|8
88,216,37677,2,0,B|192:104,1,130,0|8
248,176,38100,1,0
176,232,38311,1,8
248,288,38522,1,0
320,232,38734,1,8
248,176,38945,1,0
328,128,39156,6,0,B|440:40,2,130,0|0|0
248,176,39790,1,0
168,128,40001,1,8
128,104,40107,1,0
88,80,40213,1,0
88,168,40424,1,0
8,120,40635,1,0
8,208,40846,1,0
88,248,41058,1,0
168,288,41269,2,8,B|312:288,1,130
384,288,41691,1,8
432,288,41797,1,0
408,248,41903,1,0
408,160,42114,2,0,B|346:199|281:152,1,130
216,96,42537,6,8,B|144:64|80:120,1,130
216,96,42959,2,0,B|256:160|200:224,1,130
168,296,43382,6,8,B|88:296|56:208,2,130
80,304,44015,2,0,B|120:360|208:336,1,130
264,272,44438,1,0
304,296,44543,1,0
344,272,44649,1,8
432,272,44860,1,8
480,200,45072,1,0
480,112,45283,1,0
424,40,45494,2,0,B|363:19|315:91,1,130
224,88,45917,1,8
280,16,46128,1,0
224,88,46339,2,0,B|264:152|216:216,1,130
200,296,46762,5,0
248,296,46867,1,0
224,336,46973,1,0
224,248,47184,1,8
312,248,47396,2,0,B|424:168,1,130
440,80,47818,2,0,B|328:160,1,130
264,88,48241,1,0
176,88,48452,1,8
152,48,48558,1,0
104,40,48663,1,0
112,128,48874,1,0
32,176,49086,1,0
112,216,49297,6,0,B|192:216|200:296,1,130,0|8
240,208,49720,1,0
312,264,49931,1,0
312,176,50142,2,0,B|388:184|388:264,1,130,0|8
480,264,50565,1,0
480,176,50776,2,0,B|480:24,1,130,0|8
392,47,51198,2,0,B|256:48,1,130,0|8
168,48,51621,1,0
168,136,51832,2,8,B|88:128|48:200,1,130
144,216,52255,1,8
192,288,52466,1,0
256,192,52677,12,8,55635
104,72,56058,5,4
408,336,56480,1,4
400,72,56903,5,8
328,128,57114,1,0
400,184,57325,1,0
328,240,57537,1,0
104,328,57959,1,0
192,328,58170,1,8
280,328,58382,1,0
104,152,58804,1,0
104,240,59015,1,0
104,328,59227,1,0
256,192,59649,5,2
256,192,59861,1,2
432,40,60283,5,0
488,112,60494,1,0
432,184,60706,1,8
488,256,60917,1,0
256,344,61339,1,4
40,192,61762,1,4
256,32,62184,1,12
472,192,62607,1,2
472,280,62818,1,2
472,96,63241,1,10
304,96,63663,5,0
208,96,63875,1,0
304,96,64086,1,0
208,96,64297,1,8
104,280,64720,1,4
400,280,65142,1,4
256,192,65565,1,4
256,8,65987,1,0
168,48,66199,1,2
88,88,66410,1,2
8,128,66621,1,2
88,88,66832,1,10
256,320,67255,5,0
256,64,67678,1,0
256,320,68100,1,8
256,64,68522,1,0
344,64,68734,1,0
432,64,68945,1,0
432,152,69156,1,0
344,152,69368,1,0
344,240,69579,5,8
296,240,69684,1,0
248,240,69790,1,0
200,240,69896,1,0
200,192,70001,6,0,B|128:192,3,65
136,144,70424,6,0,B|236:61,1,130
328,64,70846,2,8,B|432:160,1,130
432,64,71269,1,0
464,96,71375,1,0
496,128,71480,1,0
480,216,71691,1,0
424,288,71903,1,0
336,312,72114,2,8,B|264:320|232:248,1,130
200,160,72537,1,0
128,96,72748,1,0
48,136,72959,1,0
24,176,73065,1,0
48,216,73170,1,0
128,248,73382,2,8,B|264:304,1,130
328,264,73804,5,0
400,208,74015,1,0
320,160,74227,1,0
400,112,74438,1,0
320,64,74649,1,8
280,40,74755,1,0
240,64,74861,1,0
152,64,75072,1,0
88,128,75283,1,0
152,184,75494,2,0,B|152:320,1,130
216,248,75917,1,8
280,184,76128,1,0
280,232,76234,1,0
280,280,76339,1,0
352,336,76551,1,0
416,272,76762,2,0,B|488:248|488:168,1,130,0|8
456,88,77184,5,8
368,120,77396,1,0
280,88,77607,1,0
368,120,77818,1,0
368,208,78030,1,0
336,240,78135,1,0
288,248,78241,1,0
272,160,78452,1,8
208,224,78663,1,0
192,136,78875,2,0,B|128:144|168:72|88:72,1,130
8,112,79297,2,0,B|85:112|45:184|109:176,1,130
112,264,79720,5,8
200,264,79931,1,0
200,264,80142,1,0
288,264,80353,1,0
440,40,80776,1,0
40,56,81199,1,8
288,264,81621,1,0
40,56,82044,5,0
128,56,82255,1,8
128,144,82466,1,0
216,144,82677,1,0
216,232,82889,1,0
304,232,83100,5,8
352,232,83206,1,0
352,280,83311,1,0
400,280,83417,1,0
400,328,83522,1,8
88,64,97044,6,8,B|40:128|88:184,2,130
176,64,97677,1,0
264,64,97889,1,0
352,64,98100,2,0,B|368:136|464:136,1,130
448,224,98523,1,8
376,280,98734,1,8
376,184,98946,1,0
296,224,99157,1,0
248,224,99262,1,0
271,263,99368,2,0,B|264:336|184:344,1,130,8|0
128,272,99791,1,8
200,224,100002,1,0
128,168,100213,2,0,B|240:72,1,130
320,80,100636,5,0
392,128,100847,1,0
424,160,100952,1,0
376,168,101058,1,8
376,256,101270,2,0,B|232:256,1,130
320,200,101692,2,0,B|184:200,1,130
192,104,102115,1,0
104,104,102326,1,8
192,104,102537,1,0
192,56,102642,1,0
240,56,102748,2,0,B|296:16|368:56,1,130
432,111,103170,2,0,B|470:178|430:234,1,130
359,288,103593,2,0,B|293:326|237:286,1,130,0|8
176,216,104016,5,0
264,200,104227,1,0
232,168,104332,1,0
232,120,104439,1,0
168,56,104650,2,0,B|24:56,1,130,0|8
80,136,105072,2,0,B|80:0,1,130,0|8
168,56,105495,1,0
256,80,105706,1,8
344,56,105917,1,0
384,72,106022,1,0
424,88,106129,1,8
504,120,106340,1,0
471,207,106551,2,0,B|344:152,2,130,0|0|0
432,288,107185,5,0
344,288,107396,1,8
248,288,107608,1,0
200,288,107713,1,0
152,288,107819,1,0
248,288,108030,1,0
248,200,108241,1,0
320,152,108453,1,0
248,96,108664,2,8,B|392:96,1,130
376,8,109086,1,8
456,48,109298,5,0
456,96,109403,1,0
455,143,109509,2,0,B|408:200|456:264,1,130
368,272,109931,1,0
304,200,110142,1,0
248,272,110353,1,0
184,200,110565,5,8
144,176,110670,1,0
104,152,110776,1,0
64,128,110882,1,0
24,104,110987,1,8
432,48,111832,5,0
360,104,112044,1,0
432,152,112255,1,8
360,208,112466,1,2
360,208,112677,1,2
32,40,113522,6,0,B|88:160,1,130,0|0
128,240,113945,2,8,B|264:184,1,130
328,152,114368,5,2
328,152,114579,1,2
328,152,114790,1,2
472,40,115213,5,8
400,328,115635,1,0
320,40,116058,1,8
256,328,116480,1,8
192,160,116903,6,0,B|264:160,3,65
256,208,117325,2,0,B|321:208,3,65
368,208,117748,6,8,B|448:208|480:296,2,130
368,120,118381,2,8,B|288:120|256:32,1,130
176,56,118804,1,0
128,56,118909,1,0
80,56,119015,1,8
128,128,119226,1,8
80,208,119438,1,0
176,208,119649,1,0
128,288,119860,2,0,B|128:152,1,130
216,128,120283,1,8
256,208,120494,1,0
343,207,120705,2,0,B|401:251|465:211,1,130
400,144,121128,5,0
400,192,121233,1,0
400,240,121339,1,0
328,296,121550,1,8
248,344,121762,2,0,B|160:232,1,130
112,168,122184,2,0,B|200:280,1,130
120,320,122607,1,0
56,256,122818,1,8
16,232,122924,1,0
56,208,123029,1,0
56,120,123240,1,0
128,64,123452,1,0
216,64,123663,6,0,B|296:64|304:144,1,130
304,232,124086,2,0,B|296:308|216:308,1,130
224,216,124508,1,8
224,128,124719,1,0
304,176,124931,1,0
392,176,125142,2,0,B|440:304,1,130,0|8
408,328,125459,1,0
368,352,125564,2,0,B|240:320,1,130,0|8
152,296,125987,1,0
80,240,126198,1,8
152,184,126409,1,0
80,128,126621,1,8
152,72,126832,1,0
224,128,127043,6,0,B|304:128|320:48,2,130,0|0|0
152,184,127677,1,0
224,232,127888,1,8
264,248,127994,1,0
304,232,128100,1,0
384,184,128311,1,0
472,184,128522,1,0
472,96,128733,1,0
472,184,128945,1,0
472,272,129156,2,8,B|342:272,1,130
408,336,129578,1,8
360,336,129684,1,0
312,336,129790,1,0
312,248,130001,2,0,B|250:287|185:240,1,130
184,152,130424,6,8,B|112:120|48:176,1,130
104,80,130846,2,0,B|144:144|88:208,1,130
96,287,131269,6,8,B|119:354|199:354,2,130
184,280,131902,2,0,B|224:224|312:248,1,130
304,336,132325,1,0
344,312,132430,1,0
384,336,132536,1,8
440,264,132747,1,8
480,184,132959,1,0
456,96,133170,1,0
408,16,133381,2,0,B|328:8|304:88,1,130
352,152,133804,1,8
320,240,134015,1,0
240,288,134226,2,0,B|176:328|112:280,1,130
64,208,134649,5,0
104,184,134754,1,0
144,160,134860,1,0
136,72,135071,1,8
208,128,135283,2,0,B|320:48,1,130
360,48,135600,1,0
408,48,135705,2,0,B|504:152,1,130
496,232,136128,1,0
408,232,136339,1,8
400,272,136445,1,0
360,296,136550,1,0
312,216,136761,1,0
216,216,136973,1,0
128,248,137184,6,0,B|208:248|216:328,1,130
128,336,137607,1,8
40,312,137818,1,0
40,224,138029,2,0,B|116:216|116:136,1,130
120,48,138452,1,0
208,48,138663,2,0,B|338:48,1,130,0|8
336,96,138980,1,0
335,143,139085,2,0,B|465:143,1,130,0|8
424,224,139508,1,0
336,224,139719,2,8,B|256:216|240:304,1,130
152,288,140142,1,8
88,224,140353,1,0
256,192,140564,12,8,143522
440,48,143945,5,4
64,336,144367,1,4
440,336,144790,5,8
376,232,145001,1,0
272,288,145212,1,0
216,184,145424,1,0
64,88,145846,1,0
160,24,146057,1,8
256,88,146269,1,0
448,88,146691,1,0
352,24,146902,1,8
256,88,147114,1,0
256,320,147536,5,2
256,320,147748,1,2
64,48,148170,5,0
168,96,148381,1,0
64,152,148593,1,8
168,208,148804,1,0
424,336,149226,1,4
464,56,149649,1,4
216,16,150071,1,12
80,256,150494,1,2
80,136,150705,1,2
80,368,151128,1,10
472,352,151550,5,0
384,272,151762,1,0
384,152,151973,1,0
472,72,152184,1,8
160,40,152607,1,4
64,312,153029,1,4
416,328,153452,1,4
160,40,153874,1,0
160,152,154086,1,2
272,152,154297,1,2
384,152,154508,1,2
272,152,154719,1,10
72,280,155142,5,4
296,336,155565,1,4
480,192,155987,1,12
312,32,156409,1,0
192,32,156621,1,0
80,72,156832,1,0
16,168,157043,1,0
40,280,157255,1,0
136,344,157466,5,8
176,304,157571,1,0
232,304,157677,1,0
272,264,157783,1,0
312,216,157888,6,0,B|384:216,3,65
376,152,158311,6,0,B|476:69,1,130
360,56,158733,2,8,B|464:152,1,130
456,264,159156,1,0
416,304,159262,1,0
376,344,159367,1,0
256,344,159578,1,0
320,248,159790,1,0
200,248,160001,2,8,B|128:256|96:184,1,130
200,136,160424,1,0
272,48,160635,1,0
280,160,160846,1,0
328,128,160952,1,0
376,160,161057,1,0
376,280,161269,2,8,B|512:336,1,130
376,280,161691,5,0
256,280,161902,1,0
176,192,162114,1,0
256,280,162325,1,0
296,168,162536,1,8
280,112,162642,1,0
224,112,162748,1,8
120,56,162959,1,0
24,120,163170,1,0
120,192,163381,2,0,B|120:328,1,130
240,320,163804,1,8
352,320,164015,1,0
352,264,164121,1,0
352,208,164226,1,0
352,320,164438,1,0
464,320,164649,2,0,B|464:184,1,130,0|8
464,72,165071,5,8
352,24,165283,1,0
248,72,165494,1,0
352,24,165705,1,0
352,144,165917,1,0
304,184,166022,1,0
248,160,166128,1,0
160,240,166339,1,8
240,320,166550,1,0
336,256,166762,2,0,B|413:256|373:328|437:320,1,130
392,208,167184,2,0,B|469:208|429:280|493:272,1,130
496,152,167607,5,8
400,80,167818,1,0
400,80,168029,1,0
304,16,168240,1,0
48,152,168663,1,4
232,344,169086,1,12
472,216,169508,1,4
304,16,169931,5,0
184,16,170142,1,8
64,16,170353,1,0
64,128,170564,1,0
64,248,170776,1,0
176,256,170987,5,0
232,256,171093,1,0
288,256,171198,1,0
344,256,171304,1,0
400,256,171410,2,8,B|472:256,3,65
464,200,171832,6,8,B|384:200|352:112,1,130
264,64,172255,1,0
144,64,172465,2,8,B|64:64|32:152,1,130
80,240,172888,1,0
120,280,172993,1,0
176,280,173099,1,8
272,208,173310,1,8
312,320,173522,1,0
424,344,173733,1,0
360,240,173944,2,0,B|360:104,1,130
240,112,174367,1,8
136,64,174578,1,0
40,128,174789,2,0,B|98:172|162:132,1,130
224,232,175212,5,0
264,272,175317,1,0
224,312,175423,1,0
336,272,175634,1,8
424,200,175846,2,0,B|336:88,1,130
352,216,176268,2,0,B|440:328,1,130
424,200,176691,1,0
304,216,176902,1,8
264,176,177008,1,0
280,120,177113,1,8
176,64,177324,1,0
72,120,177536,1,0
72,232,177747,6,0,B|152:232|160:312,1,130
312,232,178170,2,0,B|304:308|224:308,1,130
224,192,178592,1,8
224,72,178803,1,0
328,128,179015,1,0
328,8,179226,2,0,B|456:72,1,130,0|8
448,120,179543,1,0
448,176,179648,2,0,B|336:256,1,130,0|8
240,312,180071,1,0
120,312,180282,1,8
40,232,180493,1,0
72,120,180705,1,8
184,112,180916,1,0
256,200,181127,6,0,B|336:200|352:120,2,130,0|0|0
240,312,181761,1,0
352,296,181972,1,8
408,272,182078,1,0
432,216,182184,1,8
432,96,182395,1,0
336,32,182606,1,0
216,32,182817,1,0
112,88,183029,1,0
216,136,183240,2,8,B|216:280,1,130
96,272,183662,1,8
96,216,183768,1,0
152,216,183874,1,8
96,112,184085,2,0,B|169:88|113:40|185:16,1,130
288,48,184508,6,8,B|339:3|411:35,1,130,8|8
408,328,184930,2,8,B|344:368|280:312,1,130
287,192,185353,6,0,B|352:240|416:192,2,130
168,192,185986,2,0,B|128:248|40:224,1,130
168,192,186409,1,0
120,152,186514,1,0
168,112,186620,1,8
272,64,186831,1,8
384,24,187043,1,0
480,88,187254,1,0
384,152,187465,2,0,B|464:144|488:224,1,130
384,272,187888,1,8
280,208,188099,1,0
280,320,188310,2,0,B|216:360|152:312,1,130
72,240,188733,5,0
120,208,188838,1,0
168,176,188944,1,8
168,56,189155,1,8
272,112,189367,2,0,B|288:32|376:32,1,130
416,40,189684,1,0
416,96,189789,2,0,B|496:112|496:184,1,130
496,296,190212,1,0
376,296,190423,1,8
328,264,190529,1,0
280,296,190634,1,8
328,192,190845,1,8
208,192,191057,1,8
88,192,191269,1,8
208,192,191480,1,8
256,192,191691,12,8,198875
