osu file format v5

[General]
AudioFilename: 112-lazard_-_i_am_alive-zzzz.mp3
AudioLeadIn: 0
PreviewTime: -1
Countdown: 1
SampleSet: Normal
StackLeniency: 0.7
Mode: 0
LetterboxInBreaks: 1
EditorBookmarks: 29861,83311,96199

[Metadata]
Title:I Am Alive
Artist:Lazard
Creator:Tri-Edge
Version:Easy
Source:
Tags:Trance

[Difficulty]
HPDrainRate:5
CircleSize:4
OverallDifficulty:6
SliderMultiplier:1.4
SliderTickRate:1

[Events]
//Background and Video events
0,0,"ghjghjw.jpg"
//Break Periods
2,83722,95994
//Storyboard Layer 0 (Background)
//Storyboard Layer 1 (Failing)
//Storyboard Layer 2 (Passing)
//Storyboard Layer 3 (Foreground)
//Storyboard Sound Samples
//Background Colour Transformations
3,100,163,162,255

[TimingPoints]
29861,422.535211267606,4,1,0,100,1

[HitObjects]
120,128,29860,1,8
120,16,30283,1,0
232,16,30706,1,0
120,16,31128,1,8
120,128,31551,1,0
120,240,31973,1,0
232,240,32396,1,8
120,240,32818,1,0
120,128,33241,5,0
232,128,33663,1,8
344,128,34086,1,0
344,240,34508,1,0
232,240,34931,1,8
232,360,35353,1,0
344,360,35776,5,0
344,248,36199,1,8
344,136,36621,1,0
232,136,37044,1,0
120,136,37466,1,8
120,240,37889,1,0
232,240,38311,1,0
344,240,38734,1,8
344,128,39156,5,0
232,128,39579,1,0
120,128,40001,1,8
120,16,40424,1,0
120,128,40846,1,0
120,240,41269,1,8
120,352,41691,1,0
208,288,42114,1,0
312,240,42537,5,8
312,240,42748,5,0
312,240,42959,5,0
312,128,43382,5,0
208,128,43804,1,8
208,16,44227,1,0
96,16,44649,1,0
208,16,45072,1,8
320,16,45494,1,0
432,16,45917,1,0
376,112,46339,1,8
304,200,46762,5,0
232,280,47184,1,0
136,216,47607,1,8
136,104,48030,1,0
248,104,48452,1,0
360,104,48875,1,8
360,216,49297,1,0
248,216,49720,5,0
248,216,49931,1,0
248,216,50142,1,8
248,104,50565,5,0
344,160,50987,1,0
248,216,51410,1,8
152,160,51832,1,0
248,104,52255,1,0
256,192,52677,12,8,55635
384,184,56058,5,0
272,184,56480,1,0
160,184,56903,5,8
160,184,57114,1,0
160,184,57325,1,0
160,72,57748,5,0
272,72,58170,1,8
384,72,58593,1,0
272,72,59015,1,0
160,72,59438,1,8
272,72,59861,1,0
272,184,60283,5,0
272,184,60494,1,0
272,184,60706,1,8
160,184,61128,5,0
48,184,61551,1,0
48,296,61973,1,8
160,296,62396,1,0
272,296,62818,1,0
272,184,63241,1,8
352,104,63663,5,0
352,104,63875,1,0
352,104,64086,1,0
240,104,64508,1,8
128,104,64931,1,0
128,216,65353,1,0
128,104,65776,1,8
128,216,66199,5,0
128,216,66410,1,0
128,216,66621,1,0
128,328,67044,5,8
240,328,67466,1,0
352,328,67889,1,0
448,272,68311,1,8
448,160,68734,5,0
352,96,69156,1,0
240,96,69579,1,8
128,104,70001,1,0
192,192,70424,5,0
192,192,70635,1,0
192,192,70846,1,8
304,192,71269,5,0
416,192,71691,1,0
360,96,72114,1,8
304,192,72537,1,0
416,192,72959,1,0
360,96,73382,1,8
248,96,73804,5,0
248,96,74015,1,0
248,96,74227,1,0
136,96,74649,5,8
136,208,75072,1,0
248,208,75494,1,0
360,208,75917,1,8
248,208,76339,1,0
248,96,76762,1,0
248,208,77184,5,8
248,264,77396,1,0
248,208,77607,1,0
136,208,78030,5,0
136,96,78452,1,8
136,208,78875,1,0
248,208,79297,1,0
248,96,79720,5,8
360,96,80142,1,0
360,208,80565,1,0
360,320,80987,1,8
248,320,81410,5,0
136,320,81832,1,0
136,208,82255,1,8
136,96,82677,1,0
248,96,83100,1,0
360,96,83522,1,8
232,104,97044,5,8
232,216,97466,1,0
136,160,97889,1,0
232,104,98311,1,8
232,216,98734,1,0
328,160,99156,1,0
232,104,99579,1,8
136,160,100001,1,0
248,160,100424,5,0
192,256,100846,1,8
304,256,101269,1,0
304,144,101691,1,0
192,144,102114,1,8
256,240,102537,1,0
360,192,102959,1,0
360,88,103382,1,8
360,200,103804,5,0
360,312,104227,1,0
264,256,104649,1,8
376,256,105072,1,0
264,256,105494,1,0
152,256,105917,1,8
216,160,106339,1,0
328,160,106762,1,0
440,160,107184,5,8
488,256,107607,1,0
376,256,108030,1,0
264,256,108452,5,8
304,160,108875,1,0
192,160,109297,5,0
88,160,109720,1,8
136,256,110142,1,0
192,160,110565,1,0
136,256,110987,5,8
72,136,111832,5,0
184,136,112255,1,8
184,24,112677,1,0
376,144,113522,5,0
264,144,113945,1,8
264,256,114368,5,0
264,256,114579,1,0
264,256,114790,1,0
152,256,115213,5,8
40,256,115635,1,0
40,368,116058,1,0
40,256,116480,1,8
40,144,116903,5,0
152,144,117325,1,0
224,224,117748,5,8
112,224,118170,1,0
48,320,118593,1,0
160,328,119015,5,8
112,224,119438,1,0
224,224,119860,1,0
112,224,120283,1,8
48,320,120706,1,0
160,328,121128,5,0
272,328,121551,1,8
384,328,121973,1,0
320,232,122396,1,0
272,328,122818,1,8
216,232,123241,1,0
160,328,123663,5,0
272,328,124086,1,8
384,328,124508,1,0
328,232,124931,1,0
440,232,125353,1,8
384,328,125776,5,0
328,232,126199,1,0
328,120,126621,1,8
216,120,127044,5,0
224,232,127466,1,0
216,120,127889,1,8
216,8,128311,5,0
312,72,128734,1,0
312,184,129156,5,8
312,296,129579,1,0
408,232,130001,1,0
408,120,130424,5,8
408,120,130635,1,0
408,120,130846,1,0
296,120,131269,5,0
208,48,131691,1,8
144,136,132114,1,0
88,40,132537,5,0
32,136,132959,1,8
88,224,133382,1,0
32,320,133804,1,0
144,320,134227,1,8
88,224,134649,5,0
88,224,134861,1,0
88,224,135072,1,0
200,224,135494,5,8
256,320,135917,1,0
144,320,136339,1,0
88,224,136762,1,8
32,320,137184,1,0
80,288,137607,5,0
80,288,137818,1,0
80,288,138030,1,8
192,288,138452,5,0
272,208,138875,1,0
344,120,139297,1,8
272,208,139720,1,0
344,120,140142,1,0
256,192,140565,12,8,143522
408,320,143945,5,0
296,320,144368,1,0
352,224,144790,5,8
352,224,145001,1,0
352,224,145213,1,0
352,112,145635,5,0
256,168,146058,1,8
352,224,146480,1,0
360,336,146903,1,0
248,336,147325,1,8
248,224,147748,1,0
152,280,148170,5,0
152,280,148382,1,0
152,280,148593,1,8
248,336,149015,5,0
152,280,149438,1,0
40,280,149861,1,8
112,192,150283,1,0
224,192,150706,5,0
336,192,151128,1,8
264,280,151551,5,0
264,280,151762,1,0
264,280,151973,1,0
152,280,152396,5,8
40,280,152818,1,0
96,184,153241,1,0
40,280,153663,1,8
96,184,154086,5,0
96,184,154297,1,0
96,184,154508,1,0
208,184,154931,5,8
320,184,155353,1,0
320,72,155776,1,0
408,144,156199,1,8
488,224,156621,1,0
408,144,157044,1,0
320,72,157466,1,8
208,72,157889,5,0
208,184,158311,5,0
208,184,158522,1,0
208,184,158734,1,8
208,296,159156,5,0
320,296,159579,1,0
432,296,160001,1,8
320,296,160424,1,0
208,296,160846,1,0
208,184,161269,1,8
96,184,161691,5,0
96,184,161903,1,0
96,184,162114,1,0
208,184,162537,5,8
304,120,162959,1,0
304,232,163382,1,0
232,320,163804,1,8
208,208,164227,1,0
152,112,164649,5,0
240,48,165072,1,8
240,48,165283,1,0
240,48,165494,1,0
328,120,165917,5,0
440,120,166339,1,8
352,48,166762,1,0
240,48,167184,1,0
328,120,167607,5,8
328,120,167818,1,0
328,120,168030,1,0
336,232,168452,5,0
336,344,168875,1,8
240,288,169297,1,0
336,232,169720,1,0
336,344,170142,1,8
336,232,170565,1,0
240,288,170987,5,0
336,344,171410,5,8
448,344,171832,5,0
448,344,172044,1,0
448,344,172255,1,0
376,256,172677,5,8
304,168,173100,1,0
192,160,173522,1,0
264,72,173945,1,8
376,72,174368,1,0
312,168,174790,1,0
240,256,175213,5,8
240,256,175424,1,0
240,256,175635,1,0
128,248,176058,5,0
128,360,176480,1,8
128,248,176903,1,0
128,136,177325,1,0
240,136,177748,5,8
352,136,178170,1,0
352,24,178593,1,0
296,120,179015,1,8
184,120,179438,1,0
296,120,179861,5,0
408,120,180283,1,8
296,120,180706,1,0
184,120,181128,5,0
184,120,181339,1,0
184,120,181551,1,8
184,232,181973,5,0
184,120,182396,1,0
184,232,182818,1,8
184,120,183241,1,0
184,232,183663,1,0
296,232,184086,1,8
184,232,184508,5,0
296,232,184931,1,0
408,232,185353,5,8
408,232,185565,1,0
408,232,185776,1,0
408,120,186199,5,0
296,120,186621,1,8
184,120,187044,1,0
72,120,187466,1,0
72,232,187889,1,8
184,232,188311,1,0
296,232,188734,5,0
296,232,188945,1,0
296,232,189156,1,8
296,120,189579,5,0
184,120,190001,1,0
296,120,190424,1,8
184,120,190846,1,0
296,120,191269,1,0
296,232,191691,5,8
296,232,191903,1,0
296,232,192114,1,0
184,232,192537,5,0
184,120,192959,1,8
72,120,193382,1,0
184,120,193804,1,0
72,120,194227,1,8
256,192,194649,12,4,198875
