osu file format v9

[General]
AudioFilename: Laza Morgan - This Girl (Nightcore Mix).mp3
AudioLeadIn: 0
PreviewTime: 36732
Countdown: 0
SampleSet: Normal
StackLeniency: 0.7
Mode: 0
LetterboxInBreaks: 1

[Editor]
DistanceSpacing: 0.8
BeatDivisor: 4
GridSize: 8

[Metadata]
Title:This Girl (Nightcore Mix)
Artist:Laza Morgan
Creator:ShadowSoul
Version:Hard
Source:
Tags:Tony MoonShade

[Difficulty]
HPDrainRate:6
CircleSize:4
OverallDifficulty:5
ApproachRate:7
SliderMultiplier:2.1
SliderTickRate:1

[Events]
//Background and Video events
0,0,"15901LonelyNight.jpg"
//Break Periods
//Storyboard Layer 0 (Background)
//Storyboard Layer 1 (Fail)
//Storyboard Layer 2 (Pass)
//Storyboard Layer 3 (Foreground)
//Storyboard Sound Samples
//Background Colour Transformations
3,100,163,162,255

[TimingPoints]
12352,380.891921917156,4,1,2,80,1,0
48917,-100,4,1,2,80,0,1
61106,-100,4,1,2,80,0,0
97671,-100,4,1,2,80,0,1
109860,-100,4,1,2,80,0,0

[Colours]
Combo1 : 0,255,255
Combo2 : 255,255,255
Combo3 : 0,0,128
Combo4 : 221,162,163

[HitObjects]
328,48,12352,1,0
392,104,12542,1,0
320,144,12732,2,0,B|264:168|208:136,1,105,8|0
240,64,13113,2,0,B|168:24|128:72|128:72|48:32,1,210,0|8
48,200,13875,5,0
80,280,14066,1,0
128,216,14256,1,8
128,216,14446,1,0
184,280,14637,2,0,B|224:232|280:232,1,105
216,168,15018,1,8
336,48,15399,6,0,B|392:80|392:168,1,105
304,144,15780,1,8
360,208,15970,1,0
312,280,16160,2,0,B|360:328|416:328,2,105,0|0|8
256,344,16732,1,0
176,312,16922,2,0,B|144:256|64:240,1,105,0|0
160,192,17303,1,8
160,192,17494,1,0
96,136,17684,2,0,B|160:80|160:80|96:24|216:24,1,210,0|8
376,64,18446,6,0,B|400:128|456:160,1,105
400,232,18827,2,0,B|352:208|352:208|304:232,1,105,8|0
264,304,19208,2,0,B|216:344|128:344,2,105,0|0|8
136,192,19969,6,0,B|168:128|224:112,1,105
272,64,20350,1,8
344,112,20541,1,0
344,112,20731,2,0,B|408:168|408:168|344:224|464:224,1,210,0|8
328,328,21493,5,0
256,280,21683,1,0
184,328,21874,1,8
256,280,22064,1,0
256,200,22255,2,0,B|304:152|368:152,1,105
288,88,22636,2,0,B|240:40|176:40,1,105,8|0
184,128,23016,2,0,B|136:176|136:176|72:176,1,105
56,248,23397,1,8
112,312,23588,1,0
168,248,23778,2,0,B|224:304|280:304|280:304|304:248|360:248,1,210,0|8
256,40,24921,5,8
328,88,25111,2,0,B|352:152|352:152|416:152|416:152|440:232,1,210
360,256,25683,2,0,B|328:296|328:296|272:296|272:296|248:352|248:352|192:352,1,210,8|0
128,320,26254,5,0
48,288,26445,1,8
112,240,26635,1,0
32,208,26825,1,0
96,160,27016,2,0,B|144:136|144:136|160:80,1,105,0|8
216,24,27397,1,0
296,24,27587,1,0
176,136,27968,1,8
344,136,28349,1,0
256,280,28730,5,8
256,280,29111,1,0
256,96,29682,6,0,B|264:104|264:104|248:104|248:104|264:112|264:112|248:112|248:112|256:120|256:120|256:152,1,105
72,328,30825,5,0
136,272,31015,2,0,B|80:232|80:232|80:176|80:176|136:152|136:152|136:104,1,210,8|0
288,192,31777,2,0,B|344:192|344:192|376:248|376:248|432:248|432:248|480:200,1,210,8|0
456,144,32348,5,0
400,80,32539,1,8
328,40,32729,1,0
328,120,32920,2,0,B|272:120|272:120|208:168,1,105
208,72,33301,1,8
208,72,33491,1,0
152,136,33681,2,0,B|96:168|96:168|96:248|96:248|160:288,2,210,0|8|0
256,192,34824,12,0,36348
256,56,36729,6,0,B|328:48|368:120|368:120|456:104,1,210,4|8
456,272,37490,1,0
296,312,37871,1,8
128,272,38252,1,0
128,272,38443,5,0
88,200,38633,1,8
136,128,38823,1,0
184,200,39014,2,0,B|296:200,1,105
352,152,39395,2,0,B|416:128|416:64,1,105,8|0
448,152,39776,1,0
256,24,40157,1,8
96,80,40538,1,0
56,240,40918,6,0,B|64:232|64:232|64:248|64:248|72:232|72:232|72:248|72:248|80:232|80:232|80:248|80:248|88:232|88:232|88:248|88:248|96:240|96:240|144:240|144:240|176:264,1,210,8|0
232,296,41490,1,0
304,336,41680,1,8
376,296,41871,1,0
432,232,42061,2,0,B|464:184|432:128,1,105
384,64,42442,1,8
304,32,42632,1,0
256,104,42823,5,0
256,272,43204,1,8
256,104,43585,1,0
112,192,43966,1,8
112,280,44156,1,0
40,240,44346,1,0
48,72,44727,2,0,B|96:96|96:96|160:64,1,105,8|0
304,48,45299,6,0,B|320:40|320:40|320:56|320:56|336:40|336:40|336:56|336:56|352:48|376:48,1,105,0|8
448,80,45680,5,0
408,152,45870,2,0,B|344:208|344:208|408:264|288:264,1,210,0|8
120,248,46632,5,0
40,232,46822,1,0
40,144,47013,1,8
120,128,47203,1,0
176,192,47394,2,0,B|232:192|232:192|264:152|320:152|320:152|376:96,1,210,0|8
358,113,47965,1,0
448,256,48346,6,0,B|432:248|432:248|432:264|432:264|416:248|416:248|416:264|416:264|400:256|376:256,1,105,0|8
256,328,48917,6,0,B|184:336|144:264|144:264|56:280,1,210,4|8
56,112,49679,1,0
216,72,50060,1,8
384,112,50441,1,0
384,112,50631,5,0
424,184,50822,1,8
376,256,51012,1,0
328,184,51202,2,0,B|216:184,1,105
160,232,51583,2,0,B|96:256|96:320,1,105,8|0
96,308,51964,1,0
256,360,52345,1,8
416,304,52726,1,0
456,144,53107,6,0,B|448:152|448:152|448:136|448:136|440:152|440:152|440:136|440:136|432:152|432:152|432:136|432:136|424:152|424:152|424:136|424:136|416:144|416:144|368:144|368:144|336:120,1,210,8|0
280,88,53678,1,0
208,48,53869,1,8
136,88,54059,1,0
80,152,54250,2,0,B|48:200|80:256,1,105
128,320,54631,1,8
208,352,54821,1,0
256,280,55011,5,0
256,112,55392,1,8
256,280,55773,1,0
400,192,56154,1,8
400,104,56345,1,0
472,144,56535,1,0
464,312,56916,2,0,B|416:288|416:288|352:320,1,105,8|0
208,336,57487,6,0,B|192:344|192:344|192:328|192:328|176:344|176:344|176:328|176:328|160:336|136:336,1,105,0|8
64,304,57868,5,0
104,232,58059,2,0,B|168:176|168:176|104:120|224:120,1,210,0|8
392,136,58820,5,0
472,152,59011,1,0
472,240,59201,1,8
392,256,59392,1,0
336,192,59582,2,0,B|280:192|280:192|248:232|192:232|192:232|136:288,1,210,0|8
153,270,60153,1,0
64,128,60534,6,0,B|80:136|80:136|80:120|80:120|96:136|96:136|96:120|96:120|112:128|136:128,1,105,0|8
256,24,61106,5,0
320,80,61296,1,0
400,48,61487,1,8
464,104,61677,1,0
384,136,61867,2,0,B|336:176|312:232,1,105
384,272,62248,1,8
224,320,62629,5,0
160,264,62820,1,0
96,320,63010,1,8
160,264,63201,1,0
96,208,63391,2,0,B|48:152|64:104|64:104|120:64|184:104,1,210,0|8
320,48,64153,6,0,B|376:64|400:128,1,105
304,256,64534,2,0,B|248:240|224:176,1,105,8|0
256,112,64915,1,0
320,168,65105,1,0
392,208,65295,1,8
320,168,65486,1,0
248,216,65676,2,0,B|200:264|144:264,1,105
168,176,66057,1,8
80,216,66248,1,0
96,136,66438,2,0,B|48:112|48:112|48:40|112:32|112:32|176:64,1,210,0|8
320,48,67200,6,0,B|384:72|408:136,1,105
320,144,67581,1,8
264,208,67771,1,0
320,272,67962,2,0,B|368:304|368:304|408:264|456:272|456:272|504:312,1,210,0|8
456,144,68724,5,0
408,80,68914,1,0
376,160,69104,1,8
328,96,69295,1,0
256,48,69485,2,0,B|224:96|160:96|160:96|152:152|216:184,1,210,0|8
112,264,70247,5,0
176,320,70438,1,0
232,264,70628,2,0,B|320:344,1,105,8|0
320,248,71009,1,0
384,304,71199,1,0
400,224,71390,1,8
336,168,71580,6,0,B|376:120|376:64,1,105
296,40,71961,1,0
216,40,72152,1,8
136,72,72342,2,0,B|135:119|183:175,1,105
256,344,73485,5,0
184,296,73675,2,0,B|160:232|160:232|96:232|96:232|72:152,1,210,8|0
240,136,74437,2,0,B|272:96|272:96|328:96|328:96|352:40|352:40|408:40,1,210,8|0
392,40,75008,5,0
472,72,75199,1,8
408,120,75389,1,0
488,152,75580,1,0
424,200,75770,2,0,B|376:224|376:224|360:280,1,105,0|8
304,336,76151,1,0
224,336,76341,1,0
344,224,76722,1,8
176,224,77103,1,0
256,80,77484,5,8
256,80,77865,1,0
256,264,78436,6,0,B|248:256|248:256|264:256|264:256|248:248|248:248|264:248|264:248|256:240|256:240|256:208,1,105
448,32,79579,5,0
384,88,79769,2,0,B|440:128|440:128|440:184|440:184|384:208|384:208|384:256,1,210,8|0
232,168,80531,2,0,B|176:168|176:168|144:112|144:112|88:112|88:112|40:160,1,210,8|0
64,216,81102,5,0
120,280,81293,1,8
192,320,81483,1,0
192,240,81674,2,0,B|248:240|248:240|312:192,1,105
312,288,82055,1,8
312,288,82245,1,0
368,224,82436,2,0,B|424:192|424:192|424:112|424:112|360:72,2,210
256,192,83578,12,0,85102
304,336,85483,6,0,B|360:272|360:272|416:328|504:240,1,210,4|8
416,112,86245,1,0
256,64,86625,1,8
96,112,87006,1,0
40,176,87197,6,0,B|16:232|40:280,1,105,0|8
104,232,87578,1,0
168,184,87768,1,0
240,232,87959,1,0
312,280,88149,2,0,B|336:224|312:176,1,105,8|0
256,112,88530,5,0
408,192,88911,1,8
256,272,89292,1,0
104,192,89673,2,0,B|96:176|96:176|112:176|112:176|96:160|96:160|112:160|112:160|96:144|96:144|112:144|112:144|96:128|96:128|112:128|112:128|104:120|104:120|136:72,1,210,8|0
200,40,90244,5,0
256,104,90434,1,8
312,40,90625,1,0
368,104,90815,2,0,B|416:144|432:208,1,105
392,264,91196,1,8
416,344,91387,1,0
416,344,91577,5,0
256,288,91958,1,8
96,344,92339,1,0
112,176,92720,2,0,B|88:128|88:128|24:128,2,105,8|0|0
256,80,93481,1,8
328,40,93672,1,0
456,152,94053,6,0,B|448:160|448:160|464:160|464:160|448:168|448:168|464:168|464:168|456:176|456:176|456:208,1,105,0|8
440,288,94434,5,0
368,328,94624,2,0,B|312:352|256:320,1,105
192,280,95005,1,8
112,312,95195,1,0
128,232,95386,2,0,B|88:176|40:160,1,105
128,128,95767,2,0,B|192:96|192:32,1,105,8|0
256,96,96148,1,0
256,264,96529,1,8
256,264,96719,1,0
400,200,97100,6,0,B|408:200|408:200|400:208|400:208|416:208|416:208|408:216|408:216|416:216|416:216|456:248,1,105,0|8
208,336,97671,6,0,B|152:272|152:272|96:328|8:240,1,210,4|8
96,112,98433,1,0
256,64,98814,1,8
416,112,99195,1,0
472,176,99385,6,0,B|496:232|472:280,1,105,0|8
408,232,99766,1,0
344,184,99957,1,0
272,232,100147,1,0
200,280,100338,2,0,B|176:224|200:176,1,105,8|0
256,112,100718,5,0
104,192,101099,1,8
256,272,101480,1,0
408,192,101861,2,0,B|416:176|416:176|400:176|400:176|416:160|416:160|400:160|400:160|416:144|416:144|400:144|400:144|416:128|416:128|400:128|400:128|408:120|408:120|376:72,1,210,8|0
312,40,102432,5,0
256,104,102623,1,8
200,40,102813,1,0
144,104,103004,2,0,B|96:144|80:208,1,105
120,264,103385,1,8
96,344,103575,1,0
96,344,103766,5,0
256,288,104146,1,8
416,344,104527,1,0
400,176,104908,2,0,B|424:128|424:128|488:128,2,105,8|0|0
256,80,105670,1,8
184,40,105860,1,0
56,152,106241,6,0,B|64:160|64:160|48:160|48:160|64:168|64:168|48:168|48:168|56:176|56:176|56:208,1,105,0|8
72,288,106622,5,0
144,328,106813,2,0,B|200:352|256:320,1,105
320,280,107194,1,8
400,312,107384,1,0
384,232,107574,2,0,B|424:176|472:160,1,105
384,128,107955,2,0,B|320:96|320:32,1,105,8|0
256,96,108336,1,0
256,264,108717,1,8
256,264,108908,1,0
112,200,109288,6,0,B|104:200|104:200|112:208|112:208|96:208|96:208|104:216|104:216|96:216|96:216|56:248,1,105,0|8
64,88,109860,1,4
