osu file format v9

[General]
AudioFilename: ZombiesOnYourLawn.ogg
AudioLeadIn: 0
PreviewTime: 82820
Countdown: 0
SampleSet: Soft
StackLeniency: 0.2
Mode: 0
LetterboxInBreaks: 1

[Editor]
Bookmarks: 19963,38249,73106,108320,128463
DistanceSpacing: 0.8
BeatDivisor: 4
GridSize: 8

[Metadata]
Title:Zombies on your Lawn
Artist:Laura Shigihara
Creator:zhugeee
Version:Hard
Source:Plants vs. Zombies
Tags:PVZ

[Difficulty]
HPDrainRate:5
CircleSize:5
OverallDifficulty:5
ApproachRate:5
SliderMultiplier:1.4
SliderTickRate:2

[Events]
//Background and Video events
0,0,"titlescreen.jpg"
//Break Periods
2,57342,71656
2,93914,110799
//Storyboard Layer 0 (Background)
//Storyboard Layer 1 (Fail)
//Storyboard Layer 2 (Pass)
//Storyboard Layer 3 (Foreground)
//Storyboard Sound Samples
//Background Colour Transformations
3,100,192,192,192

[TimingPoints]
0,571.428571428571,4,2,0,40,1,0
74535,-100,4,2,0,40,0,1
93678,-100,4,2,0,40,0,0
129678,-100,4,2,0,40,0,1

[Colours]
Combo1 : 128,0,255
Combo2 : 5,240,5
Combo3 : 5,5,240
Combo4 : 240,5,5
Combo5 : 255,150,0

[HitObjects]
256,192,18285,12,0,19428
304,192,19999,6,0,B|272:224|240:192,1,70
176,192,20571,1,0
128,128,20857,1,0
144,64,21142,2,0,B|176:32|208:64,1,70
272,64,21714,1,0
336,64,21999,1,0
400,64,22285,1,0
400,128,22571,1,0
352,176,22856,2,0,B|320:208|288:176,4,70
384,272,24571,5,0
384,272,24857,1,0
320,288,25142,1,0
320,288,25428,1,0
320,288,25714,1,0
320,288,25999,1,0
256,304,26285,2,0,B|160:304|160:208,1,140
160,184,27142,1,0
160,144,27428,2,0,B|240:144,4,70
160,144,28857,1,0
160,144,29142,5,0
160,144,29428,1,0
160,224,29714,2,0,B|240:224,1,70
230,224,30285,1,0
230,224,30571,1,0
230,224,30856,2,0,B|160:224,1,70
160,224,31428,1,0
160,176,31714,1,0
160,128,31999,2,0,B|224:192,3,70
209,177,33142,1,0
144,336,33714,5,0
144,288,33999,1,0
144,240,34285,2,0,B|208:240|208:160|144:160,1,140
143,159,35142,1,0
144,160,35428,2,0,B|80:160|80:80|144:80,1,140
192,112,36285,1,0
240,128,36571,2,0,B|320:128,3,70
310,128,37714,1,0
360,184,37999,1,0
336,256,38285,5,0
288,304,38571,1,0
240,256,38856,1,0
192,304,39142,1,0
144,256,39428,1,0
96,304,39714,1,0
48,256,39999,2,0,B|48:176,2,70
176,112,41142,5,0
224,160,41428,1,0
272,112,41714,1,0
320,160,41999,1,0
368,112,42285,1,0
416,160,42571,1,0
464,208,42856,2,0,B|464:288,2,70
320,240,43999,6,0,B|288:272|256:240,1,70
258,242,44571,1,0
256,288,44857,1,0
256,336,45142,2,0,B|336:336,1,70
326,336,45714,1,0
304,288,45999,1,0
272,240,46285,1,0
240,192,46571,1,0
224,144,46856,2,0,B|256:80|256:80|288:144,1,140
336,48,47999,6,0,B|400:112,1,70
385,97,48571,2,0,B|320:160,1,70
334,145,49142,2,0,B|400:208,1,70
385,194,49714,2,0,B|320:256,2,70
385,194,50571,1,0
288,192,50856,2,0,B|256:160|224:192,1,70
128,192,51428,2,0,B|128:336|128:336,2,140
192,264,52857,1,0
256,336,53142,5,0
336,272,53428,1,0
336,272,53714,2,0,B|256:192|208:240,1,140
214,234,54571,1,0
214,234,54856,2,0,B|304:176|352:192,2,140
214,234,56285,1,0
214,234,56571,1,0
214,234,56857,1,0
214,234,57142,1,4
288,208,72856,5,0
256,192,73142,1,0
224,176,73428,1,0
192,160,73714,1,0
160,144,73999,2,0,B|160:72,1,70
224,64,74856,5,0
304,64,75142,1,0
304,64,75428,2,0,B|352:80|368:128,1,70
358,106,75999,2,0,B|384:144|384:176,1,70
383,170,76571,2,0,B|384:224|352:256,1,70
366,237,77142,2,0,B|352:272|320:304,1,70
328,295,77714,1,0
256,320,77999,1,0
208,240,78285,1,0
288,208,78571,1,0
208,160,78856,1,0
304,96,79428,5,0
240,64,79714,1,0
240,64,79999,2,0,B|192:64|160:96,1,70
174,83,80571,1,0
174,83,80856,2,0,B|96:112|112:208,2,140
174,83,82285,2,0,B|240:112,1,70
238,111,82856,1,0
256,192,83142,1,0
256,192,83428,1,0
256,304,83999,6,0,B|352:304,1,70
326,304,84571,2,0,B|416:272|416:192,1,140
400,128,85428,1,0
400,128,85714,2,0,B|352:32|288:128,1,140
320,192,86571,1,0
336,256,86856,1,0
336,336,87142,1,0
256,336,87428,1,0
256,256,87714,1,0
176,256,87999,1,0
112,224,88571,6,0,B|112:128,1,70
208,96,89142,2,0,B|288:32|336:96|336:96,1,140
333,93,89999,1,0
336,192,90285,2,0,B|288:288|400:304,1,140
377,299,91142,1,0
256,192,91428,12,4,93714
256,192,111999,12,0,113142
96,96,113714,1,0
96,96,113999,1,0
96,96,114285,2,0,B|96:208|208:224,1,140
224,224,115142,1,0
224,224,115428,1,0
272,272,115714,2,0,B|336:272,2,35
256,192,116571,12,0,117714
304,144,118285,1,0
336,144,118571,1,0
368,144,118856,2,0,B|368:224|336:240|272:272,2,140
368,144,120285,2,0,B|416:144,2,35
256,192,121142,12,0,121999
256,192,122571,5,0
304,144,122856,1,0
352,192,123142,1,0
304,240,123428,2,0,B|240:304|144:304|96:224,1,210
80,192,124571,1,0
144,176,124857,2,0,B|192:176,4,35
224,176,125714,1,0
304,160,126285,6,0,B|304:112,4,35
256,192,127714,12,0,129142
160,256,129714,5,0
96,208,129999,1,0
128,128,130285,2,0,B|192:160|192:64|256:96,1,140
336,80,131142,1,0
416,112,131428,2,0,B|352:144|400:176,1,70
368,256,131999,2,0,B|352:224|304:256,1,70
240,240,132571,1,0
160,240,132856,1,0
160,160,133142,2,0,B|208:160,4,35
160,80,134285,5,0
80,80,134571,1,0
80,80,134856,2,0,B|-16:128|176:128|80:176,1,140
96,256,135714,1,0
96,256,135999,2,0,B|208:256|208:160,1,140
272,176,136856,1,0
304,160,137142,1,0
272,128,137428,1,0
304,112,137714,2,0,B|272:80,4,35
144,160,138856,5,0
144,160,139142,1,0
144,160,139428,2,0,B|144:256|256:256,1,140
227,254,140285,1,0
227,254,140571,2,0,B|336:256|336:160,1,140
333,185,141428,1,0
208,160,141714,1,0
272,128,141999,1,0
208,160,142285,2,0,B|176:176|160:144,4,35
368,64,143428,5,0
368,64,143714,1,0
368,64,143999,2,0,B|208:64,1,140
176,64,144856,1,0
112,64,145142,2,0,B|112:208,1,140
112,256,145999,1,0
256,192,146285,12,4,148571
